Tags
Language
Tags

Herbie Hancock & VA - Blow-Up: Original Motion Picture Soundtrack (1966) Remastered 1996 [Re-Up]

Posted By: Designol
Herbie Hancock & VA - Blow-Up: Original Motion Picture Soundtrack (1966) Remastered 1996 [Re-Up]

Herbie Hancock & VA - Blow-Up: Original Motion Picture Soundtrack (1966) Remastered 1996
EAC | FLAC | Tracks (Cue&Log) ~ 197 Mb | Mp3 (CBR320) ~ 102 Mb | Scans ~ 115 Mb
Soundtrack, Hard Bop, Post-Bop, Modal Jazz | Label: Rhino Movie | # R2 72527 | 00:43:40

This is the original soundtrack for the movie Blow-Up. In late 1966, Herbie Hancock, Freddie Hubbard, Joe Henderson, Ron Carter and Jack DeJohnette entered a New York studio to capture the vibe of 'swinging London' in a jazz mode - with grooves that create effective bluesy moods on the slow pieces and funky ones on the up-tempo tracks. Meanwhile in London, the Yardbirds (with Jeff Beck and Jimmy Page) were recording additional material for use in the Blow-Up movie soundtrack.

A young Herbie Hancock contributed the bulk of the score to Michelangelo Antonioni's 1966 screen classic, evoking the ambience of swinging London with grooves that create effective bluesy moods on the slow pieces, and funky ones on the up-tempo tracks. Rock fans remember the film and the soundtrack for the inclusion of a rare Yardbirds number, "Stroll On" (actually, an adaptation of "The Train Kept A-Rollin'"), one of only three songs they recorded with both Jeff Beck and Jimmy Page on guitars. That cut is also included (although it's also been reissued elsewhere).

Review by Richie Unterberger, Allmusic.com

Herbie Hancock & VA - Blow-Up: Original Motion Picture Soundtrack (1966) Remastered 1996 [Re-Up]



Tracklist:

01. Main Title (Blow-Up) (01:35)
02. Verushka (Part 1) (02:42)
03. Verushka (Part 2) (02:09)
04. Butchie's Tune (02:34) - Performed by unnamed studio musicians/Music & lyrics by Steve Boone
05. Did You Ever Have To Make Up Your Mind? (01:58) - Performed by unnamed studio musicians/Music & lyrics by John Sebastian
06. Bring Down The Birds (Outtake) (01:49)
07. The Naked Camera (03:23)
08. Jane's Theme (05:00)
09. The Thief (03:11)
10. The Kiss (04:13)
11. Curiosity (01:29)
12. Thomas Studies Photos (01:10)
13. The Bed (02:34)
14. Stroll On (02:44) - Peformed by The Yardbirds
15. End Title (Blow-Up) (00:50)
16. Am I Glad To See You (Outtake) (04:26) - Performed by Tomorrow
17. Blow-Up (Outtake) (01:53) - Performed by Tomorrow


Exact Audio Copy V1.0 beta 3 from 29. August 2011

EAC extraction logfile from 24. November 2012, 12:28

Various / Blow-Up

Used drive : PLEXTOR DVDR PX-L890SA Adapter: 1 ID: 0

Read mode : Secure
Utilize accurate stream : Yes
Defeat audio cache : Yes
Make use of C2 pointers : No

Read offset correction : 6
Overread into Lead-In and Lead-Out : No
Fill up missing offset samples with silence : Yes
Delete leading and trailing silent blocks : No
Null samples used in CRC calculations : Yes
Used interface : Installed external ASPI interface
Gap handling : Appended to previous track

Used output format : User Defined Encoder
Selected bitrate : 1024 kBit/s
Quality : High
Add ID3 tag : No
Command line compressor : C:\Program Files\Exact Audio Copy\Flac\flac.exe
Additional command line options : -V -8 -T "Genre=%genre%" -T "Artist=%artist%" -T "Title=%title%" -T "Album=%albumtitle%" -T "Date=%year%" -T "Tracknumber=%tracknr%" -T "Comment=%comment%" %source%


TOC of the extracted CD

Track | Start | Length | Start sector | End sector
––––––––––––––––––––––––––––-
1 | 0:00.32 | 1:32.63 | 32 | 6994
2 | 1:33.20 | 2:43.47 | 6995 | 19266
3 | 4:16.67 | 2:11.58 | 19267 | 29149
4 | 6:28.50 | 2:45.15 | 29150 | 41539
5 | 9:13.65 | 2:01.42 | 41540 | 50656
6 | 11:15.32 | 1:46.23 | 50657 | 58629
7 | 13:01.55 | 3:24.70 | 58630 | 73999
8 | 16:26.50 | 5:05.05 | 74000 | 96879
9 | 21:31.55 | 3:13.30 | 96880 | 111384
10 | 24:45.10 | 4:15.72 | 111385 | 130581
11 | 29:01.07 | 1:30.48 | 130582 | 137379
12 | 30:31.55 | 1:11.72 | 137380 | 142776
13 | 31:43.52 | 2:36.58 | 142777 | 154534
14 | 34:20.35 | 2:46.32 | 154535 | 167016
15 | 37:06.67 | 0:51.43 | 167017 | 170884
16 | 37:58.35 | 4:27.52 | 170885 | 190961
17 | 42:26.12 | 1:53.20 | 190962 | 199456


Track 1

Filename F:\torrent\Blow-Up_Herbie Hancock\ost\01 Main Title (Blow-Up).wav

Pre-gap length 0:00:02.32

Peak level 95.6 %
Extraction speed 3.9 X
Track quality 100.0 %
Test CRC B1E00D37
Copy CRC B1E00D37
Cannot be verified as accurate (confidence 7) [579D0C55], AccurateRip returned [0C6F7291] (AR v2)
Copy OK

Track 2

Filename F:\torrent\Blow-Up_Herbie Hancock\ost\02 Verushka (part 1).wav

Pre-gap length 0:00:00.58

Peak level 100.0 %
Extraction speed 4.8 X
Track quality 100.0 %
Test CRC 2F87175E
Copy CRC 2F87175E
Cannot be verified as accurate (confidence 7) [3C1291EB], AccurateRip returned [37F1D54A] (AR v2)
Copy OK

Track 3

Filename F:\torrent\Blow-Up_Herbie Hancock\ost\03 Verushka (part 2).wav

Pre-gap length 0:00:00.20

Peak level 86.8 %
Extraction speed 4.0 X
Track quality 99.9 %
Test CRC 3A90FC03
Copy CRC 3A90FC03
Cannot be verified as accurate (confidence 7) [F08BC55A], AccurateRip returned [86F2E3D6] (AR v2)
Copy OK

Track 4

Filename F:\torrent\Blow-Up_Herbie Hancock\ost\04 Butchie's Tune.wav

Pre-gap length 0:00:01.13

Peak level 88.6 %
Extraction speed 5.4 X
Track quality 100.0 %
Test CRC 2C04BBAD
Copy CRC 2C04BBAD
Cannot be verified as accurate (confidence 8) [F6F75E67], AccurateRip returned [DA669410] (AR v2)
Copy OK

Track 5

Filename F:\torrent\Blow-Up_Herbie Hancock\ost\05 Did You Ever Have To Make Up Your Mind.wav

Pre-gap length 0:00:01.20

Peak level 99.8 %
Extraction speed 5.3 X
Track quality 100.0 %
Test CRC 477DA52E
Copy CRC 477DA52E
Cannot be verified as accurate (confidence 7) [C0540B09], AccurateRip returned [5F53D98A] (AR v2)
Copy OK

Track 6

Filename F:\torrent\Blow-Up_Herbie Hancock\ost\06 Bring Down the Birds.wav

Pre-gap length 0:00:01.62

Peak level 90.8 %
Extraction speed 5.4 X
Track quality 100.0 %
Test CRC C162E2FE
Copy CRC C162E2FE
Cannot be verified as accurate (confidence 7) [534E0FA2], AccurateRip returned [1E6F7B20] (AR v2)
Copy OK

Track 7

Filename F:\torrent\Blow-Up_Herbie Hancock\ost\07 The Naked Camera.wav

Pre-gap length 0:00:00.43

Peak level 94.8 %
Extraction speed 6.3 X
Track quality 100.0 %
Test CRC 16CE86C8
Copy CRC 16CE86C8
Cannot be verified as accurate (confidence 7) [8D91CD59], AccurateRip returned [4CAC42AE] (AR v2)
Copy OK

Track 8

Filename F:\torrent\Blow-Up_Herbie Hancock\ost\08 Jane's Theme.wav

Pre-gap length 0:00:00.35

Peak level 72.0 %
Extraction speed 7.2 X
Track quality 100.0 %
Test CRC 4A894C21
Copy CRC 4A894C21
Cannot be verified as accurate (confidence 7) [DDACD330], AccurateRip returned [F76A3312] (AR v2)
Copy OK

Track 9

Filename F:\torrent\Blow-Up_Herbie Hancock\ost\09 The Thief.wav

Pre-gap length 0:00:01.20

Peak level 92.4 %
Extraction speed 7.0 X
Track quality 100.0 %
Test CRC 594DB95E
Copy CRC 594DB95E
Cannot be verified as accurate (confidence 7) [7D38FC19], AccurateRip returned [A96F0D8A] (AR v2)
Copy OK

Track 10

Filename F:\torrent\Blow-Up_Herbie Hancock\ost\10 The Kiss.wav

Pre-gap length 0:00:01.28

Peak level 96.7 %
Extraction speed 6.8 X
Track quality 99.9 %
Test CRC 60F22412
Copy CRC 60F22412
Cannot be verified as accurate (confidence 7) [2171514A], AccurateRip returned [CB9501D0] (AR v2)
Copy OK

Track 11

Filename F:\torrent\Blow-Up_Herbie Hancock\ost\11 Curiosity.wav

Pre-gap length 0:00:01.30

Peak level 73.7 %
Extraction speed 5.0 X
Track quality 99.8 %
Test CRC CD5E5FB5
Copy CRC CD5E5FB5
Cannot be verified as accurate (confidence 7) [BCD56A1A], AccurateRip returned [41D7F1F1] (AR v2)
Copy OK

Track 12

Filename F:\torrent\Blow-Up_Herbie Hancock\ost\12 Thomas Studies Photos.wav

Pre-gap length 0:00:00.13

Peak level 82.2 %
Extraction speed 6.0 X
Track quality 100.0 %
Test CRC C78E28B3
Copy CRC C78E28B3
Cannot be verified as accurate (confidence 7) [1C20E106], AccurateRip returned [C1BB79E5] (AR v2)
Copy OK

Track 13

Filename F:\torrent\Blow-Up_Herbie Hancock\ost\13 The Bed.wav

Pre-gap length 0:00:00.30

Peak level 63.1 %
Extraction speed 7.4 X
Track quality 100.0 %
Test CRC DA529D47
Copy CRC DA529D47
Cannot be verified as accurate (confidence 6) [470EDB9B], AccurateRip returned [3874AFBA] (AR v2)
Copy OK

Track 14

Filename F:\torrent\Blow-Up_Herbie Hancock\ost\14 Stroll On.wav

Pre-gap length 0:00:00.50

Peak level 100.0 %
Extraction speed 7.7 X
Track quality 100.0 %
Test CRC 046C4329
Copy CRC 046C4329
Cannot be verified as accurate (confidence 6) [46FA26E2], AccurateRip returned [B7AF1CEC] (AR v2)
Copy OK

Track 15

Filename F:\torrent\Blow-Up_Herbie Hancock\ost\15 Herbie Hancock - End Title (Blow-Up).wav

Pre-gap length 0:00:01.07

Peak level 93.3 %
Extraction speed 5.4 X
Track quality 100.0 %
Test CRC 904735A4
Copy CRC 904735A4
Cannot be verified as accurate (confidence 7) [B14BEFE1], AccurateRip returned [F9CFDA0F] (AR v2)
Copy OK

Track 16

Filename F:\torrent\Blow-Up_Herbie Hancock\ost\16 Am I Glad To See You (outtake).wav

Pre-gap length 0:00:02.00

Peak level 72.3 %
Extraction speed 8.4 X
Track quality 100.0 %
Test CRC AAB2709F
Copy CRC AAB2709F
Cannot be verified as accurate (confidence 7) [CF670443], AccurateRip returned [E90C0BCB] (AR v2)
Copy OK

Track 17

Filename F:\torrent\Blow-Up_Herbie Hancock\ost\17 Blow-Up (outtake).wav

Pre-gap length 0:00:01.27

Peak level 71.5 %
Extraction speed 7.7 X
Track quality 100.0 %
Test CRC 0D5E6D2D
Copy CRC 0D5E6D2D
Cannot be verified as accurate (confidence 7) [BDC0707D], AccurateRip returned [712D22C9] (AR v2)
Copy OK


No tracks could be verified as accurate
You may have a different pressing from the one(s) in the database

No errors occurred

End of status report

==== Log checksum E5CC462B125ABAB9E7C3B03770DE2294DE7A10CB44965A2AF5BBB17E796156F2 ====

foobar2000 1.1.16 / Dynamic Range Meter 1.1.1
log date: 2012-12-15 00:50:15

––––––––––––––––––––––––––––––––––––––––
Analyzed: Herbie Hancock / Blow-Up (1-12)
The Yardbirds / Blow-Up (13)
Tomorrow / Blow-Up (14-15)
Unamed studio musicians / Blow-Up (16-17)
––––––––––––––––––––––––––––––––––––––––

DR Peak RMS Duration Track
––––––––––––––––––––––––––––––––––––––––
DR13 -0.39 dB -16.78 dB 1:33 01-Main Title (Blow-Up)
DR14 0.00 dB -18.01 dB 2:44 02-Verushka (part 1)
DR14 -1.23 dB -19.12 dB 2:12 03-Verushka (part 2)
DR12 -0.84 dB -15.50 dB 1:46 06-Bring Down the Birds
DR12 -0.46 dB -15.51 dB 3:25 07-The Naked Camera
DR13 -2.85 dB -20.11 dB 5:05 08-Jane's Theme
DR13 -0.68 dB -17.64 dB 3:13 09-The Thief
DR14 -0.29 dB -21.11 dB 4:16 10-The Kiss
DR13 -2.64 dB -20.42 dB 1:31 11-Curiosity
DR12 -1.69 dB -17.27 dB 1:12 12-Thomas Studies Photos
DR14 -3.99 dB -22.13 dB 2:37 13-The Bed
DR13 -0.60 dB -17.15 dB 0:52 15-Herbie Hancock - End Title (Blow-Up)
DR10 0.00 dB -11.99 dB 2:46 14-Stroll On
DR12 -2.81 dB -16.60 dB 4:28 16-Am I Glad To See You (outtake)
DR11 -2.91 dB -14.98 dB 1:53 17-Blow-Up (outtake)
DR13 -1.05 dB -16.35 dB 2:45 04-Butchie's Tune
DR10 -0.01 dB -13.22 dB 2:02 05-Did You Ever Have To Make Up Your Mind?
––––––––––––––––––––––––––––––––––––––––

Number of tracks: 17
Official DR value: DR13

Samplerate: 44100 Hz
Channels: 2
Bits per sample: 16
Bitrate: 558 kbps
Codec: FLAC
================================================================================

Herbie Hancock & VA - Blow-Up: Original Motion Picture Soundtrack (1966) Remastered 1996 [Re-Up]

Herbie Hancock & VA - Blow-Up: Original Motion Picture Soundtrack (1966) Remastered 1996 [Re-Up]