Subcategories

Bob Marley & the Wailers - Legend (1984) [30th Anniversary Deluxe Edition, CD+Blu-ray] Re-up

Posted By: v3122
Bob Marley & the Wailers - Legend (1984) [30th Anniversary Deluxe Edition, CD+Blu-ray] Re-up

Bob Marley & the Wailers - Legend (1984)
EAC | Flac(Image) + Cue + Log & MP3 CBR 320Kbps
2014 | Island Def Jam Music, 602537854325 | ~ 478 or 170 Mb | Scans(jpg) -> 141 Mb
Blu-ray: MPEG-4 AVC, 1080p, 23,976 fps, 16:9, High Profile 4.1
DTS-HD MA 5.1, 96 kHz, 24-bit / Dolby TrueHD 5.1, 96 kHz, 24-bit / LPCM 2.0, 96 kHz, 24-bit
Reggae

The classic Bob Marley album, the one that any fair-weather reggae fan owns, Legend contains 14 of his greatest songs, running the gamut from "I Shot the Sheriff" to the meditative "Redemption Song" and the irrepressible "Three Little Birds." Some may argue that the compilation shortchanges his groundbreaking early ska work or his status as a political commentator, but this isn't meant to be definitive, it's meant to be an introduction, sampling the very best of his work, and it sticks to his later output for Island Records. And it does that remarkably well, offering all of his genre-defying greats and an illustration of his excellence, warmth, and humanity. In a way, it is perfect since it gives a doubter or casual fan anything they could want. Let's face it, the beauty and simplicity of Marley's music was as important as his message, and that's captured particularly well here. [A 30th Anniversary CD/DVD set was released in 2014.]

by Stephen Thomas Erlewine, allmusic
Bob Marley & the Wailers - Legend (1984):

Bob Marley & the Wailers - Legend (1984) [30th Anniversary Deluxe Edition, CD+Blu-ray] Re-up

Tracklist CD:

01. Is this Love [3:50]
02. No Woman No Cry (Live)* [7:09]
03. Could You Be Loved [3:57]
04. Three Little Birds [3:01]
05. Buffalo Soldier [4:17]
06. Get Up Stand Up [3:18]
07. Stir It Up [5:31]
08. Easy Skanking [2:57]
09. One Love / People Get Ready [2:52]
10. I Shot the Sheriff [4:40]
11. Waiting in Vain [4:16]
12. Redemption Song [3:47]
13. Satisfy My Soul [4:31]
14. Exodus [7:40]
15. Jamming [3:33]
16. Punky Reggae Party [6:52]

Exact Audio Copy V1.3 from 2. September 2016

EAC extraction logfile from 10. February 2017, 1:07

BOB MARLEY & THE WAILERS / Legend (Germany, Island, 602537854325)

Used drive : ASUS DRW-24B3ST Adapter: 1 ID: 1

Read mode : Secure
Utilize accurate stream : Yes
Defeat audio cache : Yes
Make use of C2 pointers : No

Read offset correction : 6
Overread into Lead-In and Lead-Out : No
Fill up missing offset samples with silence : Yes
Delete leading and trailing silent blocks : No
Null samples used in CRC calculations : Yes
Used interface : Native Win32 interface for Win NT & 2000

Used output format : User Defined Encoder
Selected bitrate : 1024 kBit/s
Quality : High
Add ID3 tag : No
Command line compressor : C:\Program Files\EAC(v.1.3)\WV\wavpack.exe
Additional command line options : -h -hh -m %source%


TOC of the extracted CD

Track | Start | Length | Start sector | End sector
––––––––––––––––––––––––––––-
1 | 0:00.00 | 3:49.72 | 0 | 17246
2 | 3:49.72 | 7:09.14 | 17247 | 49435
3 | 10:59.11 | 3:56.69 | 49436 | 67204
4 | 14:56.05 | 3:00.39 | 67205 | 80743
5 | 17:56.44 | 4:16.43 | 80744 | 99986
6 | 22:13.12 | 3:17.60 | 99987 | 114821
7 | 25:30.72 | 5:31.10 | 114822 | 139656
8 | 31:02.07 | 2:56.38 | 139657 | 152894
9 | 33:58.45 | 2:51.43 | 152895 | 165762
10 | 36:50.13 | 4:40.34 | 165763 | 186796
11 | 41:30.47 | 4:16.24 | 186797 | 206020
12 | 45:46.71 | 3:47.24 | 206021 | 223069
13 | 49:34.20 | 4:31.19 | 223070 | 243413
14 | 54:05.39 | 7:40.05 | 243414 | 277918
15 | 61:45.44 | 3:32.46 | 277919 | 293864
16 | 65:18.15 | 6:51.47 | 293865 | 324736


Range status and errors

Selected range

Filename F:\BOB MARLEY & THE WAILERS - Legend (1984) (DE 2014 Island Def Jam Music Group • 602537854325)\BOB MARLEY & THE WAILERS - Legend (Germany, Island, 602537854325).wav

Peak level 99.8 %
Extraction speed 8.3 X
Range quality 100.0 %
Test CRC 1E808C71
Copy CRC 1E808C71
Copy OK

No errors occurred


AccurateRip summary

Track 1 accurately ripped (confidence 8) [03178E22] (AR v2)
Track 2 accurately ripped (confidence 8) [A5C3676D] (AR v2)
Track 3 accurately ripped (confidence 8) [B2ACDA02] (AR v2)
Track 4 accurately ripped (confidence 8) [D574CE98] (AR v2)
Track 5 accurately ripped (confidence 8) [FF5C37AB] (AR v2)
Track 6 accurately ripped (confidence 8) [46A2FB08] (AR v2)
Track 7 accurately ripped (confidence 8) [9870598F] (AR v2)
Track 8 accurately ripped (confidence 8) [F610ED19] (AR v2)
Track 9 accurately ripped (confidence 8) [10CFEAB6] (AR v2)
Track 10 accurately ripped (confidence 8) [5D464BDD] (AR v2)
Track 11 accurately ripped (confidence 8) [F74B9BD4] (AR v2)
Track 12 accurately ripped (confidence 8) [CFB72AB6] (AR v2)
Track 13 accurately ripped (confidence 8) [DD0E0863] (AR v2)
Track 14 accurately ripped (confidence 8) [5858C097] (AR v2)
Track 15 accurately ripped (confidence 8) [7A31E3AB] (AR v2)
Track 16 accurately ripped (confidence 8) [4F98C027] (AR v2)

All tracks accurately ripped

End of status report

==== Log checksum 27BCE64C42FD38D586B1E7C5CF48AC3D31DF03D87A53FB88B6F82AC30F41B3E3 ====

foobar2000 1.2.9 / Dynamic Range Meter 1.1.1
log date: 2017-02-25 13:24:13

––––––––––––––––––––––––––––––––––––––––
Analyzed: BOB MARLEY & THE WAILERS / Legend (Germany, Island, 602537854325)
––––––––––––––––––––––––––––––––––––––––

DR Peak RMS Duration Track
––––––––––––––––––––––––––––––––––––––––
DR9 -0.01 dB -11.01 dB 3:50 01-Is this Love
DR9 -0.11 dB -11.12 dB 7:09 02-No Woman No Cry (Live)*
DR9 -0.01 dB -10.12 dB 3:57 03-Could You Be Loved
DR10 -0.73 dB -12.56 dB 3:01 04-Three Little Birds
DR10 -0.01 dB -11.09 dB 4:17 05-Buffalo Soldier
DR9 -0.01 dB -10.60 dB 3:18 06-Get Up Stand Up
DR10 -0.01 dB -11.26 dB 5:31 07-Stir It Up
DR10 -0.01 dB -10.85 dB 2:57 08-Easy Skanking
DR9 -0.73 dB -11.15 dB 2:52 09-One Love / People Get Ready
DR9 -0.20 dB -11.42 dB 4:40 10-I Shot the Sheriff
DR10 -0.73 dB -12.85 dB 4:16 11-Waiting in Vain
DR12 -0.01 dB -15.85 dB 3:47 12-Redemption Song
DR10 -0.01 dB -11.65 dB 4:31 13-Satisfy My Soul
DR8 -0.73 dB -10.38 dB 7:40 14-Exodus
DR9 -0.73 dB -11.29 dB 3:33 15-Jamming
DR9 -0.01 dB -9.53 dB 6:52 16-Punky Reggae Party
––––––––––––––––––––––––––––––––––––––––

Number of tracks: 16
Official DR value: DR9

Samplerate: 44100 Hz
Channels: 2
Bits per sample: 16
Bitrate: 900 kbps
Codec: FLAC

[CUETools log; Date: 25.02.2017 13:24:00; Version: 2.1.4]
[CTDB TOCID: wk2SVPyWZF11JNCAg5qvxZ6WELw-] found.
Track | CTDB Status
1 | (21/21) Accurately ripped
2 | (21/21) Accurately ripped
3 | (21/21) Accurately ripped
4 | (21/21) Accurately ripped
5 | (21/21) Accurately ripped
6 | (21/21) Accurately ripped
7 | (21/21) Accurately ripped
8 | (21/21) Accurately ripped
9 | (21/21) Accurately ripped
10 | (21/21) Accurately ripped
11 | (21/21) Accurately ripped
12 | (21/21) Accurately ripped
13 | (21/21) Accurately ripped
14 | (21/21) Accurately ripped
15 | (20/21) Accurately ripped
16 | (21/21) Accurately ripped
[AccurateRip ID: 0028567b-01e2b97f-e210e910] found.
Track [ CRC | V2 ] Status
01 [ed50747b|03178e22] (0+8/8) Accurately ripped
02 [fedf545f|a5c3676d] (0+8/8) Accurately ripped
03 [f64c473f|b2acda02] (0+8/8) Accurately ripped
04 [fb482935|d574ce98] (0+8/8) Accurately ripped
05 [d354d754|ff5c37ab] (0+8/8) Accurately ripped
06 [75154570|46a2fb08] (0+8/8) Accurately ripped
07 [328b3345|9870598f] (0+8/8) Accurately ripped
08 [08c4671a|f610ed19] (0+8/8) Accurately ripped
09 [9e260f84|10cfeab6] (0+8/8) Accurately ripped
10 [d81685a6|5d464bdd] (0+8/8) Accurately ripped
11 [b1884e6b|f74b9bd4] (0+8/8) Accurately ripped
12 [598c0322|cfb72ab6] (0+8/8) Accurately ripped
13 [a09965de|dd0e0863] (0+8/8) Accurately ripped
14 [2e585827|5858c097] (0+8/8) Accurately ripped
15 [f76ca5e9|7a31e3ab] (0+8/8) Accurately ripped
16 [d8f96f36|4f98c027] (0+8/8) Accurately ripped

Track Peak [ CRC32 ] [W/O NULL] [ LOG ]
– 99,8 [1E808C71] [477E1599] CRC32
01 99,8 [F35826AD] [778B4F58]
02 98,7 [B4C0D83C] [734C73A2]
03 99,8 [BEDA1EAA] [464AF65B]
04 91,9 [6E200559] [40E3C85B]
05 99,8 [5D3C26A8] [8713EA94]
06 99,8 [70746092] [A95D03D8]
07 99,8 [C112D2BF] [B5EA88E3]
08 99,8 [9A35AA99] [BF554F85]
09 91,9 [8E5131EA] [D29536D6]
10 97,7 [882DDC9E] [A3336E20]
11 91,9 [010732F0] [8B6B0E41]
12 99,8 [79DB55FE] [AFBA79D0]
13 99,8 [A78D28ED] [2625E560]
14 91,9 [A2021E72] [2ADDFA8A]
15 91,9 [E5F0CA2E] [1F432506]
16 99,8 [6F3F7D0E] [213D93DB]

Bob Marley & the Wailers - Legend (1984) [30th Anniversary Deluxe Edition, CD+Blu-ray] Re-up

Tracklist BD:

01. Is this Love - 3:50
02. No Woman No Cry [Album Version] - 3:51
03. Could You Be Loved - 3:57
04. Three Little Birds - 3:00
05. Buffalo Soldier - 4:18
06. Get Up Stand Up - 3:17
07. Stir It Up - 5:30
08. Easy Skanking (Alternative Version) - 3:07
09. One Love / People Get Ready - 2:52
10. I Shot the Sheriff - 4:40
11. Waiting in Vain - 4:16
12. Redemption Song - 3:48
13. Satisfy My Soul - 4:31
14. Exodus - 7:40
15. Jamming - 3:31
16. Punky Reggae Party (Alternative Version) - 4:59

Disc Title: Bob Marley & the Wailers - Legend BD
Disc Size: 17 483 281 386 bytes
Protection: AACS
BD-Java: Yes
BDInfo: 0.7.3.3

Notes:

BDINFO HOME:
Cinema Squid
http://www.cinemasquid.com/blu-ray/tools/bdinfo

INCLUDES FORUMS REPORT FOR:
AVS Forum Blu-ray Audio and Video Specifications Thread
http://www.avsforum.com/avs-vb/showthread.php?t=1155731

WARNING: Report is incomplete because: Scan has not been run.

********************
PLAYLIST: 00002.MPLS
********************

<–- BEGIN FORUMS PASTE –->
                                                                                                                Total   Video                                             
Title                                                           Codec   Length  Movie Size      Disc Size       Bitrate Bitrate Main Audio Track                          Secondary Audio Track
-----                                                           ------  ------- --------------  --------------  ------- ------- ------------------                        ---------------------
00002.MPLS                                                      AVC     1:07:21 0               17 483 281 386  0,00    0,00    LPCM 2.0 4608Kbps (96kHz/24-bit)          DTS-HD Master 5.1 (96kHz/24-bit)


DISC INFO:

Disc Title:     Bob Marley & the Wailers - Legend BD
Disc Size:      17 483 281 386 bytes
Protection:     AACS
BD-Java:        Yes
BDInfo:         0.7.3.3

PLAYLIST REPORT:

Name:                   00002.MPLS
Length:                 1:07:21.454 (h:m:s.ms)
Size:                   0 bytes
Total Bitrate:          0,00 Mbps

VIDEO:

Codec                   Bitrate             Description     
-----                   -------             -----------     
MPEG-4 AVC Video        0 kbps              1080p / 23,976 fps / 16:9 / High Profile 4.1

AUDIO:

Codec                           Language        Bitrate         Description     
-----                           --------        -------         -----------     
LPCM Audio                      English         4608 kbps       2.0 / 96 kHz / 4608 kbps / 24-bit
DTS-HD Master Audio             English         0 kbps          5.1 / 96 kHz / 24-bit (DTS Core: 6.1 / 48 kHz / 1509 kbps / 24-bit)
Dolby TrueHD Audio              English         0 kbps          5.1 / 96 kHz / 24-bit (AC3 Embedded: 5.1 / 48 kHz / 640 kbps)

FILES:

Name            Time In         Length          Size            Total Bitrate   
----            -------         ------          ----            -------------   
00002.M2TS      0:00:00.000     1:07:21.454     0               0               

CHAPTERS:

Number          Time In         Length          Avg Video Rate  Max 1-Sec Rate  Max 1-Sec Time  Max 5-Sec Rate  Max 5-Sec Time  Max 10Sec Rate  Max 10Sec Time  Avg Frame Size  Max Frame Size  Max Frame Time  
------          -------         ------          --------------  --------------  --------------  --------------  --------------  --------------  --------------  --------------  --------------  --------------  
1               0:00:00.000     1:07:21.454     0 kbps          0 kbps          00:00:00.000    0 kbps          00:00:00.000    0 kbps          00:00:00.000    0 bytes         0 bytes         00:00:00.000    

STREAM DIAGNOSTICS:

File            PID             Type            Codec           Language                Seconds                 Bitrate                 Bytes           Packets         
----            ---             ----            -----           --------                --------------          --------------          -------------   -----           
00002.M2TS      4113 (0x1011)   0x1B            AVC                                     0,709                   0                       0               0               
00002.M2TS      4352 (0x1100)   0x80            LPCM            eng (English)           0,709                   0                       0               0               
00002.M2TS      4353 (0x1101)   0x86            DTS-HD MA       eng (English)           0,709                   0                       0               0               
00002.M2TS      4354 (0x1102)   0x83            TrueHD          eng (English)           0,709                   0                       0               0               

<–– END FORUMS PASTE ––>

QUICK SUMMARY:

Disc Title: Bob Marley & the Wailers - Legend BD
Disc Size: 17 483 281 386 bytes
Protection: AACS
BD-Java: Yes
Playlist: 00002.MPLS
Size: 0 bytes
Length: 1:07:21.454
Total Bitrate: 0,00 Mbps
Video: MPEG-4 AVC Video / 0 kbps / 1080p / 23,976 fps / 16:9 / High Profile 4.1
Audio: English / LPCM Audio / 2.0 / 96 kHz / 4608 kbps / 24-bit
Audio: English / DTS-HD Master Audio / 5.1 / 96 kHz / 24-bit (DTS Core: 6.1 / 48 kHz / 1509 kbps / 24-bit)
Audio: English / Dolby TrueHD Audio / 5.1 / 96 kHz / 24-bit (AC3 Embedded: 5.1 / 48 kHz / 640 kbps)


********************
PLAYLIST: 01001.MPLS
********************

<–- BEGIN FORUMS PASTE –->
                                                                                                                Total   Video                                             
Title                                                           Codec   Length  Movie Size      Disc Size       Bitrate Bitrate Main Audio Track                          Secondary Audio Track
-----                                                           ------  ------- --------------  --------------  ------- ------- ------------------                        ---------------------
01001.MPLS                                                      AVC     1:07:21 0               17 483 281 386  0,00    0,00    LPCM 2.0 4608Kbps (96kHz/24-bit)          DTS-HD Master 5.1 (96kHz/24-bit)


DISC INFO:

Disc Title:     Bob Marley & the Wailers - Legend BD
Disc Size:      17 483 281 386 bytes
Protection:     AACS
BD-Java:        Yes
BDInfo:         0.7.3.3

PLAYLIST REPORT:

Name:                   01001.MPLS
Length:                 1:07:21.454 (h:m:s.ms)
Size:                   0 bytes
Total Bitrate:          0,00 Mbps

VIDEO:

Codec                   Bitrate             Description     
-----                   -------             -----------     
MPEG-4 AVC Video        0 kbps              1080p / 23,976 fps / 16:9 / High Profile 4.1

AUDIO:

Codec                           Language        Bitrate         Description     
-----                           --------        -------         -----------     
LPCM Audio                      English         4608 kbps       2.0 / 96 kHz / 4608 kbps / 24-bit
DTS-HD Master Audio             English         0 kbps          5.1 / 96 kHz / 24-bit (DTS Core: 6.1 / 48 kHz / 1509 kbps / 24-bit)
Dolby TrueHD Audio              English         0 kbps          5.1 / 96 kHz / 24-bit (AC3 Embedded: 5.1 / 48 kHz / 640 kbps)

FILES:

Name            Time In         Length          Size            Total Bitrate   
----            -------         ------          ----            -------------   
00002.M2TS      0:00:00.000     1:07:21.454     0               0               

CHAPTERS:

Number          Time In         Length          Avg Video Rate  Max 1-Sec Rate  Max 1-Sec Time  Max 5-Sec Rate  Max 5-Sec Time  Max 10Sec Rate  Max 10Sec Time  Avg Frame Size  Max Frame Size  Max Frame Time  
------          -------         ------          --------------  --------------  --------------  --------------  --------------  --------------  --------------  --------------  --------------  --------------  
1               0:00:00.000     0:03:53.650     0 kbps          0 kbps          00:00:00.000    0 kbps          00:00:00.000    0 kbps          00:00:00.000    0 bytes         0 bytes         00:00:00.000    
2               0:03:53.650     0:03:50.813     0 kbps          0 kbps          00:00:00.000    0 kbps          00:00:00.000    0 kbps          00:00:00.000    0 bytes         0 bytes         00:00:00.000    
3               0:07:44.464     0:03:55.234     0 kbps          0 kbps          00:00:00.000    0 kbps          00:00:00.000    0 kbps          00:00:00.000    0 bytes         0 bytes         00:00:00.000    
4               0:11:39.699     0:03:05.894     0 kbps          0 kbps          00:00:00.000    0 kbps          00:00:00.000    0 kbps          00:00:00.000    0 bytes         0 bytes         00:00:00.000    
5               0:14:45.593     0:04:16.547     0 kbps          0 kbps          00:00:00.000    0 kbps          00:00:00.000    0 kbps          00:00:00.000    0 bytes         0 bytes         00:00:00.000    
6               0:19:02.141     0:03:20.200     0 kbps          0 kbps          00:00:00.000    0 kbps          00:00:00.000    0 kbps          00:00:00.000    0 bytes         0 bytes         00:00:00.000    
7               0:22:22.341     0:05:32.331     0 kbps          0 kbps          00:00:00.000    0 kbps          00:00:00.000    0 kbps          00:00:00.000    0 bytes         0 bytes         00:00:00.000    
8               0:27:54.673     0:03:07.187     0 kbps          0 kbps          00:00:00.000    0 kbps          00:00:00.000    0 kbps          00:00:00.000    0 bytes         0 bytes         00:00:00.000    
9               0:31:01.860     0:02:53.173     0 kbps          0 kbps          00:00:00.000    0 kbps          00:00:00.000    0 kbps          00:00:00.000    0 bytes         0 bytes         00:00:00.000    
10              0:33:55.033     0:04:41.114     0 kbps          0 kbps          00:00:00.000    0 kbps          00:00:00.000    0 kbps          00:00:00.000    0 bytes         0 bytes         00:00:00.000    
11              0:38:36.147     0:04:12.418     0 kbps          0 kbps          00:00:00.000    0 kbps          00:00:00.000    0 kbps          00:00:00.000    0 bytes         0 bytes         00:00:00.000    
12              0:42:48.566     0:03:48.228     0 kbps          0 kbps          00:00:00.000    0 kbps          00:00:00.000    0 kbps          00:00:00.000    0 bytes         0 bytes         00:00:00.000    
13              0:46:36.794     0:04:31.771     0 kbps          0 kbps          00:00:00.000    0 kbps          00:00:00.000    0 kbps          00:00:00.000    0 bytes         0 bytes         00:00:00.000    
14              0:51:08.565     0:07:40.793     0 kbps          0 kbps          00:00:00.000    0 kbps          00:00:00.000    0 kbps          00:00:00.000    0 bytes         0 bytes         00:00:00.000    
15              0:58:49.359     0:03:33.171     0 kbps          0 kbps          00:00:00.000    0 kbps          00:00:00.000    0 kbps          00:00:00.000    0 bytes         0 bytes         00:00:00.000    
16              1:02:22.530     0:04:57.922     0 kbps          0 kbps          00:00:00.000    0 kbps          00:00:00.000    0 kbps          00:00:00.000    0 bytes         0 bytes         00:00:00.000    
17              1:07:20.453     0:00:01.000     0 kbps          0 kbps          00:00:00.000    0 kbps          00:00:00.000    0 kbps          00:00:00.000    0 bytes         0 bytes         00:00:00.000    

STREAM DIAGNOSTICS:

File            PID             Type            Codec           Language                Seconds                 Bitrate                 Bytes           Packets         
----            ---             ----            -----           --------                --------------          --------------          -------------   -----           
00002.M2TS      4113 (0x1011)   0x1B            AVC                                     0,709                   0                       0               0               
00002.M2TS      4352 (0x1100)   0x80            LPCM            eng (English)           0,709                   0                       0               0               
00002.M2TS      4353 (0x1101)   0x86            DTS-HD MA       eng (English)           0,709                   0                       0               0               
00002.M2TS      4354 (0x1102)   0x83            TrueHD          eng (English)           0,709                   0                       0               0               

<–– END FORUMS PASTE ––>

QUICK SUMMARY:

Disc Title: Bob Marley & the Wailers - Legend BD
Disc Size: 17 483 281 386 bytes
Protection: AACS
BD-Java: Yes
Playlist: 01001.MPLS
Size: 0 bytes
Length: 1:07:21.454
Total Bitrate: 0,00 Mbps
Video: MPEG-4 AVC Video / 0 kbps / 1080p / 23,976 fps / 16:9 / High Profile 4.1
Audio: English / LPCM Audio / 2.0 / 96 kHz / 4608 kbps / 24-bit
Audio: English / DTS-HD Master Audio / 5.1 / 96 kHz / 24-bit (DTS Core: 6.1 / 48 kHz / 1509 kbps / 24-bit)
Audio: English / Dolby TrueHD Audio / 5.1 / 96 kHz / 24-bit (AC3 Embedded: 5.1 / 48 kHz / 640 kbps)


********************
PLAYLIST: 00001.MPLS
********************

<–- BEGIN FORUMS PASTE –->
                                                                                                                Total   Video                                             
Title                                                           Codec   Length  Movie Size      Disc Size       Bitrate Bitrate Main Audio Track                          Secondary Audio Track
-----       			  		  		  		 	    	 			   		  	   		      		      	 			   		  	   		  	   		  	   	 			   			  	  		  					                                                     ------  ------- --------------  --------------  ------- ------- ------------------                        ---------------------
00001.MPLS                                                      AVC     0:03:00 0               17 483 281 386  0,00    0,00    LPCM 2.0 4608Kbps (96kHz/24-bit)          DTS-HD Master 5.1 (96kHz/24-bit)


DISC INFO:

Disc Title:     Bob Marley & the Wailers - Legend BD
Disc Size:      17 483 281 386 bytes
Protection:     AACS
BD-Java:        Yes
BDInfo:         0.7.3.3

PLAYLIST REPORT:

Name:                   00001.MPLS
Length:                 0:03:00.180 (h:m:s.ms)
Size:                   0 bytes
Total Bitrate:          0,00 Mbps

VIDEO:

Codec                   Bitrate             Description     
-----                   -------             -----------     
MPEG-4 AVC Video        0 kbps              1080p / 23,976 fps / 16:9 / High Profile 4.1

AUDIO:

Codec                           Language        Bitrate         Description     
-----                           --------        -------         -----------     
LPCM Audio                      Undetermined    4608 kbps       2.0 / 96 kHz / 4608 kbps / 24-bit
DTS-HD Master Audio             Undetermined    0 kbps          5.1 / 96 kHz / 24-bit (DTS Core: 6.1 / 48 kHz / 1509 kbps / 24-bit)
Dolby TrueHD Audio              Undetermined    0 kbps          5.1 / 96 kHz / 16-bit (AC3 Embedded: 5.1 / 48 kHz / 640 kbps)

FILES:

Name            Time In         Length          Size            Total Bitrate   
----            -------         ------          ----            -------------   
00001.M2TS      0:00:00.000     0:03:00.180     0               0               

CHAPTERS:

Number          Time In         Length          Avg Video Rate  Max 1-Sec Rate  Max 1-Sec Time  Max 5-Sec Rate  Max 5-Sec Time  Max 10Sec Rate  Max 10Sec Time  Avg Frame Size  Max Frame Size  Max Frame Time  
------          -------         ------          --------------  --------------  --------------  --------------  --------------  --------------  --------------  --------------  --------------  --------------  
1               0:00:00.000     0:03:00.180     0 kbps          0 kbps          00:00:00.000    0 kbps          00:00:00.000    0 kbps          00:00:00.000    0 bytes         0 bytes         00:00:00.000    

STREAM DIAGNOSTICS:

File            PID             Type            Codec           Language                Seconds                 Bitrate                 Bytes           Packets         
----            ---             ----            -----           --------                --------------          --------------          -------------   -----           
00001.M2TS      4113 (0x1011)   0x1B            AVC                                     0,626                   0                       0               0               
00001.M2TS      4352 (0x1100)   0x80            LPCM            und (Undetermined)      0,626                   0                       0               0               
00001.M2TS      4353 (0x1101)   0x86            DTS-HD MA       und (Undetermined)      0,626                   0                       0               0               
00001.M2TS      4354 (0x1102)   0x83            TrueHD          und (Undetermined)      0,626                   0                       0               0               

<–– END FORUMS PASTE ––>

QUICK SUMMARY:

Disc Title: Bob Marley & the Wailers - Legend BD
Disc Size: 17 483 281 386 bytes
Protection: AACS
BD-Java: Yes
Playlist: 00001.MPLS
Size: 0 bytes
Length: 0:03:00.180
Total Bitrate: 0,00 Mbps
Video: MPEG-4 AVC Video / 0 kbps / 1080p / 23,976 fps / 16:9 / High Profile 4.1
Audio: Undetermined / LPCM Audio / 2.0 / 96 kHz / 4608 kbps / 24-bit
Audio: Undetermined / DTS-HD Master Audio / 5.1 / 96 kHz / 24-bit (DTS Core: 6.1 / 48 kHz / 1509 kbps / 24-bit)
Audio: Undetermined / Dolby TrueHD Audio / 5.1 / 96 kHz / 16-bit (AC3 Embedded: 5.1 / 48 kHz / 640 kbps)


********************
PLAYLIST: 01000.MPLS
********************

<–- BEGIN FORUMS PASTE –->
                                                                                                                Total   Video                                             
Title                                                           Codec   Length  Movie Size      Disc Size       Bitrate Bitrate Main Audio Track                          Secondary Audio Track
-----                                                           ------  ------- --------------  --------------  ------- ------- ------------------                        ---------------------
01000.MPLS                                                      AVC     0:03:00 0               17 483 281 386  0,00    0,00    LPCM 2.0 4608Kbps (96kHz/24-bit)          DTS-HD Master 5.1 (96kHz/24-bit)


DISC INFO:

Disc Title:     Bob Marley & the Wailers - Legend BD
Disc Size:      17 483 281 386 bytes
Protection:     AACS
BD-Java:        Yes
BDInfo:         0.7.3.3

PLAYLIST REPORT:

Name:                   01000.MPLS
Length:                 0:03:00.180 (h:m:s.ms)
Size:                   0 bytes
Total Bitrate:          0,00 Mbps

VIDEO:

Codec                   Bitrate             Description     
-----                   -------             -----------     
MPEG-4 AVC Video        0 kbps              1080p / 23,976 fps / 16:9 / High Profile 4.1

AUDIO:

Codec                           Language        Bitrate         Description     
-----                           --------        -------         -----------     
LPCM Audio                      Undetermined    4608 kbps       2.0 / 96 kHz / 4608 kbps / 24-bit
DTS-HD Master Audio             Undetermined    0 kbps          5.1 / 96 kHz / 24-bit (DTS Core: 6.1 / 48 kHz / 1509 kbps / 24-bit)
Dolby TrueHD Audio              Undetermined    0 kbps          5.1 / 96 kHz / 16-bit (AC3 Embedded: 5.1 / 48 kHz / 640 kbps)

FILES:

Name            Time In         Length          Size            Total Bitrate   
----            -------         ------          ----            -------------   
00001.M2TS      0:00:00.000     0:03:00.180     0               0               

CHAPTERS:

Number          Time In         Length          Avg Video Rate  Max 1-Sec Rate  Max 1-Sec Time  Max 5-Sec Rate  Max 5-Sec Time  Max 10Sec Rate  Max 10Sec Time  Avg Frame Size  Max Frame Size  Max Frame Time  
------          -------         ------          --------------  --------------  --------------  --------------  --------------  --------------  --------------  --------------  --------------  --------------  
1               0:00:00.000     0:02:58.178     0 kbps          0 kbps          00:00:00.000    0 kbps          00:00:00.000    0 kbps          00:00:00.000    0 bytes         0 bytes         00:00:00.000    
2               0:02:58.178     0:00:02.002     0 kbps          0 kbps          00:00:00.000    0 kbps          00:00:00.000    0 kbps          00:00:00.000    0 bytes         0 bytes         00:00:00.000    

STREAM DIAGNOSTICS:

File            PID             Type            Codec           Language                Seconds                 Bitrate                 Bytes           Packets         
----            ---             ----            -----           --------                --------------          --------------          -------------   -----           
00001.M2TS      4113 (0x1011)   0x1B            AVC                                     0,626                   0                       0               0               
00001.M2TS      4352 (0x1100)   0x80            LPCM            und (Undetermined)      0,626                   0                       0               0               
00001.M2TS      4353 (0x1101)   0x86            DTS-HD MA       und (Undetermined)      0,626                   0                       0               0               
00001.M2TS      4354 (0x1102)   0x83            TrueHD          und (Undetermined)      0,626                   0                       0               0               

<–– END FORUMS PASTE ––>

QUICK SUMMARY:

Disc Title: Bob Marley & the Wailers - Legend BD
Disc Size: 17 483 281 386 bytes
Protection: AACS
BD-Java: Yes
Playlist: 01000.MPLS
Size: 0 bytes
Length: 0:03:00.180
Total Bitrate: 0,00 Mbps
Video: MPEG-4 AVC Video / 0 kbps / 1080p / 23,976 fps / 16:9 / High Profile 4.1
Audio: Undetermined / LPCM Audio / 2.0 / 96 kHz / 4608 kbps / 24-bit
Audio: Undetermined / DTS-HD Master Audio / 5.1 / 96 kHz / 24-bit (DTS Core: 6.1 / 48 kHz / 1509 kbps / 24-bit)
Audio: Undetermined / Dolby TrueHD Audio / 5.1 / 96 kHz / 16-bit (AC3 Embedded: 5.1 / 48 kHz / 640 kbps)



Bob Marley & the Wailers - Legend (1984) [30th Anniversary Deluxe Edition, CD+Blu-ray] Re-up

All thanks go to the original releaser

Bob Marley in my Blog

Download Bob Marley & the Wailers - Legend (1984):