Tags
Language
Tags

Bob Marley & The Wailers - Confrontation (1983)

Posted By: Designol
Bob Marley & The Wailers - Confrontation (1983)

Bob Marley & The Wailers - Confrontation (1983)
XLD | FLAC | Image (Cue&Log) ~ 246 Mb | Mp3 (CBR320) ~ 111 Mb
Reggae | Label: Island | # 260 847 | Time: 00:36:07 | Scans included

A posthumous collection produced by Rita Marley, based on work left behind by Bob upon his death. Some of his best post-Wailers work is here, with songs like "Buffalo Soldier," "Chant Down Babylon," and "Blackman Redemption." Given that he wasn't alive to do the production that he usually helped in, this album seems remarkably true to the general vision of Bob Marley's albums. Other somewhat lesser-known tracks also help to fill in all of the cracks with some remarkable material. Case in point: "Jump Nyabinghi," a nice danceable groove with perhaps less of the usual politics mixed in, but with just as much musicality. Overall, any Bob Marley fan ought to own this album. For the uninitiated, Legend is always the starting point, but, after that, this may not be such a bad choice for additions to the collection.

Review by Adam Greenberg, Allmusic.com

Bob Marley & The Wailers - Confrontation (1983)



Tracklist:

01. Chant Down Babylon (02:35)
02. Buffalo Soldier (04:16)
03. Jump Nyabinghi (03:42)
04. Mix Up, Mix Up (05:01)
05. Give Thanks and Praises (03:14)
06. Blackman Redemption (03:33)
07. Trench Town (03:12)
08. Stiff Necked Fools (03:25)
09. I Know (03:19)
10. Rastaman Live Up! (05:23)


X Lossless Decoder version 20140504 (147.0)

XLD extraction logfile from 2014-05-16 14:00:48 +0400

Bob Marley & The Wailers / Confrontation (260847)

Used drive : HL-DT-ST DVDRAM GE20NU11 (revision CN01)
Media type : Pressed CD

Ripper mode : XLD Secure Ripper
Disable audio cache : OK for the drive with a cache less than 1375KiB
Make use of C2 pointers : NO
Read offset correction : 667
Max retry count : 20
Gap status : Analyzed, Appended

TOC of the extracted CD
Track | Start | Length | Start sector | End sector
––––––––––––––––––––––––––––-
1 | 00:00:33 | 02:36:12 | 33 | 11744
2 | 02:36:45 | 04:17:38 | 11745 | 31057
3 | 06:54:08 | 03:43:62 | 31058 | 47844
4 | 10:37:70 | 05:02:50 | 47845 | 70544
5 | 15:40:45 | 03:15:18 | 70545 | 85187
6 | 18:55:63 | 03:33:17 | 85188 | 101179
7 | 22:29:05 | 03:12:45 | 101180 | 115624
8 | 25:41:50 | 03:25:43 | 115625 | 131042
9 | 29:07:18 | 03:20:65 | 131043 | 146107
10 | 32:28:08 | 05:23:07 | 146108 | 170339

AccurateRip Summary (DiscID: 000de576-006faf65-8308df0a)
Track 01 : OK (v1+v2, confidence 29/29)
Track 02 : OK (v1+v2, confidence 31/31)
Track 03 : OK (v1+v2, confidence 31/31)
Track 04 : OK (v1+v2, confidence 31/31)
Track 05 : OK (v1+v2, confidence 31/31)
Track 06 : OK (v1+v2, confidence 31/31)
Track 07 : OK (v1+v2, confidence 31/31)
Track 08 : OK (v1+v2, confidence 31/31)
Track 09 : OK (v1+v2, confidence 31/31)
Track 10 : OK (v1+v2, confidence 31/31)
->All tracks accurately ripped.

All Tracks
Filename : /OdW/Bob Marley & The Wailers (1983) Confrontation (260 847)/Bob Marley & The Wailers - Confrontation (260847).flac
Album gain : -0.43 dB
Peak : 1.000000
CRC32 hash (test run) : FB949544
CRC32 hash : FB949544
CRC32 hash (skip zero) : 791CA6CC
Statistics
Read error : 0
Jitter error (maybe fixed) : 0
Retry sector count : 0
Damaged sector count : 0

Track 01
Pre-gap length : 00:02:33

Track gain : -1.36 dB
Peak : 0.966492
CRC32 hash (test run) : DEDDC070
CRC32 hash : DEDDC070
CRC32 hash (skip zero) : DB8A25C0
AccurateRip v1 signature : 7E088E60
AccurateRip v2 signature : 163D8CF8
->Accurately ripped (v1+v2, confidence 20+9/29)
Statistics
Read error : 0
Jitter error (maybe fixed) : 0
Retry sector count : 0
Damaged sector count : 0

Track 02
Pre-gap length : 00:01:00

Track gain : -0.72 dB
Peak : 0.827850
CRC32 hash (test run) : 40A6A6AB
CRC32 hash : 40A6A6AB
CRC32 hash (skip zero) : 8EC7B299
AccurateRip v1 signature : 28AEA598
AccurateRip v2 signature : F80E1FA8
->Accurately ripped (v1+v2, confidence 22+9/31)
Statistics
Read error : 0
Jitter error (maybe fixed) : 0
Retry sector count : 0
Damaged sector count : 0

Track 03
Pre-gap length : 00:01:13

Track gain : -0.99 dB
Peak : 0.728729
CRC32 hash (test run) : 13D01CEE
CRC32 hash : 13D01CEE
CRC32 hash (skip zero) : 9140AD94
AccurateRip v1 signature : 1D190803
AccurateRip v2 signature : 96D553B9
->Accurately ripped (v1+v2, confidence 22+9/31)
Statistics
Read error : 0
Jitter error (maybe fixed) : 0
Retry sector count : 0
Damaged sector count : 0

Track 04
Pre-gap length : 00:01:50

Track gain : 0.05 dB
Peak : 1.000000
CRC32 hash (test run) : 939D2ECE
CRC32 hash : 939D2ECE
CRC32 hash (skip zero) : AC2B486F
AccurateRip v1 signature : 42D3A799
AccurateRip v2 signature : 9DF12031
->Accurately ripped (v1+v2, confidence 22+9/31)
Statistics
Read error : 0
Jitter error (maybe fixed) : 0
Retry sector count : 0
Damaged sector count : 0

Track 05
Pre-gap length : 00:01:00

Track gain : 1.31 dB
Peak : 0.894623
CRC32 hash (test run) : 751A0A91
CRC32 hash : 751A0A91
CRC32 hash (skip zero) : DCC0F5DD
AccurateRip v1 signature : FDC1A542
AccurateRip v2 signature : 6BD9B673
->Accurately ripped (v1+v2, confidence 22+9/31)
Statistics
Read error : 0
Jitter error (maybe fixed) : 0
Retry sector count : 0
Damaged sector count : 0

Track 06
Pre-gap length : 00:00:68

Track gain : -1.77 dB
Peak : 0.881805
CRC32 hash (test run) : 89CD76EA
CRC32 hash : 89CD76EA
CRC32 hash (skip zero) : F752A163
AccurateRip v1 signature : EF609AF2
AccurateRip v2 signature : 1C1770F2
->Accurately ripped (v1+v2, confidence 22+9/31)
Statistics
Read error : 0
Jitter error (maybe fixed) : 0
Retry sector count : 0
Damaged sector count : 0

Track 07

Track gain : -0.99 dB
Peak : 0.985474
CRC32 hash (test run) : 4F2AD336
CRC32 hash : 4F2AD336
CRC32 hash (skip zero) : 0B39F524
AccurateRip v1 signature : 5149556C
AccurateRip v2 signature : 03939C27
->Accurately ripped (v1+v2, confidence 22+9/31)
Statistics
Read error : 0
Jitter error (maybe fixed) : 0
Retry sector count : 0
Damaged sector count : 0

Track 08

Track gain : 2.33 dB
Peak : 0.896423
CRC32 hash (test run) : 6391ABF7
CRC32 hash : 6391ABF7
CRC32 hash (skip zero) : 9E984B98
AccurateRip v1 signature : 6D6D0E51
AccurateRip v2 signature : 59FAC6B0
->Accurately ripped (v1+v2, confidence 22+9/31)
Statistics
Read error : 0
Jitter error (maybe fixed) : 0
Retry sector count : 0
Damaged sector count : 0

Track 09

Track gain : -0.79 dB
Peak : 0.731293
CRC32 hash (test run) : 0A07BA6F
CRC32 hash : 0A07BA6F
CRC32 hash (skip zero) : 72EC8A52
AccurateRip v1 signature : 10B7EEC8
AccurateRip v2 signature : 0380C145
->Accurately ripped (v1+v2, confidence 22+9/31)
Statistics
Read error : 0
Jitter error (maybe fixed) : 0
Retry sector count : 0
Damaged sector count : 0

Track 10
Pre-gap length : 00:01:00

Track gain : 1.25 dB
Peak : 0.840973
CRC32 hash (test run) : CF767F58
CRC32 hash : CF767F58
CRC32 hash (skip zero) : A31E3F9F
AccurateRip v1 signature : 45CAB315
AccurateRip v2 signature : E5586E30
->Accurately ripped (v1+v2, confidence 22+9/31)
Statistics
Read error : 0
Jitter error (maybe fixed) : 0
Retry sector count : 0
Damaged sector count : 0

No errors occurred

End of status report

––-BEGIN XLD SIGNATURE––-
P2IwS7BvJCoFgOzuJKCkFrjsu2FDW2Rd13x.JZ3xQUF3MSz0o3JMc97MFPy881VsdRqbuWD4174WM8xJFT9sFq_NB_vtDfSMxBY81bu
––-END XLD SIGNATURE––-

foobar2000 1.2 / Dynamic Range Meter 1.1.1
log date: 2014-06-05 14:09:31

––––––––––––––––––––––––––––––––––––––––
Analyzed: Bob Marley & The Wailers / Confrontation (260847)
––––––––––––––––––––––––––––––––––––––––

DR Peak RMS Duration Track
––––––––––––––––––––––––––––––––––––––––
DR15 -0.30 dB -17.18 dB 2:36 01-Chant Down Babylon
DR14 -1.64 dB -16.88 dB 4:18 02-Buffalo Soldier
DR13 -2.75 dB -18.26 dB 3:44 03-Jump Nyabinghi
DR15 0.00 dB -16.93 dB 5:03 04-Mix Up, Mix Up
DR15 -0.97 dB -17.94 dB 3:15 05-Give Thanks and Praises
DR13 -1.09 dB -16.60 dB 3:33 06-Blackman Redemption
DR15 -0.13 dB -17.51 dB 3:13 07-Trench Town
DR15 -0.95 dB -18.16 dB 3:26 08-Stiff Necked Fools
DR13 -2.72 dB -17.86 dB 3:21 09-I Know
DR14 -1.50 dB -17.27 dB 5:23 10-Rastaman Live Up!
––––––––––––––––––––––––––––––––––––––––

Number of tracks: 10
Official DR value: DR14

Samplerate: 44100 Hz
Channels: 2
Bits per sample: 16
Bitrate: 819 kbps
Codec: FLAC
================================================================================

Bob Marley & The Wailers - Confrontation (1983)

Bob Marley & The Wailers - Confrontation (1983)

All thanks to original releaser - Olaf der Weisse

More interesting music in My Blog