Subcategories

Bob Mosley (ex-Moby Grape) - Albums Collection 1972-2005 (4CD) [Re-Up]

Posted By: Designol
Bob Mosley (ex-Moby Grape) - Albums Collection 1972-2005 (4CD) [Re-Up]

Bob Mosley (ex-Moby Grape) - Albums Collection 1972-2005 (4CD)
EAC | FLAC | Tracks (Cue&Log) ~ 1.21 Gb | Mp3 (CBR320) ~ 469 Mb | Scans ~ 185 Mb
Folk Rock, Country Rock, Psychedelic Rock | Time: 03:17:38

Bob Mosley is principally known as the bass player and one of the songwriters and vocalists for the band Moby Grape. Collection includes: 'Bob Mosley' (1972); 'Mosley Grape Live at Indigo Ranch' (1989); 'Never Dreamed' (1999); 'True Blue' (2005).

Singer/songwriter and bassist James Robert Mosley was born December 4, 1942, in Paradise Valley, CA, and spent his teens playing in a number of garage combos, including the Misfits, the Strangers, and the Frantics. the Frantics eventually morphed into Moby Grape, and with a lineup of Bob Mosley, Peter Lewis, Skip Spence, Don Stevenson, and Jerry Miller, the band recorded the brilliant but ill-fated Moby Grape album, released by Columbia in 1967.

If ever a band was snake-bitten, it was Moby Grape, and thanks to backfiring publicity stunts, poor management, and record company snafus, the band never found a steady mass audience. It didn't help, either, that at least two of the members – Spence and Mosley – begin to show sings of mental disorder. Moby Grape managed to record two more albums with its original configuration participating before Spence and then Mosley left the band.

In 1969 Mosley joined the U.S. Marines, making it through basic training, only to be diagnosed as a paranoid schizophrenic (a mental condition that also afflicted Skip Spence) and was discharged from the Marines nine months later. He rejoined Grape for 1971's 20 Granite Creek album, but the group splintered after the album was completed. Mosley next signed with Reprise Records and his solo album, Bob Mosley, was released in 1972. By 1973 Mosley was listed as a ward of the State of California. He resurfaced in the late '70s as a member of the Ducks, who backed Neil Young on a series of impromptu bar gigs around Santa Cruz in 1977. In 1989 the odd Live at Indigo Ranch by Mosley Grape was released, and Mosley joined former Grape members Miller, Stevenson, and Lewis as the Melvilles (they weren't legally allowed to use the name Moby Grape at this point) to record Legendary Grape, which was released on cassette that same year, and has floated around as a bootleg ever since. Eventually the album was reissued on CD with eight bonus tracks in 2003 by DIG Music.

Moby Grape has reunited in different configurations (and under a variety of names) several times for shows and other projects over the years, sometimes with Mosley and sometimes without him. A soulful singer whose songs deftly bridged the gap between country and blues, Mosley contributed "Mr. Blues," "Bitter Wind," "Rose Colored Eyes," "Trucking Man," "Hoochie," "Lazy Me," "Come in the Morning," and other solid songs to the Grape canon in the early years.

By the mid-'90s he was homeless, sleeping under a freeway overpass in San Diego. Other members of Moby Grape have attempted at various times to help Mosley, and he still occasionally surfaces to play a show, but he appears to prefer life on the street, either by design or as a result of his illness. An album he recorded in the 1970s with members of Buddy Holly's band, the Crickets, was released as Never Dreamed in 1999 by the German label Taxim Records.

Biography by Steve Leggett, Allmusic.com

Bob Mosley (ex-Moby Grape) - Albums Collection 1972-2005 (4CD) [Re-Up]






Bob Mosley (ex-Moby Grape) - Albums Collection 1972-2005 (4CD) [Re-Up]

Bob Mosley - Bob Mosley (1972) Reissue 2005
EAC | FLAC | Tracks (Cue&Log) ~ 211 Mb | Mp3 (CBR320) ~ 85 Mb | Scans ~ 46 Mb
Label: Wounded Bird | # WOU 2068 | Time: 00:37:13

Within a year of Moby Grape sadly crashing to a halt again after the release of the ill-fated reunion album 20 Granite Creek, Bob Mosley (who sang, played guitar, and wrote songs with the group) released his first solo album, and if 1972's Bob Mosley isn't a masterpiece on the order of Moby Grape's peerless debut album, it showed that Mosley's share of the talent that produced that great record was still in working order. Bob Mosley is a decidedly harder-rocking album than much of the Grape catalog, with Mosley and Ed Black loading up the songs with plenty of tough guitar work, but the melodies show the same blend of grace and power that marked his best work, and Mosley's pipes are in strong form here, with his blues-based vocals sounding potent and impassioned throughout (he also gets a great assist from the Memphis Horns, who add their punchy brass accents to several tracks). "Joker" and "Where Do the Birds Go" are fiery rockers, "Let the Music Play" is the sort of anthem Grape needed in the wake of their debut, and "Thanks" and "Gone Fishin'" are country-rock workouts that fit Mosley like a glove. Bob Mosley turned out to be Mosley's first and last solo album (except for an unreleased 1974 set that didn't see release until 1999), but if he fell victim to the same bad luck that haunted Moby Grape, he at least left behind a record that proved he had the talent to make it as a solo act if he'd been dealt a better hand.

Review by Mark Deming, Allmusic.com

Tracklist:

01. The Joker (3:41)
02. Gypsy Wedding (3:42)
03. 1245 Kearny (3:16)
04. Squaw Valley Nils (Hocked Soul) (3:11)
05. Let the Music Play (3:36)
06. Thanks (3:17)
07. Where Do the Birds Go (3:38)
08. Hand In Hand (3:03)
09. Gone Fishin' (3:23)
10. Nothing to Do (2:23)
11. So Many Troubles (4:04)


Exact Audio Copy V1.0 beta 2 from 29. April 2011

EAC extraction logfile from 9. December 2011, 17:44

Bob Mosley / Bob Mosley

Used drive : hp DVD A DH16ABLH Adapter: 0 ID: 0

Read mode : Secure
Utilize accurate stream : Yes
Defeat audio cache : Yes
Make use of C2 pointers : No

Read offset correction : 6
Overread into Lead-In and Lead-Out : No
Fill up missing offset samples with silence : Yes
Delete leading and trailing silent blocks : No
Null samples used in CRC calculations : Yes
Used interface : Native Win32 interface for Win NT & 2000
Gap handling : Appended to previous track

Used output format : User Defined Encoder
Selected bitrate : 1024 kBit/s
Quality : High
Add ID3 tag : No
Command line compressor : C:\Program Files (x86)\Exact Audio Copy\Flac\flac.exe
Additional command line options : -8 -V -T "ARTIST=%artist%" -T "TITLE=%title%" -T "ALBUM=%albumtitle%" -T "DATE=%year%" -T "TRACKNUMBER=%tracknr%" -T "GENRE=%genre%" -T "COMMENT=%comment%" -T "COMPOSER=%composer%" %haslyrics%–tag-from-file=LYRICS="%lyrics


TOC of the extracted CD

Track | Start | Length | Start sector | End sector
––––––––––––––––––––––––––––-
1 | 0:00.00 | 3:41.20 | 0 | 16594
2 | 3:41.20 | 3:41.42 | 16595 | 33211
3 | 7:22.62 | 3:15.50 | 33212 | 47886
4 | 10:38.37 | 3:10.68 | 47887 | 62204
5 | 13:49.30 | 3:36.19 | 62205 | 78423
6 | 17:25.49 | 3:17.11 | 78424 | 93209
7 | 20:42.60 | 3:37.45 | 93210 | 109529
8 | 24:20.30 | 3:03.09 | 109530 | 123263
9 | 27:23.39 | 3:22.55 | 123264 | 138468
10 | 30:46.19 | 2:22.40 | 138469 | 149158
11 | 33:08.59 | 4:04.26 | 149159 | 167484


Track 1

Filename C:\Share1\Bob Mosley\1972 - Bob Mosley\01. The Joker.wav

Pre-gap length 0:00:02.00

Peak level 95.6 %
Extraction speed 3.3 X
Track quality 100.0 %
Test CRC 9BCC464D
Copy CRC 9BCC464D
Track not present in AccurateRip database
Copy OK

Track 2

Filename C:\Share1\Bob Mosley\1972 - Bob Mosley\02. Gypsy Wedding.wav

Peak level 86.9 %
Extraction speed 3.7 X
Track quality 100.0 %
Test CRC 414141FA
Copy CRC 414141FA
Track not present in AccurateRip database
Copy OK

Track 3

Filename C:\Share1\Bob Mosley\1972 - Bob Mosley\03. 1245 Kearny.wav

Peak level 82.9 %
Extraction speed 3.9 X
Track quality 100.0 %
Test CRC 31146927
Copy CRC 31146927
Track not present in AccurateRip database
Copy OK

Track 4

Filename C:\Share1\Bob Mosley\1972 - Bob Mosley\04. Squaw Valley Nils (Hocked Soul).wav

Peak level 85.2 %
Extraction speed 3.2 X
Track quality 99.9 %
Test CRC 220F36E0
Copy CRC 220F36E0
Track not present in AccurateRip database
Copy OK

Track 5

Filename C:\Share1\Bob Mosley\1972 - Bob Mosley\05. Let the Music Play.wav

Peak level 95.8 %
Extraction speed 4.5 X
Track quality 100.0 %
Test CRC 443F07EF
Copy CRC 443F07EF
Track not present in AccurateRip database
Copy OK

Track 6

Filename C:\Share1\Bob Mosley\1972 - Bob Mosley\06. Thanks.wav

Peak level 71.2 %
Extraction speed 4.7 X
Track quality 100.0 %
Test CRC 60716EC2
Copy CRC 60716EC2
Track not present in AccurateRip database
Copy OK

Track 7

Filename C:\Share1\Bob Mosley\1972 - Bob Mosley\07. Where Do the Birds Go.wav

Peak level 91.8 %
Extraction speed 5.0 X
Track quality 100.0 %
Test CRC 6D377556
Copy CRC 6D377556
Track not present in AccurateRip database
Copy OK

Track 8

Filename C:\Share1\Bob Mosley\1972 - Bob Mosley\08. Hand In Hand.wav

Peak level 89.2 %
Extraction speed 5.0 X
Track quality 100.0 %
Test CRC 9B4A14BB
Copy CRC 9B4A14BB
Track not present in AccurateRip database
Copy OK

Track 9

Filename C:\Share1\Bob Mosley\1972 - Bob Mosley\09. Gone Fishin'.wav

Peak level 96.3 %
Extraction speed 5.2 X
Track quality 100.0 %
Test CRC F6378BF0
Copy CRC F6378BF0
Track not present in AccurateRip database
Copy OK

Track 10

Filename C:\Share1\Bob Mosley\1972 - Bob Mosley\10. Nothing to Do.wav

Peak level 90.1 %
Extraction speed 5.1 X
Track quality 100.0 %
Test CRC E5D75117
Copy CRC E5D75117
Track not present in AccurateRip database
Copy OK

Track 11

Filename C:\Share1\Bob Mosley\1972 - Bob Mosley\11. So Many Troubles.wav

Peak level 90.2 %
Extraction speed 4.6 X
Track quality 99.9 %
Test CRC A9BE254C
Copy CRC A9BE254C
Track not present in AccurateRip database
Copy OK


None of the tracks are present in the AccurateRip database

No errors occurred

End of status report

==== Log checksum C9EE5497996B2DA6416536485283D4356453E8D9A86FC3DA2E79DD1990128AA3 ====

[CUETools log; Date: 09.08.2017 21:48:07; Version: 2.1.4]
[CTDB TOCID: ABsxSmtMKL86kh0HWEOWNQDbcxs-] found.
Track | CTDB Status
1 | (1/1) Accurately ripped
2 | (1/1) Accurately ripped
3 | (1/1) Accurately ripped
4 | (1/1) Accurately ripped
5 | (1/1) Accurately ripped
6 | (1/1) Accurately ripped
7 | (1/1) Accurately ripped
8 | (1/1) Accurately ripped
9 | (1/1) Accurately ripped
10 | (1/1) Accurately ripped
11 | (1/1) Accurately ripped
[AccurateRip ID: 000f8e30-0085f619-8708b90b] found.
Track [ CRC | V2 ] Status
01 [71cd5244|09ba484c] (0+2/2) Accurately ripped
02 [20a2ef89|6957ed24] (0+2/2) Accurately ripped
03 [8b80421c|93a6af77] (0+2/2) Accurately ripped
04 [22494546|7fea5819] (0+2/2) Accurately ripped
05 [a0043b0a|a9ca28ac] (0+2/2) Accurately ripped
06 [42c5727c|7ee8c4e8] (0+2/2) Accurately ripped
07 [34e52969|5e1b3372] (0+2/2) Accurately ripped
08 [73e3e829|efa1df8f] (0+2/2) Accurately ripped
09 [49cd19de|17749636] (0+2/2) Accurately ripped
10 [83627b3d|d9fa406c] (0+2/2) Accurately ripped
11 [4169a17f|416e75db] (0+2/2) Accurately ripped

Track Peak [ CRC32 ] [W/O NULL] [ LOG ]
– 96,3 [8287FB08] [185D65FF]
01 95,6 [9BCC464D] [2DB502ED] CRC32
02 86,9 [414141FA] [DA3B4491] CRC32
03 82,8 [31146927] [2AFA3EE6] CRC32
04 85,2 [220F36E0] [955F7731] CRC32
05 95,8 [443F07EF] [8811A088] CRC32
06 71,2 [60716EC2] [C2C9B37B] CRC32
07 91,8 [6D377556] [1A3514EC] CRC32
08 89,2 [9B4A14BB] [462D8383] CRC32
09 96,3 [F6378BF0] [F80F9C0D] CRC32
10 90,1 [E5D75117] [5E1DA06F] CRC32
11 90,2 [A9BE254C] [21C235DB] CRC32

foobar2000 1.2 / Dynamic Range Meter 1.1.1
log date: 2017-08-10 00:30:34

––––––––––––––––––––––––––––––––––––––––
Analyzed: Bob Mosley / Bob Mosley
––––––––––––––––––––––––––––––––––––––––

DR Peak RMS Duration Track
––––––––––––––––––––––––––––––––––––––––
DR12 -0.38 dB -14.66 dB 3:41 01-The Joker
DR11 -1.21 dB -15.11 dB 3:42 02-Gypsy Wedding
DR13 -1.63 dB -16.95 dB 3:16 03-1245 Kearny
DR11 -1.39 dB -15.71 dB 3:11 04-Squaw Valley Nils (Hocked Soul)
DR13 -0.37 dB -15.30 dB 3:36 05-Let the Music Play
DR11 -2.94 dB -16.49 dB 3:17 06-Thanks
DR11 -0.74 dB -14.17 dB 3:38 07-Where Do the Birds Go
DR11 -0.99 dB -13.04 dB 3:03 08-Hand In Hand
DR13 -0.32 dB -15.99 dB 3:23 09-Gone Fishin'
DR13 -0.90 dB -16.01 dB 2:23 10-Nothing to Do
DR11 -0.89 dB -15.15 dB 4:04 11-So Many Troubles
––––––––––––––––––––––––––––––––––––––––

Number of tracks: 11
Official DR value: DR12

Samplerate: 44100 Hz
Channels: 2
Bits per sample: 16
Bitrate: 713 kbps
Codec: FLAC
================================================================================




Bob Mosley (ex-Moby Grape) - Albums Collection 1972-2005 (4CD) [Re-Up]

Mosley Grape - Live at Indigo Ranch (1989) Reissue 1999
EAC | FLAC | Tracks (Cue&Log) ~ 497 Mb | Mp3 (CBR320) ~ 182 Mb | Scans included
Label: SFSound | # SFS-04880 | Time: 01:11:34

While most fans of Moby Grape appropriately loathe Matthew Katz and his interminably miserable effect on the band, that is irrelevant in reviewing this CD. Mosley's vocals are as plaintive, powerful, and spare as ever. The backing musicians, while not as good or as brilliant as the Grape, provide a sturdy, tuneful framework for this dark, down-on-your-luck collection of songs. Generally, they share a disappointed, nearly skid row point of view as Bob sings about life near the bottom of the food chain. All that has gone wrong in his life, and those good bits and pieces that keep him going are explored in this heartfelt album. If you like the Grape and Bob Mosley, in particular, this is a must have. And it is a long CD, as well - you certainly get value. When I saw a Moby Grape concert back in 1997, I gave the CD to Bob to autograph and he was almost amazed to see a copy of it.

Review by Gary R. v Rotenberg, Amazon.com

Tracklist:

01. This Time (6:38)
02. Cold Beer (3:14)
03. Took It All Away (5:47)
04. Move Down Town (6:15)
05. Struck Out Again (4:50)
06. All Over Town (2:54)
07. What's the Use (3:33)
08. Mojo Man (8:04)
09. This Rut (5:50)
10. Crazy Money (3:52)
11. Lonesome Highway (4:54)
12. Want to Leave Me (4:13)
13. Cajun Song (4:24)
14. Theresa (7:08)


Exact Audio Copy V1.0 beta 1 from 15. November 2010

EAC extraction logfile from 7. May 2011, 15:42

Mosley Grape / Live at Indigo Ranch

Used drive : hp DVD A DH16ABLH Adapter: 0 ID: 0

Read mode : Secure
Utilize accurate stream : Yes
Defeat audio cache : Yes
Make use of C2 pointers : No

Read offset correction : 6
Overread into Lead-In and Lead-Out : No
Fill up missing offset samples with silence : Yes
Delete leading and trailing silent blocks : No
Null samples used in CRC calculations : Yes
Used interface : Native Win32 interface for Win NT & 2000
Gap handling : Appended to previous track

Used output format : User Defined Encoder
Selected bitrate : 1024 kBit/s
Quality : High
Add ID3 tag : No
Command line compressor : C:\Program Files (x86)\Exact Audio Copy\Flac\flac.exe
Additional command line options : -8 -V -T "ARTIST=%a" -T "TITLE=%t" -T "ALBUM=%g" -T "DATE=%y" -T "TRACKNUMBER=%n" -T "GENRE=%m" -T "COMMENT=%e" %j–picture="%i"%j %s -o %d


TOC of the extracted CD

Track | Start | Length | Start sector | End sector
––––––––––––––––––––––––––––-
1 | 0:00.32 | 6:37.73 | 32 | 29879
2 | 6:38.30 | 3:13.62 | 29880 | 44416
3 | 9:52.17 | 5:46.68 | 44417 | 70434
4 | 15:39.10 | 6:14.42 | 70435 | 98526
5 | 21:53.52 | 4:49.70 | 98527 | 120271
6 | 26:43.47 | 2:54.05 | 120272 | 133326
7 | 29:37.52 | 3:32.50 | 133327 | 149276
8 | 33:10.27 | 8:03.40 | 149277 | 185541
9 | 41:13.67 | 5:49.55 | 185542 | 211771
10 | 47:03.47 | 3:51.65 | 211772 | 229161
11 | 50:55.37 | 4:53.65 | 229162 | 251201
12 | 55:49.27 | 4:13.20 | 251202 | 270196
13 | 60:02.47 | 4:23.53 | 270197 | 289974
14 | 64:26.25 | 7:08.35 | 289975 | 322109


Track 1

Filename C:\Share1\Mosley Grape\Live at Indigo Ranch\01. This Time.wav

Pre-gap length 0:00:02.32

Peak level 100.0 %
Extraction speed 4.1 X
Track quality 100.0 %
Test CRC B515E283
Copy CRC B515E283
Track not present in AccurateRip database
Copy OK

Track 2

Filename C:\Share1\Mosley Grape\Live at Indigo Ranch\02. Cold Beer.wav

Pre-gap length 0:00:01.00

Peak level 94.6 %
Extraction speed 4.2 X
Track quality 100.0 %
Test CRC 16CE7F27
Copy CRC 16CE7F27
Track not present in AccurateRip database
Copy OK

Track 3

Filename C:\Share1\Mosley Grape\Live at Indigo Ranch\03. Took It All Away.wav

Pre-gap length 0:00:01.30

Peak level 88.6 %
Extraction speed 4.9 X
Track quality 100.0 %
Test CRC 0A3BFCD1
Copy CRC 0A3BFCD1
Track not present in AccurateRip database
Copy OK

Track 4

Filename C:\Share1\Mosley Grape\Live at Indigo Ranch\04. Move Down Town.wav

Pre-gap length 0:00:01.15

Peak level 96.3 %
Extraction speed 4.7 X
Track quality 99.9 %
Test CRC CDB4D982
Copy CRC CDB4D982
Track not present in AccurateRip database
Copy OK

Track 5

Filename C:\Share1\Mosley Grape\Live at Indigo Ranch\05. Struck Out Again.wav

Pre-gap length 0:00:01.52

Peak level 77.2 %
Extraction speed 5.6 X
Track quality 100.0 %
Test CRC 9DF6FE69
Copy CRC 9DF6FE69
Track not present in AccurateRip database
Copy OK

Track 6

Filename C:\Share1\Mosley Grape\Live at Indigo Ranch\06. All Over Town.wav

Pre-gap length 0:00:00.06

Peak level 95.2 %
Extraction speed 5.5 X
Track quality 100.0 %
Test CRC 8AC641CC
Copy CRC 8AC641CC
Track not present in AccurateRip database
Copy OK

Track 7

Filename C:\Share1\Mosley Grape\Live at Indigo Ranch\07. What's the Use.wav

Pre-gap length 0:00:01.27

Peak level 98.8 %
Extraction speed 5.8 X
Track quality 100.0 %
Test CRC 70E27389
Copy CRC 70E27389
Track not present in AccurateRip database
Copy OK

Track 8

Filename C:\Share1\Mosley Grape\Live at Indigo Ranch\08. Mojo Man.wav

Pre-gap length 0:00:01.12

Peak level 97.2 %
Extraction speed 6.8 X
Track quality 100.0 %
Test CRC 530F21EF
Copy CRC 530F21EF
Track not present in AccurateRip database
Copy OK

Track 9

Filename C:\Share1\Mosley Grape\Live at Indigo Ranch\09. This Rut.wav

Pre-gap length 0:00:03.42

Peak level 93.6 %
Extraction speed 7.0 X
Track quality 100.0 %
Test CRC 6E8FCE4A
Copy CRC 6E8FCE4A
Track not present in AccurateRip database
Copy OK

Track 10

Filename C:\Share1\Mosley Grape\Live at Indigo Ranch\10. Crazy Money.wav

Pre-gap length 0:00:01.45

Peak level 93.3 %
Extraction speed 6.9 X
Track quality 100.0 %
Test CRC F75CBF5E
Copy CRC F75CBF5E
Track not present in AccurateRip database
Copy OK

Track 11

Filename C:\Share1\Mosley Grape\Live at Indigo Ranch\11. Lonesome Highway.wav

Pre-gap length 0:00:01.47

Peak level 94.3 %
Extraction speed 6.0 X
Track quality 99.9 %
Test CRC B87D2315
Copy CRC B87D2315
Track not present in AccurateRip database
Copy OK

Track 12

Filename C:\Share1\Mosley Grape\Live at Indigo Ranch\12. Want to Leave Me.wav

Pre-gap length 0:00:00.57

Peak level 88.9 %
Extraction speed 7.3 X
Track quality 100.0 %
Test CRC A5D86C73
Copy CRC A5D86C73
Track not present in AccurateRip database
Copy OK

Track 13

Filename C:\Share1\Mosley Grape\Live at Indigo Ranch\13. Cajun Song.wav

Pre-gap length 0:00:01.45

Peak level 90.7 %
Extraction speed 6.2 X
Track quality 99.9 %
Test CRC D6C48029
Copy CRC D6C48029
Track not present in AccurateRip database
Copy OK

Track 14

Filename C:\Share1\Mosley Grape\Live at Indigo Ranch\14. Theresa.wav

Pre-gap length 0:00:01.08

Peak level 100.0 %
Extraction speed 8.3 X
Track quality 100.0 %
Test CRC 59D89E48
Copy CRC 59D89E48
Track not present in AccurateRip database
Copy OK


None of the tracks are present in the AccurateRip database

No errors occurred

End of status report

==== Log checksum 44C4AE354C81E303235EFF73EEDE4565EC340B0207A2EF10DAEF29D0DD665301 ====

[CUETools log; Date: 09.08.2017 21:48:57; Version: 2.1.4]
Pregap length 00:00:32.
[CTDB TOCID: B6GBujiIXJuA3P.ksMMwRFv_kDE-] found.
Track | CTDB Status
1 | (2/2) Accurately ripped
2 | (2/2) Accurately ripped
3 | (2/2) Accurately ripped
4 | (2/2) Accurately ripped
5 | (2/2) Accurately ripped
6 | (2/2) Accurately ripped
7 | (2/2) Accurately ripped
8 | (2/2) Accurately ripped
9 | (1/2) Accurately ripped
10 | (2/2) Accurately ripped
11 | (1/2) Accurately ripped
12 | (1/2) Accurately ripped
13 | (1/2) Accurately ripped
14 | (1/2) Accurately ripped
[AccurateRip ID: 0024b6ef-0185c234-cd10c60e] found.
Track [ CRC | V2 ] Status
01 [cb6689e3|9dbdb7ce] (0+2/2) Accurately ripped
02 [f8caaf74|8053037e] (0+2/2) Accurately ripped
03 [55c008a6|d9861a8c] (0+2/2) Accurately ripped
04 [4d6e6a18|b718342f] (0+2/2) Accurately ripped
05 [2ca5dcff|c74d3a4b] (0+2/2) Accurately ripped
06 [04023a72|9a2685eb] (0+2/2) Accurately ripped
07 [5347e6ac|f3ce2bb6] (0+2/2) Accurately ripped
08 [11e7c2a9|7154be81] (0+2/2) Accurately ripped
09 [c8bbd8c3|fab19da5] (0+2/2) Accurately ripped
10 [d3bbc8f4|54ad98f3] (0+3/3) Accurately ripped
11 [24724d3b|672d88f1] (0+2/2) Accurately ripped
12 [e903f593|c6c72f72] (0+3/3) Accurately ripped
13 [bc39c917|be9d5350] (0+2/2) Accurately ripped
14 [b31d9253|a222cb7f] (0+2/2) Accurately ripped

Track Peak [ CRC32 ] [W/O NULL] [ LOG ]
– 100,0 [D21F6E92] [E344F4B8]
01 100,0 [B515E283] [6B23AE58] CRC32
02 94,6 [16CE7F27] [9EC53CA0] CRC32
03 88,6 [0A3BFCD1] [CC7BB41B] CRC32
04 96,3 [CDB4D982] [272B6861] CRC32
05 77,2 [9DF6FE69] [662F3B08] CRC32
06 95,2 [8AC641CC] [C8D2DB6E] CRC32
07 98,8 [70E27389] [E15DD137] CRC32
08 97,2 [530F21EF] [6DC50B7D] CRC32
09 93,6 [6E8FCE4A] [DE60FD72] CRC32
10 93,3 [F75CBF5E] [3D272607] CRC32
11 94,3 [B87D2315] [3D134FCD] CRC32
12 88,9 [A5D86C73] [D0B77372] CRC32
13 90,7 [D6C48029] [E1B63F17] CRC32
14 100,0 [59D89E48] [4DB2EED8] CRC32

foobar2000 1.2 / Dynamic Range Meter 1.1.1
log date: 2017-08-10 00:31:55

––––––––––––––––––––––––––––––––––––––––
Analyzed: Mosley Grape / Live at Indigo Ranch
––––––––––––––––––––––––––––––––––––––––

DR Peak RMS Duration Track
––––––––––––––––––––––––––––––––––––––––
DR14 0.00 dB -15.44 dB 6:38 01-This Time
DR12 -0.48 dB -14.39 dB 3:14 02-Cold Beer
DR13 -1.05 dB -15.92 dB 5:47 03-Took It All Away
DR15 -0.32 dB -16.59 dB 6:15 04-Move Down Town
DR13 -2.24 dB -16.79 dB 4:50 05-Struck Out Again
DR13 -0.42 dB -14.24 dB 2:54 06-All Over Town
DR14 -0.10 dB -15.59 dB 3:33 07-What's the Use
DR13 -0.24 dB -15.03 dB 8:04 08-Mojo Man
DR16 -0.57 dB -17.86 dB 5:50 09-This Rut
DR14 -0.60 dB -16.47 dB 3:52 10-Crazy Money
DR13 -0.51 dB -15.64 dB 4:54 11-Lonesome Highway
DR12 -1.01 dB -14.74 dB 4:13 12-Want to Leave Me
DR15 -0.84 dB -18.76 dB 4:24 13-Cajun Song
DR13 0.00 dB -16.99 dB 7:08 14-Theresa
––––––––––––––––––––––––––––––––––––––––

Number of tracks: 14
Official DR value: DR13

Samplerate: 44100 Hz
Channels: 2
Bits per sample: 16
Bitrate: 899 kbps
Codec: FLAC
================================================================================




Bob Mosley (ex-Moby Grape) - Albums Collection 1972-2005 (4CD) [Re-Up]

Bob Mosley - Never Dreamed (1999)
EAC | FLAC | Tracks (Cue&Log) ~ 247 Mb | Mp3 (CBR320) ~ 94 Mb | Scans ~ 93 Mb
Label: Taxim | # TX 2053-2 TA | Time: 00:41:26

For those seeking the gritty West Coast vocals or psychedelic overtones of Bob Mosley's 1972 self-titled debut, or anything resembling Moby Grape, the Never Dreamed album will not only shock, it will show another side of this talented and oft forgotten rock & roll soldier. Contrast the cover of Justin Hayward's "Question" with Mosley's original material from four years earlier, specifically the track "So Many Troubles" on the aforementioned Bob Mosley LP, producer Jean Pierre Whitecloud choosing the song and recording only the half of the tune that is the ballad side of the Moody Blues. Mosley's tone and strength are perfect for such a challenge – but even hardcore Moby Grape fans will be hard-pressed to recognize the voice which sounds like a cross between Richard Harris and Jerry Lee Lewis on this set of country tunes. Though the date on the liner notes states November 1999, this material was recorded in 1976/1977 when Mosley sang and played bass for Fine Wine, a band released on Polydor. Producer J.P. Whitecloud actually recorded this material with Waylon Jennings in mind as Jennings was interested in a couple of the songs Susan Whitecloud and her producer husband – under the pseudonym Pete Delacroix though it is actually J.P. Whitecloud – had written. Without Jennings the stellar tracks – featuring members of Buddy Holly's Crickets as well as James Burton and Glen D. Hardin from Elvis Presley's band – were lost in limbo. Polydor actually showed interest – as did Bill Graham with his Columbia Records distributed label and a potential Eddie Money tour to promote this disc, were it not for the singer's Syd Barrett-style notions of going to the planet Saturn getting in the way. It's truly a great tragedy because the cover of Bill Owens and Dolly Parton's "Put It Off Until Tomorrow" is striking in its authenticity – and could have been a Waylon Jennings smash. "Willy Shakespeare Blues" also proves Mosley could have easily made the transition from rocker to country legend had that been the focus. As Tommy James brilliant My Head, My Bed & My Red Guitar album is the textbook for great country music by a name rocker getting lost in the shuffle of the industry, this material didn't even see the light of day until 23 years later when a German label picked it up for issue. And as Tommy James kept active and his album failed to achieve the popularity it deserved despite his high profile, the excellent songs that the Whiteclouds co-wrote here can't be blamed for languishing on the shelf for decades; they were victims of a business that thinks in terms of dollars rather than art. "Shoot the Xylophone Man" not only sounds like the killer, Jerry Lee, it would be perfect for him, the elegant guitar lines running as quick as the bass and piano in wonderful fashion. Mosley cut the vocals in one day, sometimes in one take, but they sound great and give this project added caché bringing the opening track, "There Is the Sun," a commercial flair missing in some of Mosley's own work. This could be likened to Bill Withers participation on Grover Washington, Jr.'s "Just the Two of Us," a collaboration that generated something special. The project is the vision of producer/arranger Jean Pierre Whitecloud and, perhaps, should have been credited to him and Mosley together. For Moby Grape fans it will be an oddity, for Bob Mosley it is a remarkable indication of what could have been.

Review by Joe Viglione, Allmusic.com

Tracklist:

01. There Is the Sun (3:12)
02. Dead or Alive (3:23)
03. Never Dreamed (5:15)
04. Willy Shakespeare Blues (4:32)
05. Shoot the Xylophone Man (2:33)
06. Put It Off Until Tomorrow (3:30)
07. Louisiana Mama (2:44)
08. Question (3:01)
09. Leavin' Through the Back Door (3:24)
10. Willy Shakespeare Blues (alternate take) (4:30)
11. Never Dreamed (alternate mix) (5:22)


Exact Audio Copy V1.0 beta 2 from 29. April 2011

EAC extraction logfile from 14. August 2011, 18:50

Bob Mosley / Never Dreamed

Used drive : hp DVD A DH16ABLH Adapter: 0 ID: 0

Read mode : Secure
Utilize accurate stream : Yes
Defeat audio cache : Yes
Make use of C2 pointers : No

Read offset correction : 6
Overread into Lead-In and Lead-Out : No
Fill up missing offset samples with silence : Yes
Delete leading and trailing silent blocks : No
Null samples used in CRC calculations : Yes
Used interface : Native Win32 interface for Win NT & 2000
Gap handling : Appended to previous track

Used output format : User Defined Encoder
Selected bitrate : 1024 kBit/s
Quality : High
Add ID3 tag : No
Command line compressor : C:\Program Files (x86)\Exact Audio Copy\Flac\flac.exe
Additional command line options : -8 -V -T "ARTIST=%artist%" -T "TITLE=%title%" -T "ALBUM=%albumtitle%" -T "DATE=%year%" -T "TRACKNUMBER=%tracknr%" -T "GENRE=%genre%" -T "COMMENT=%comment%" %hascover%–picture="%coverfile%"%hascover% %source% -o %dest%


TOC of the extracted CD

Track | Start | Length | Start sector | End sector
––––––––––––––––––––––––––––-
1 | 0:00.00 | 3:12.29 | 0 | 14428
2 | 3:12.29 | 3:23.30 | 14429 | 29683
3 | 6:35.59 | 5:14.47 | 29684 | 53280
4 | 11:50.31 | 4:31.48 | 53281 | 73653
5 | 16:22.04 | 2:32.60 | 73654 | 85113
6 | 18:54.64 | 3:30.07 | 85114 | 100870
7 | 22:24.71 | 2:44.14 | 100871 | 113184
8 | 25:09.10 | 3:00.53 | 113185 | 126737
9 | 28:09.63 | 3:24.09 | 126738 | 142046
10 | 31:33.72 | 4:30.10 | 142047 | 162306
11 | 36:04.07 | 5:22.27 | 162307 | 186483


Track 1

Filename C:\Share1\Bob Mosley\1999 - Never Dreamed\01. There Is the Sun.wav

Pre-gap length 0:00:02.00

Peak level 84.1 %
Extraction speed 3.2 X
Track quality 100.0 %
Test CRC 285368A4
Copy CRC 285368A4
Accurately ripped (confidence 1) [2B0C6CE9] (AR v1)
Copy OK

Track 2

Filename C:\Share1\Bob Mosley\1999 - Never Dreamed\02. Dead or Alive.wav

Pre-gap length 0:00:01.57

Peak level 99.9 %
Extraction speed 3.6 X
Track quality 100.0 %
Test CRC 3067B4E6
Copy CRC 3067B4E6
Accurately ripped (confidence 1) [A64779EF] (AR v1)
Copy OK

Track 3

Filename C:\Share1\Bob Mosley\1999 - Never Dreamed\03. Never Dreamed.wav

Pre-gap length 0:00:01.57

Peak level 89.1 %
Extraction speed 4.2 X
Track quality 100.0 %
Test CRC D21F66C8
Copy CRC D21F66C8
Accurately ripped (confidence 1) [F5E40130] (AR v1)
Copy OK

Track 4

Filename C:\Share1\Bob Mosley\1999 - Never Dreamed\04. Willy Shakespeare Blues.wav

Pre-gap length 0:00:01.57

Peak level 99.9 %
Extraction speed 4.5 X
Track quality 100.0 %
Test CRC 4D8BD562
Copy CRC 4D8BD562
Accurately ripped (confidence 1) [37F7CA22] (AR v1)
Copy OK

Track 5

Filename C:\Share1\Bob Mosley\1999 - Never Dreamed\05. Shoot the Xylophone Man.wav

Pre-gap length 0:00:01.57

Peak level 89.1 %
Extraction speed 4.4 X
Track quality 100.0 %
Test CRC 333515E5
Copy CRC 333515E5
Accurately ripped (confidence 1) [C54D0C4B] (AR v1)
Copy OK

Track 6

Filename C:\Share1\Bob Mosley\1999 - Never Dreamed\06. Put It Off Until Tomorrow.wav

Pre-gap length 0:00:01.57

Peak level 99.9 %
Extraction speed 4.8 X
Track quality 100.0 %
Test CRC 00A38CAA
Copy CRC 00A38CAA
Accurately ripped (confidence 1) [F420F14F] (AR v1)
Copy OK

Track 7

Filename C:\Share1\Bob Mosley\1999 - Never Dreamed\07. Louisiana Mama.wav

Pre-gap length 0:00:01.57

Peak level 99.9 %
Extraction speed 4.8 X
Track quality 100.0 %
Test CRC F17EA490
Copy CRC F17EA490
Accurately ripped (confidence 1) [3963B49D] (AR v1)
Copy OK

Track 8

Filename C:\Share1\Bob Mosley\1999 - Never Dreamed\08. Question.wav

Pre-gap length 0:00:01.58

Peak level 99.9 %
Extraction speed 5.0 X
Track quality 100.0 %
Test CRC C389D456
Copy CRC C389D456
Accurately ripped (confidence 1) [EE8C093E] (AR v1)
Copy OK

Track 9

Filename C:\Share1\Bob Mosley\1999 - Never Dreamed\09. Leavin' Through the Back Door.wav

Pre-gap length 0:00:01.57

Peak level 99.9 %
Extraction speed 5.3 X
Track quality 100.0 %
Test CRC 21BE9BDD
Copy CRC 21BE9BDD
Accurately ripped (confidence 1) [89226EE8] (AR v1)
Copy OK

Track 10

Filename C:\Share1\Bob Mosley\1999 - Never Dreamed\10. Willy Shakespeare Blues (alternate take).wav

Pre-gap length 0:00:01.57

Peak level 99.9 %
Extraction speed 5.8 X
Track quality 100.0 %
Test CRC 09A3C3D3
Copy CRC 09A3C3D3
Accurately ripped (confidence 1) [85183644] (AR v1)
Copy OK

Track 11

Filename C:\Share1\Bob Mosley\1999 - Never Dreamed\11. Never Dreamed (alternate mix).wav

Pre-gap length 0:00:01.57

Peak level 99.9 %
Extraction speed 5.1 X
Track quality 99.9 %
Test CRC 032BB19B
Copy CRC 032BB19B
Accurately ripped (confidence 1) [7C756E49] (AR v1)
Copy OK


All tracks accurately ripped

No errors occurred

End of status report

==== Log checksum 1D67BD8B2D56A1AEC0003AC7E4B5A2DF1F37758E7F8A9F6411446DB71749519C ====

[CUETools log; Date: 09.08.2017 21:48:19; Version: 2.1.4]
[CTDB TOCID: rCls3Dv0KxiEfWhZnvDOUwDKAjs-] found.
Track | CTDB Status
1 | (3/3) Accurately ripped
2 | (3/3) Accurately ripped
3 | (3/3) Accurately ripped
4 | (3/3) Accurately ripped
5 | (3/3) Accurately ripped
6 | (3/3) Accurately ripped
7 | (3/3) Accurately ripped
8 | (3/3) Accurately ripped
9 | (3/3) Accurately ripped
10 | (3/3) Accurately ripped
11 | (3/3) Accurately ripped
[AccurateRip ID: 00109932-008f85a7-9a09b60b] found.
Track [ CRC | V2 ] Status
01 [2b0c6ce9|7cd27585] (0+2/2) Accurately ripped
02 [a64779ef|070546c3] (0+2/2) Accurately ripped
03 [f5e40130|ee6065a8] (0+2/2) Accurately ripped
04 [37f7ca22|893bb917] (0+2/2) Accurately ripped
05 [c54d0c4b|b15c0a2d] (0+2/2) Accurately ripped
06 [f420f14f|1b307c95] (0+2/2) Accurately ripped
07 [3963b49d|d83a162c] (0+2/2) Accurately ripped
08 [ee8c093e|c711b28d] (0+2/2) Accurately ripped
09 [89226ee8|669c250d] (0+2/2) Accurately ripped
10 [85183644|43a875cb] (0+2/2) Accurately ripped
11 [7c756e49|2754636e] (0+2/2) Accurately ripped

Track Peak [ CRC32 ] [W/O NULL] [ LOG ]
– 99,9 [03970111] [6F76FFE8]
01 84,1 [285368A4] [5A4DA029] CRC32
02 99,9 [3067B4E6] [5D4F14D2] CRC32
03 89,1 [D21F66C8] [D67D6150] CRC32
04 99,9 [4D8BD562] [9106AE5F] CRC32
05 89,1 [333515E5] [B1432D1E] CRC32
06 99,9 [00A38CAA] [36FC7D72] CRC32
07 99,9 [F17EA490] [17BDC797] CRC32
08 99,9 [C389D456] [65BF10B9] CRC32
09 99,9 [21BE9BDD] [8A8651C0] CRC32
10 99,9 [09A3C3D3] [FCA0EF46] CRC32
11 99,9 [032BB19B] [8959F93F] CRC32

foobar2000 1.2 / Dynamic Range Meter 1.1.1
log date: 2017-08-10 00:30:53

––––––––––––––––––––––––––––––––––––––––
Analyzed: Bob Mosley / Never Dreamed
––––––––––––––––––––––––––––––––––––––––

DR Peak RMS Duration Track
––––––––––––––––––––––––––––––––––––––––
DR9 -1.50 dB -12.46 dB 3:12 01-There Is the Sun
DR7 0.00 dB -8.14 dB 3:23 02-Dead or Alive
DR9 -1.00 dB -11.53 dB 5:15 03-Never Dreamed
DR9 0.00 dB -11.04 dB 4:32 04-Willy Shakespeare Blues
DR7 -1.00 dB -9.34 dB 2:33 05-Shoot the Xylophone Man
DR9 0.00 dB -10.29 dB 3:30 06-Put It Off Until Tomorrow
DR8 0.00 dB -8.52 dB 2:44 07-Louisiana Mama
DR9 0.00 dB -10.79 dB 3:01 08-Question
DR9 0.00 dB -10.48 dB 3:24 09-Leavin' Through the Back Door
DR10 0.00 dB -11.28 dB 4:30 10-Willy Shakespeare Blues (alternate take)
DR8 0.00 dB -9.11 dB 5:22 11-Never Dreamed (alternate mix)
––––––––––––––––––––––––––––––––––––––––

Number of tracks: 11
Official DR value: DR9

Samplerate: 44100 Hz
Channels: 2
Bits per sample: 16
Bitrate: 836 kbps
Codec: FLAC
================================================================================




Bob Mosley (ex-Moby Grape) - Albums Collection 1972-2005 (4CD) [Re-Up]

Bob Mosley - True Blue (2003) Issue 2005
EAC | FLAC | Tracks (Cue&Log) ~ 282 Mb | Mp3 (CBR320) ~ 108 Mb | Scans ~ 46 Mb
Label: Taxim | # TX2078-2 TA | Time: 00:47:24

I started on acoustic guitar at fourteen years of age and was playing electric guitar by the time I was sixteen. My first band, called the Misfits, I formed myself in 1964 . We opened for the Rolling Stones that same year in San Diego, California where I was living. In 1965 I joined with Joel Scott HIll and Johnny Barbata to play the San Francisco bay area clubs where I also played some dates with the Vejtables.

In 1966 Moby Grape was formed and we have been working on and off together thru the years. In 1996 Peter Lewis picked me up along the side of a San Diego freeway where I was living, to tell me a ruling by San Francisco Judge Garcia gave Moby Grape their name back. I was ready to go to work again. I started this project recording acoustic guitar, electric guitar, bass and vocals up in Marin County close to where I had recently moved. Taxim was interested in my project and since the first tracks were laid, I got in touch with J.P. Whitecloud, producer of "Never Dreamed", a recording which was done with James Burton and the Crickets released in 1999 on Taxim. Prairie Sun Studio is where this was finished by adding Dale Ockermon from the Doobie Brothers on keyboards and slide guitar. I called old friend James Preston of the Sons of Champlin to add the drums.

Thank you Hans and JP and especially to my family for your support and love.

– Bob Mosley 2005

Tracklist:

01. Can't Keep A Good Man Down (4:59)
02. Come Back Woman (4:03)
03. Just Like A Fool (4:25)
04. Wineo (3:32)
05. Never (4:55)
06. Sad and Blue (3:13)
07. Rainbows End (Used to be my Friend) (3:35)
08. To the Sea (4:37)
09. As Far As It Goes (3:18)
10. Poor Man (4:16)
11. Dusty Old Road (2:41)
12. Lazy Me (3:53)


Exact Audio Copy V1.0 beta 1 from 15. November 2010

EAC extraction logfile from 9. March 2011, 13:35

Bob Mosley / True Blue

Used drive : SAMSUNG DVD-ROM SD-616T Adapter: 1 ID: 0

Read mode : Secure
Utilize accurate stream : Yes
Defeat audio cache : Yes
Make use of C2 pointers : No

Read offset correction : 1182
Overread into Lead-In and Lead-Out : No
Fill up missing offset samples with silence : Yes
Delete leading and trailing silent blocks : No
Null samples used in CRC calculations : Yes
Used interface : Native Win32 interface for Win NT & 2000
Gap handling : Appended to previous track

Used output format : User Defined Encoder
Selected bitrate : 1024 kBit/s
Quality : High
Add ID3 tag : No
Command line compressor : C:\Program Files\Exact Audio Copy\FLAC\FLAC.EXE
Additional command line options : -8 -V -T "ARTIST=%a" -T "TITLE=%t" -T "ALBUM=%g" -T "DATE=%y" -T "TRACKNUMBER=%n" -T "GENRE=%m" -T "COMMENT=%e" %j–picture="%i"%j %s -o %d


TOC of the extracted CD

Track | Start | Length | Start sector | End sector
––––––––––––––––––––––––––––-
1 | 0:00.00 | 4:58.41 | 0 | 22390
2 | 4:58.41 | 4:02.63 | 22391 | 40603
3 | 9:01.29 | 4:24.43 | 40604 | 60446
4 | 13:25.72 | 3:31.69 | 60447 | 76340
5 | 16:57.66 | 4:54.74 | 76341 | 98464
6 | 21:52.65 | 3:12.40 | 98465 | 112904
7 | 25:05.30 | 3:35.11 | 112905 | 129040
8 | 28:40.41 | 4:37.06 | 129041 | 149821
9 | 33:17.47 | 3:17.44 | 149822 | 164640
10 | 36:35.16 | 4:15.41 | 164641 | 183806
11 | 40:50.57 | 2:41.31 | 183807 | 195912
12 | 43:32.13 | 3:52.40 | 195913 | 213352


Track 1

Filename F:\Share2\Bob Mosley\True Blue\01. Can't Keep A Good Man Down.wav

Pre-gap length 0:00:02.00

Peak level 99.9 %
Extraction speed 3.1 X
Track quality 99.9 %
Test CRC C9590A47
Copy CRC C9590A47
Track not present in AccurateRip database
Copy OK

Track 2

Filename F:\Share2\Bob Mosley\True Blue\02. Come Back Woman.wav

Pre-gap length 0:00:01.58

Peak level 87.6 %
Extraction speed 3.6 X
Track quality 100.0 %
Test CRC 686E6669
Copy CRC 686E6669
Track not present in AccurateRip database
Copy OK

Track 3

Filename F:\Share2\Bob Mosley\True Blue\03. Just Like A Fool.wav

Pre-gap length 0:00:01.58

Peak level 96.4 %
Extraction speed 3.6 X
Track quality 100.0 %
Test CRC 422C7B35
Copy CRC 422C7B35
Track not present in AccurateRip database
Copy OK

Track 4

Filename F:\Share2\Bob Mosley\True Blue\04. Wineo.wav

Pre-gap length 0:00:01.58

Peak level 96.4 %
Extraction speed 3.6 X
Track quality 100.0 %
Test CRC 99A77BD6
Copy CRC 99A77BD6
Track not present in AccurateRip database
Copy OK

Track 5

Filename F:\Share2\Bob Mosley\True Blue\05. Never.wav

Pre-gap length 0:00:01.58

Peak level 100.0 %
Extraction speed 3.7 X
Track quality 100.0 %
Test CRC CD67D112
Copy CRC CD67D112
Track not present in AccurateRip database
Copy OK

Track 6

Filename F:\Share2\Bob Mosley\True Blue\06. Sad and Blue.wav

Pre-gap length 0:00:01.58

Peak level 99.3 %
Extraction speed 3.4 X
Track quality 100.0 %
Test CRC D48363CC
Copy CRC D48363CC
Track not present in AccurateRip database
Copy OK

Track 7

Filename F:\Share2\Bob Mosley\True Blue\07. Rainbows End (Used to be my Friend).wav

Pre-gap length 0:00:01.58

Peak level 100.0 %
Extraction speed 3.5 X
Track quality 100.0 %
Test CRC EABED3F2
Copy CRC EABED3F2
Track not present in AccurateRip database
Copy OK

Track 8

Filename F:\Share2\Bob Mosley\True Blue\08. To the Sea.wav

Pre-gap length 0:00:01.58

Peak level 88.6 %
Extraction speed 3.6 X
Track quality 100.0 %
Test CRC 45B82D41
Copy CRC 45B82D41
Track not present in AccurateRip database
Copy OK

Track 9

Filename F:\Share2\Bob Mosley\True Blue\09. As Far As It Goes.wav

Pre-gap length 0:00:01.58

Peak level 99.3 %
Extraction speed 3.0 X
Track quality 99.9 %
Test CRC 3C021D61
Copy CRC 3C021D61
Track not present in AccurateRip database
Copy OK

Track 10

Filename F:\Share2\Bob Mosley\True Blue\10. Poor Man.wav

Pre-gap length 0:00:01.58

Peak level 99.8 %
Extraction speed 3.6 X
Track quality 100.0 %
Test CRC 8F897CBC
Copy CRC 8F897CBC
Track not present in AccurateRip database
Copy OK

Track 11

Filename F:\Share2\Bob Mosley\True Blue\11. Dusty Old Road.wav

Pre-gap length 0:00:01.58

Peak level 100.0 %
Extraction speed 3.3 X
Track quality 100.0 %
Test CRC BB6ECFA6
Copy CRC BB6ECFA6
Track not present in AccurateRip database
Copy OK

Track 12

Filename F:\Share2\Bob Mosley\True Blue\12. Lazy Me.wav

Pre-gap length 0:00:01.58

Peak level 100.0 %
Extraction speed 3.6 X
Track quality 100.0 %
Test CRC 934A0D77
Copy CRC 934A0D77
Track not present in AccurateRip database
Copy OK


None of the tracks are present in the AccurateRip database

No errors occurred

End of status report

==== Log checksum DF3ECCF72649A0B397B2B66B3D94741CA59B012DE21A6627322DFA336FB148C3 ====

[CUETools log; Date: 09.08.2017 21:48:34; Version: 2.1.4]
[CTDB TOCID: L38vgiG9DmTQ7kQFd_RqXQCs10w-] found.
Track | CTDB Status
1 | (2/2) Accurately ripped
2 | (2/2) Accurately ripped
3 | (2/2) Accurately ripped
4 | (2/2) Accurately ripped
5 | (2/2) Accurately ripped
6 | (2/2) Accurately ripped
7 | (2/2) Accurately ripped
8 | (2/2) Accurately ripped
9 | (2/2) Accurately ripped
10 | (2/2) Accurately ripped
11 | (2/2) Accurately ripped
12 | (2/2) Accurately ripped
[AccurateRip ID: 00161732-00cba003-960b1c0c] found.
Track [ CRC | V2 ] Status
01 [d6bfaa58|273041a2] (0+2/2) Accurately ripped
02 [f2b98105|57f4e635] (0+2/2) Accurately ripped
03 [44aac3fc|eaf1658b] (0+2/2) Accurately ripped
04 [34ff8efa|8135a539] (0+2/2) Accurately ripped
05 [621ea0b8|25b00812] (0+2/2) Accurately ripped
06 [8452d126|035e5a5c] (0+2/2) Accurately ripped
07 [f25dffc9|947c0a5f] (0+2/2) Accurately ripped
08 [152918de|a067102a] (0+2/2) Accurately ripped
09 [38e18359|981c45a3] (0+2/2) Accurately ripped
10 [11fe1377|e91097d5] (0+2/2) Accurately ripped
11 [fda2d333|5a32c0d6] (0+2/2) Accurately ripped
12 [e293f459|56c80ea2] (0+2/2) Accurately ripped

Track Peak [ CRC32 ] [W/O NULL] [ LOG ]
– 100,0 [BE666647] [584A4005]
01 99,9 [C9590A47] [9390ADBE] CRC32
02 87,6 [686E6669] [E2C3D137] CRC32
03 96,4 [422C7B35] [51D55594] CRC32
04 96,4 [99A77BD6] [7055F3C9] CRC32
05 100,0 [CD67D112] [1D8CED64] CRC32
06 99,3 [D48363CC] [4D62C23E] CRC32
07 100,0 [EABED3F2] [916D89E3] CRC32
08 88,6 [45B82D41] [43A877AC] CRC32
09 99,3 [3C021D61] [FAA9A3AF] CRC32
10 99,8 [8F897CBC] [03668A50] CRC32
11 100,0 [BB6ECFA6] [621F74DA] CRC32
12 100,0 [934A0D77] [D0254EC1] CRC32

foobar2000 1.2 / Dynamic Range Meter 1.1.1
log date: 2017-08-10 00:31:20

––––––––––––––––––––––––––––––––––––––––
Analyzed: Bob Mosley / True Blue
––––––––––––––––––––––––––––––––––––––––

DR Peak RMS Duration Track
––––––––––––––––––––––––––––––––––––––––
DR9 -0.01 dB -10.21 dB 4:59 01-Can't Keep A Good Man Down
DR10 -1.15 dB -11.72 dB 4:03 02-Come Back Woman
DR11 -0.32 dB -13.14 dB 4:25 03-Just Like A Fool
DR10 -0.31 dB -12.05 dB 3:32 04-Wineo
DR12 0.00 dB -13.90 dB 4:55 05-Never
DR10 -0.06 dB -11.29 dB 3:13 06-Sad and Blue
DR12 0.00 dB -13.16 dB 3:35 07-Rainbows End (Used to be my Friend)
DR9 -1.05 dB -11.95 dB 4:37 08-To the Sea
DR8 -0.06 dB -9.29 dB 3:18 09-As Far As It Goes
DR10 -0.01 dB -10.96 dB 4:16 10-Poor Man
DR10 0.00 dB -10.93 dB 2:41 11-Dusty Old Road
DR11 0.00 dB -12.51 dB 3:53 12-Lazy Me
––––––––––––––––––––––––––––––––––––––––

Number of tracks: 12
Official DR value: DR10

Samplerate: 44100 Hz
Channels: 2
Bits per sample: 16
Bitrate: 819 kbps
Codec: FLAC
================================================================================




All thanks to original releaser - indiffer

More interesting music in My Blog