Tags
Language
Tags

Bob Halligan - Window In The Wall (1991)

Posted By: BlondStyle
Bob Halligan - Window In The Wall (1991)

Bob Halligan - Window In The Wall (1991)
Rock, Soft Rock, AOR, Ballad | EAC Rip | FLAC, Img+CUE+LOG+Scans (JPEG) | 44:57 | 301,06 Mb
Label: Atco Records (USA) | Cat.# 7 91678-4 | Released: 1991
Bob Halligan - Window In The Wall (1991)

Bob Halligan Jr. (born January 3, 1953) is an American rock singer, musician and songwriter who has collaborated with many artists, particularly in the hard rock/heavy metal genre, throughout his career. He is currently the lead vocalist and guitarist for the band Ceili Rain, a group he founded which combines Celtic, rock and contemporary Christian music. As a songwriter, Halligan has contributed songs to two albums by heavy metal band Judas Priest: "(Take These) Chains" from 1982's Screaming for Vengeance and the single "Some Heads Are Gonna Roll" from 1984's Defenders of the Faith. Judas Priest lead singer Rob Halford included another song by Halligan, "Twist," on the album Resurrection by his band Halford. Halligan also worked extensively with the hard rock/heavy metal band Kix, beginning in the mid-1980s, when he co-wrote most of the songs on the band's third album, Midnite Dynamite. Incidentally, one of the most successful songs he has ever written is Kix's near-top ten hit, "Don't Close Your Eyes" (co-written with one-time Crack the Sky frontman John Palumbo and Kix bassist Donnie Purnell), which was featured on the band's follow-up album, Blow My Fuse. The tune remains Kix's highest charting single. He also wrote the songs "Beat 'Em Up" and "Make Rock Not War" on Blue Oyster Cult's Club Ninja record, "Rise to It" and "Read My Body" on Kiss' album Hot in the Shade, "Could've Been You" on Cher's album Love Hurts and the single "Rock You" for Helix's Walkin' the Razor's Edge album. In addition, Halligan wrote or co-wrote most of the songs on Night of the Crime by 80's heavy metal band Icon. He also co-wrote the song "Bang Down The Door" on Bonfire's 1989's Point Blank record.
~Wikipedia

Bob Halligan - Window In The Wall (1991)

Bob Halligan - Window In The Wall (1991)




Release of this CD: 1991 [CD Atco Records (USA), Cat.# 7 91678-4 / UPC: 7567916782]
Atco Records, Division of Atlantic Recording Corporation.
©&℗ 1991 Atlantic Recording Corporation for the United States and WEA International Inc. for the world outside of the United States.
Printed/Made in U.S.A.

Credits:

Keyboards, Drum Program - Arnie Roman
Keyboards - Philip Ashley
Keyboards - Phil Shenale
Drums And Percussion - Pat Mastelotto
Bass - Seith Glassman
Solo And Rhythm Guitars - Michael Ciro
Keyboards - Peter Wood
Keyboards, Drum Program - Graham Shaw
Keyboards, Drum Program, Keyboard Bass - Gerald O'Brien
Keyboards, Sampling - Doug Hall
Power Guitar - Eddie Martinez
Bass - Rick Cua
Solo, Rhythm & 12-string Guitar - Rob Friedman
Bass - Will Lee
Guitar - Ira Siegel
Produced by - Phil Galdston & Bob Halligan


Tracklist:

01. Could've Been You (04:03)
02. Now That It's Not Over (04:31)
03. Still Feels Like Love (04:29)
04. I Will Remember You (05:24)
05. Who's Lovin' You Now (04:17)
06. Window In The Wall (03:44)
07. Midnite Mirage (05:46)
08. The Way It's S'pozed To Be (03:32)
09. Hard Rain (04:03)
10. Standing On The Edge Of Goodbye (05:08)

Exact Audio Copy V1.1 from 23. June 2015

Отчёт EAC об извлечении, выполненном 12. января 2017, 20:20

Bob Halligan / Window In The Wall (7 91678-2)

Дисковод: PLEXTOR BD-R PX-B950SA Adapter: 1 ID: 0

Режим чтения : Достоверность
Использование точного потока : Да
Отключение кэша аудио : Да
Использование указателей C2 : Нет

Коррекция смещения при чтении : 6
Способность читать области Lead-in и Lead-out : Нет
Заполнение пропущенных сэмплов тишиной : Да
Удаление блоков с тишиной в начале и конце : Нет
При вычислениях CRC использовались нулевые сэмплы : Да
Интерфейс : Встроенный Win32-интерфейс для Win NT/2000

Выходной формат : Пользовательский кодировщик
Выбранный битрейт : 1024 kBit/s
Качество : Высокий
Добавление ID3-тега : Нет
Утилита сжатия : C:\Program Files (x86)\Exact Audio Copy\FLAC\FLAC.EXE
Дополнительные параметры : -6 -V -T "ARTIST=%artist%" -T "TITLE=%title%" -T "ALBUM=%albumtitle%" -T "DATE=%year%" -T "TRACKNUMBER=%tracknr%" -T "GENRE=%genre%" -T "COMMENT=%comment%" -T "BAND=%albuminterpret%" -T "ALBUMARTIST=%albuminterpret%" -T "COMPOSER=%composer%" %haslyrics%–tag-from-file=LYRICS="%lyricsfile%"%haslyrics% -T "DISCNUMBER=%cdnumber%" -T "TOTALDISCS=%totalcds%" -T "TOTALTRACKS=%numtracks%" %hascover%–picture="%coverfile%"%hascover% %source% -o %dest%


TOC извлечённого CD

Трек | Старт | Длительность | Начальный сектор | Конечный сектор
––––––––––––––––––––––––––––––––––-
1 | 0:00.32 | 4:03.20 | 32 | 18276
2 | 4:03.52 | 4:31.10 | 18277 | 38611
3 | 8:34.62 | 4:29.23 | 38612 | 58809
4 | 13:04.10 | 5:23.60 | 58810 | 83094
5 | 18:27.70 | 4:16.57 | 83095 | 102351
6 | 22:44.52 | 3:43.70 | 102352 | 119146
7 | 26:28.47 | 5:46.23 | 119147 | 145119
8 | 32:14.70 | 3:31.42 | 145120 | 160986
9 | 35:46.37 | 4:03.18 | 160987 | 179229
10 | 39:49.55 | 5:08.32 | 179230 | 202361


Характеристики диапазона извлечения и сообщения об ошибках

Выбранный диапазон

Имя файла G:\RIP\Bob Halligan 1991 FLAC by alzal\Bob Halligan - Window In The Wall (7 91678-2).wav

Пиковый уровень 100.0 %
Скорость извлечения 3.0 X
Качество диапазона 99.9 %
CRC теста 249FEBC3
CRC копии 249FEBC3
Копирование… OK

Ошибок не произошло


AccurateRip: сводка

Трек 1 : извлечено точно (доверие 1) [7AD33E96] (AR v2)
Трек 2 : извлечено точно (доверие 1) [D8FCF9ED] (AR v2)
Трек 3 : извлечено точно (доверие 1) [5F1807D3] (AR v2)
Трек 4 : извлечено точно (доверие 1) [A90FDF53] (AR v2)
Трек 5 : извлечено точно (доверие 1) [5DB8FD46] (AR v2)
Трек 6 : извлечено точно (доверие 1) [BAD84A13] (AR v2)
Трек 7 : извлечено точно (доверие 1) [321692CA] (AR v2)
Трек 8 : извлечено точно (доверие 1) [F7E6A438] (AR v2)
Трек 9 : извлечено точно (доверие 1) [E438C10E] (AR v2)
Трек 10 : извлечено точно (доверие 1) [1FDA699D] (AR v2)

Все треки извлечены точно

Конец отчёта

–– CUETools DB Plugin V2.1.6

[CTDB TOCID: z0oUlsrQmYW84L5.vCQKN2wNajY-] found
Submit result: z0oUlsrQmYW84L5.vCQKN2wNajY- has been confirmed
Track | CTDB Status
1 | (1/1) Accurately ripped
2 | (1/1) Accurately ripped
3 | (1/1) Accurately ripped
4 | (1/1) Accurately ripped
5 | (1/1) Accurately ripped
6 | (1/1) Accurately ripped
7 | (1/1) Accurately ripped
8 | (1/1) Accurately ripped
9 | (1/1) Accurately ripped
10 | (1/1) Accurately ripped


==== Контрольная сумма отчёта 1767A7DEC4A694CA54F2EAD5A23424FB32660DC33DFB8C699373FDDE7A985627 ====

––––––––––––––––––––––––––––––––––––––––
Analyzed: Bob Halligan / Window In The Wall (7 91678-2)
––––––––––––––––––––––––––––––––––––––––

DR Peak RMS Duration Track
––––––––––––––––––––––––––––––––––––––––
DR12 0.00 dB -13.58 dB 4:03 01-Could've Been You
DR11 0.00 dB -13.42 dB 4:31 02-Now That It's Not Over
DR10 0.00 dB -12.44 dB 4:29 03-Still Feels Like Love
DR11 0.00 dB -14.07 dB 5:24 04-I Will Remember You
DR11 0.00 dB -13.78 dB 4:17 05-Who's Lovin' You Now
DR11 0.00 dB -12.52 dB 3:44 06-Window In The Wall
DR12 0.00 dB -15.50 dB 5:46 07-Midnite Mirage
DR11 0.00 dB -14.33 dB 3:32 08-The Way It's S'pozed To Be
DR11 0.00 dB -13.23 dB 4:03 09-Hard Rain
DR11 0.00 dB -15.83 dB 5:08 10-Standing On The Edge Of Goodbye
––––––––––––––––––––––––––––––––––––––––

Number of tracks: 10
Official DR value: DR11

Samplerate: 44100 Hz
Channels: 2
Bits per sample: 16
Bitrate: 893 kbps
Codec: FLAC
================================================================================

Thanks to alzal

♫~Welcome To My Blog~♫

password: BlondStyle