Subcategories

Bobby Lyle - The Power Of Touch (1997) {Atlantic 82951-2}

Posted By: tiburon
Bobby Lyle - The Power Of Touch (1997) {Atlantic 82951-2}

Bobby Lyle - The Power Of Touch (1997) {Atlantic 82951-2}
EAC 0.99pb5 | FLAC tracks level 8 | Cue+Log+M3U | Full Scans 300dpi | 348MB + 5% Recovery
MP3 CBR 320 Kbps | 126MB + 5% Recovery
Genre: Jazz Funk, Smooth Jazz

The elegant funk pianist dresses up his elegant playing, catchy melodies and familiar funk leanings with rhythmic excursions to Latin America, Brazil and Africa. A sticker on the wrapping of the disc touts the pianist as one of the true pioneers of smooth jazz, but that tag oversimplifies his uniquely global approach.
Track List
01. Timbuktu 4:58
02. Aruban Nights 5:11
03. Just Talk to Me 5:09
04. Interlude 0:21
05. Feel Like Makin' Love 4:55
06. Jubilee 3:56)
07. Checkin' 4:55
08. Moment in Time 5:28
09. Steppin' 4:45)
10. 3 Minute Samba 3:04
11. Midnight Creeper 4:49
12. Inner Peace 5:13

musicians
Bobby Lyle - piano, organ, keyboard bass, drum programming
Nathan East - bass
Paul Jackson, Jr. - guitar
Leon "Ndugu" Chancler - drums
Wilton Felder - tenor sax
Alphonso Johnson - bass
Doc Powell - guitar
Gerald Albright - soprano sax
Dwight Sills - guitar
Phil Upchurch - guitar
Gerald McCauley - synthesizer, keyboards, drum programming
Mindi Abair - soprano and alto saxes
Stanley Benders - percussion
Mike Daigo - trombone
Mikael Sandgren - synthesizer, keyboards, sampling, drum programming
Jorge Evans - guitar
Adwin Brown - voices
Andre Roberson - saxophone
Mike Campbell - guitar
Sekou Bunch - bass
Alex Acuсa - percussion,drums
Bashiri Johnson - percussion
Rahmlee Michael Davis - trumpet
Fernando Harkness - flute, saxophone
Larry Kimpel - bass
Kevyn Lettau - vocals
Will Downing - vocals,arranger
Michael Harris - trumpet
Lynn Mabry - vocals
Al McKay - guitar
Kevin Ricard - percussion
Melanie Taylor - vocals
Michael White - drums
Dred Scott - voice sample
Jerry Brooks - bass
David Satterfield - vocals
Andy Korn - drums
Tommy Organ - guitar

Produced by Bobby Lyle


Exact Audio Copy V0.99 prebeta 5 from 4. May 2009

EAC extraction logfile from 14. November 2010, 0:34

Bobby Lyle / The Power Of Touch

Used drive : HL-DT-STDVDRAM GH20NS10 Adapter: 2 ID: 0

Read mode : Secure
Utilize accurate stream : Yes
Defeat audio cache : Yes
Make use of C2 pointers : No

Read offset correction : 667
Overread into Lead-In and Lead-Out : No
Fill up missing offset samples with silence : Yes
Delete leading and trailing silent blocks : No
Null samples used in CRC calculations : Yes
Used interface : Native Win32 interface for Win NT & 2000
Gap handling : Appended to previous track

Used output format : User Defined Encoder
Selected bitrate : 1024 kBit/s
Quality : High
Add ID3 tag : No
Command line compressor : C:\Program Files\Exact Audio Copy\Flac\flac.exe
Additional command line options : -8 -V -T "ARTIST=%a" -T "TITLE=%t" -T "ALBUM=%g" -T "DATE=%y" -T "TRACKNUMBER=%n" -T "TOTALTRACKS=%x" -T "GENRE=%m" -T "ALBUMARTIST=%v" -T "ALBUM ARTIST=%v" -T "COMMENT=EAC Secure Mode, Test & Copy, AccurateRip, FLAC -8" %s


TOC of the extracted CD

Track | Start | Length | Start sector | End sector
––––––––––––––––––––––––––––-
1 | 0:00.32 | 4:41.20 | 32 | 21126
2 | 4:41.52 | 5:12.70 | 21127 | 44596
3 | 9:54.47 | 5:09.50 | 44597 | 67821
4 | 15:04.22 | 0:23.10 | 67822 | 69556
5 | 15:27.32 | 4:53.53 | 69557 | 91584
6 | 20:21.10 | 3:57.22 | 91585 | 109381
7 | 24:18.32 | 4:55.58 | 109382 | 131564
8 | 29:14.15 | 5:24.55 | 131565 | 155919
9 | 34:38.70 | 4:46.27 | 155920 | 177396
10 | 39:25.22 | 3:03.63 | 177397 | 191184
11 | 42:29.10 | 4:49.65 | 191185 | 212924
12 | 47:19.00 | 5:12.55 | 212925 | 236379


Track 1

Filename C:\Users\Tiburon\Desktop\Bobby Lyle - The Power Of Touch (1997) {Atlantic 82951-2}\01 - Timbuktu.wav

Pre-gap length 0:00:02.42

Peak level 98.4 %
Track quality 99.9 %
Test CRC ACC41C9C
Copy CRC ACC41C9C
Cannot be verified as accurate (confidence 9) [1811D763], AccurateRip returned [19E52F1B]
Copy OK

Track 2

Filename C:\Users\Tiburon\Desktop\Bobby Lyle - The Power Of Touch (1997) {Atlantic 82951-2}\02 - Aruban Nights.wav

Pre-gap length 0:00:01.56

Peak level 92.8 %
Track quality 100.0 %
Test CRC A379DB68
Copy CRC A379DB68
Cannot be verified as accurate (confidence 9) [977A004A], AccurateRip returned [6FE8CFB0]
Copy OK

Track 3

Filename C:\Users\Tiburon\Desktop\Bobby Lyle - The Power Of Touch (1997) {Atlantic 82951-2}\03 - Just Talk To Me.wav

Pre-gap length 0:00:01.80

Peak level 93.1 %
Track quality 100.0 %
Test CRC 3205E678
Copy CRC 3205E678
Cannot be verified as accurate (confidence 9) [F88C5855], AccurateRip returned [0135B899]
Copy OK

Track 4

Filename C:\Users\Tiburon\Desktop\Bobby Lyle - The Power Of Touch (1997) {Atlantic 82951-2}\04 - Interlude.wav

Pre-gap length 0:00:01.53

Peak level 71.7 %
Track quality 100.0 %
Test CRC 7D11EA76
Copy CRC 7D11EA76
Cannot be verified as accurate (confidence 8) [BF280AA4], AccurateRip returned [837EADA4]
Copy OK

Track 5

Filename C:\Users\Tiburon\Desktop\Bobby Lyle - The Power Of Touch (1997) {Atlantic 82951-2}\05 - Fell Like Makin' Love.wav

Pre-gap length 0:00:00.29

Peak level 97.7 %
Track quality 100.0 %
Test CRC 2CF8B8EF
Copy CRC 2CF8B8EF
Cannot be verified as accurate (confidence 9) [B1067A12], AccurateRip returned [27CBA6F1]
Copy OK

Track 6

Filename C:\Users\Tiburon\Desktop\Bobby Lyle - The Power Of Touch (1997) {Atlantic 82951-2}\06 - Jubilee.wav

Pre-gap length 0:00:00.77

Peak level 100.0 %
Track quality 100.0 %
Test CRC CF4B56CF
Copy CRC CF4B56CF
Cannot be verified as accurate (confidence 8) [841A35D8], AccurateRip returned [95CC8009]
Copy OK

Track 7

Filename C:\Users\Tiburon\Desktop\Bobby Lyle - The Power Of Touch (1997) {Atlantic 82951-2}\07 - Checkin'.wav

Pre-gap length 0:00:02.09

Peak level 96.2 %
Track quality 100.0 %
Test CRC C83F622C
Copy CRC C83F622C
Cannot be verified as accurate (confidence 9) [DABCD8BF], AccurateRip returned [47C333A1]
Copy OK

Track 8

Filename C:\Users\Tiburon\Desktop\Bobby Lyle - The Power Of Touch (1997) {Atlantic 82951-2}\08 - A Moment In Time.wav

Pre-gap length 0:00:01.17

Peak level 94.5 %
Track quality 99.9 %
Test CRC BDA22A55
Copy CRC BDA22A55
Cannot be verified as accurate (confidence 8) [5DE95D43], AccurateRip returned [D6E51E3C]
Copy OK

Track 9

Filename C:\Users\Tiburon\Desktop\Bobby Lyle - The Power Of Touch (1997) {Atlantic 82951-2}\09 - Steppin'.wav

Pre-gap length 0:00:01.04

Peak level 97.5 %
Track quality 100.0 %
Test CRC E989F7F0
Copy CRC E989F7F0
Cannot be verified as accurate (confidence 8) [E507D82D], AccurateRip returned [48CB059E]
Copy OK

Track 10

Filename C:\Users\Tiburon\Desktop\Bobby Lyle - The Power Of Touch (1997) {Atlantic 82951-2}\10 - 3 Minute Samba.wav

Pre-gap length 0:00:01.26

Peak level 97.7 %
Track quality 100.0 %
Test CRC B08CF147
Copy CRC B08CF147
Cannot be verified as accurate (confidence 9) [7FD24699], AccurateRip returned [EEA615C6]
Copy OK

Track 11

Filename C:\Users\Tiburon\Desktop\Bobby Lyle - The Power Of Touch (1997) {Atlantic 82951-2}\11 - Midnight Creeper.wav

Peak level 100.0 %
Track quality 99.9 %
Test CRC F85D2AA4
Copy CRC F85D2AA4
Cannot be verified as accurate (confidence 8) [00BEBD95], AccurateRip returned [16E3CAB4]
Copy OK

Track 12

Filename C:\Users\Tiburon\Desktop\Bobby Lyle - The Power Of Touch (1997) {Atlantic 82951-2}\12 - Inner Peace.wav

Pre-gap length 0:00:00.53

Peak level 95.5 %
Track quality 100.0 %
Test CRC DB6D4322
Copy CRC DB6D4322
Cannot be verified as accurate (confidence 9) [AF931D05], AccurateRip returned [5E2626E7]
Copy OK


No tracks could be verified as accurate
You may have a different pressing from the one(s) in the database

No errors occurred

End of status report

Bobby Lyle - The Power Of Touch (1997) {Atlantic 82951-2}
Bobby Lyle - The Power Of Touch (1997) {Atlantic 82951-2}