Tags
Language
Tags

Bombino - Azel (2016) {Partisan Records}

Posted By: tiburon
Bombino - Azel (2016) {Partisan Records}

Bombino - Azel (2016) {Partisan Records}
EAC 1.1 | FLAC tracks level 8 | Cue+Log+M3U | Full Scans 600dpi | 381MB + 5% Recovery
MP3 CBR 320 Kbps | 107MB + 5% Recovery
Genre: World Music, African Folk, Afro-Pop

Azel is the second studio album recorded in the West by Tuareg Ifoghas guitarist, singer, and songwriter Bombino (Omara Moctar) and fifth overall. It stands in sharp contrast to 2013's Nomad, produced by Dan Auerbach. The earlier album placed Bombino's signature playing style – directly descended from the Niger master Haja Bebe and informed by Jimi Hendrix and Mark Knopfler – inside a mélange of lap steel guitar, vibes, and a less syncopated rhythmic framework. While the songs and jams were unmistakably Bombino's, the sound and arrangements reflected the producer as much as the artist. Azel was produced by the Dirty Projectors' Dave Longstreth, a hardcore fan. Recorded in a converted barn in Woodstock, New York, this set delivers the full range of Bombino's gifts as composer, singer, and guitarist. The only Longstreth signature is the bright, canny mix. Bombino's double-tracked guitar is framed by a crack rhythm section.
Track List
01. Akhar Zaman (This Moment) 3:52
02. Iwaranagh (We Must) 5:00
03. Inar (If You Know The Degree Of My Love For You) 3:47
04. Tamaditine Tarhanam (My Love, I Tell You) 4:03
05. Timtar (Memories) 4:53
06. Iyat Ninhay / Jaguar (A Great Desert I Saw) 6:07
07. Igmayagh Dum (My Lover) 5:46
08. Ashuhada (Martyrs Of The First Rebellion) 3:24
09. Timidiwa (Friendship) 4:22
10. Naqqim Dagh Timshar (We Are Left In This Abandoned Place) 5:39

musicians
Lead Guitar, Lead Vocals – Omara ‘Bombino’ Moctar
Rhythm Guitar – Avi Salloway (tracks: 1, 6), Omara ‘Bombino’ Moctar* (tracks: 2 to 5, 7 to 10)
Bass – Youba Dia
Drums [Drum Kit], Calabash, Congas, Shaker – Corey Wilhelm
Organ [Hammond Organ] – Dave Longstreth
Djembe – Corey Wilhelm (tracks: 2, 3, 6), Abdoulahi ‘Koutana’ Mohamed Van Loon* (tracks: 1, 4, 5, 7 to 10)
Backing Vocals [Female] – Mama ‘Mahassa’ Walet Amoumene
Backing Vocals [Male] – Abdoulahi ‘Koutana’ Mohamed Van Loon

Produced by David Longstreth


Exact Audio Copy V1.1 from 23. June 2015

EAC extraction logfile from 1. May 2016, 11:53

Bombino / Azel

Used drive : PLEXTOR DVDR PX-L890SA Adapter: 1 ID: 1

Read mode : Secure
Utilize accurate stream : Yes
Defeat audio cache : Yes
Make use of C2 pointers : No

Read offset correction : 6
Overread into Lead-In and Lead-Out : No
Fill up missing offset samples with silence : Yes
Delete leading and trailing silent blocks : No
Null samples used in CRC calculations : Yes
Used interface : Native Win32 interface for Win NT & 2000
Gap handling : Appended to previous track

Used output format : User Defined Encoder
Selected bitrate : 128 kBit/s
Quality : High
Add ID3 tag : No
Command line compressor : C:\Program Files (x86)\Exact Audio Copy\FLAC\FLAC.EXE
Additional command line options : -8 -V -T "ARTIST=%artist%" -T "TITLE=%title%" -T "ALBUM=%albumtitle%" -T "DATE=%year%" -T "TRACKNUMBER=%tracknr%" -T "TOTALTRACKS=%numtracks%" -T "GENRE=%genre%" -T "ALBUMARTIST=%albumartist%" -T "ALBUM ARTIST=%albumartist%" -T "COMMENT=EAC Secure Mode, Test & Copy, AccurateRip, FLAC -8" %source%


TOC of the extracted CD

Track | Start | Length | Start sector | End sector
––––––––––––––––––––––––––––-
1 | 0:00.00 | 3:51.58 | 0 | 17382
2 | 3:51.58 | 4:59.59 | 17383 | 39866
3 | 8:51.42 | 3:46.61 | 39867 | 56877
4 | 12:38.28 | 4:03.32 | 56878 | 75134
5 | 16:41.60 | 4:53.21 | 75135 | 97130
6 | 21:35.06 | 6:07.14 | 97131 | 124669
7 | 27:42.20 | 5:45.57 | 124670 | 150601
8 | 33:28.02 | 3:24.06 | 150602 | 165907
9 | 36:52.08 | 4:21.61 | 165908 | 185543
10 | 41:13.69 | 5:39.21 | 185544 | 210989


Track 1

Filename D:\Flac Rips\01 - Akhar Zaman (This Moment).wav

Pre-gap length 0:00:02.00

Peak level 100.0 %
Extraction speed 3.4 X
Track quality 100.0 %
Test CRC 0FC84D55
Copy CRC 0FC84D55
Accurately ripped (confidence 1) [E235B868] (AR v2)
Copy OK

Track 2

Filename D:\Flac Rips\02 - Iwaranagh (We Must).wav

Peak level 100.0 %
Extraction speed 3.3 X
Track quality 99.9 %
Test CRC 8DE647FD
Copy CRC 8DE647FD
Accurately ripped (confidence 1) [718D3535] (AR v2)
Copy OK

Track 3

Filename D:\Flac Rips\03 - Inar ( If You Know the Degree of My Love for You).wav

Peak level 100.0 %
Extraction speed 4.2 X
Track quality 100.0 %
Test CRC 18306106
Copy CRC 18306106
Accurately ripped (confidence 1) [E89A850C] (AR v2)
Copy OK

Track 4

Filename D:\Flac Rips\04 - Tamiditine Tarhanam (My Love, I Tell You).wav

Peak level 100.0 %
Extraction speed 4.5 X
Track quality 100.0 %
Test CRC 2F0349E2
Copy CRC 2F0349E2
Accurately ripped (confidence 1) [CB2466C7] (AR v2)
Copy OK

Track 5

Filename D:\Flac Rips\05 - Timtar (Memories).wav

Peak level 100.0 %
Extraction speed 4.9 X
Track quality 100.0 %
Test CRC 7B13C9DD
Copy CRC 7B13C9DD
Accurately ripped (confidence 1) [9D4F4A63] (AR v2)
Copy OK

Track 6

Filename D:\Flac Rips\06 - Iyat Ninhay - Jaguar (A Great Desert I Saw).wav

Peak level 100.0 %
Extraction speed 4.6 X
Track quality 99.9 %
Test CRC B681A21E
Copy CRC B681A21E
Accurately ripped (confidence 1) [9BDED8E2] (AR v2)
Copy OK

Track 7

Filename D:\Flac Rips\07 - Igmayagh Dum (My Love).wav

Peak level 100.0 %
Extraction speed 5.7 X
Track quality 100.0 %
Test CRC 0A324B6B
Copy CRC 0A324B6B
Accurately ripped (confidence 1) [5ACEE4A1] (AR v2)
Copy OK

Track 8

Filename D:\Flac Rips\08 - Ashuhada (Martyrs of the First Rebellioni).wav

Peak level 100.0 %
Extraction speed 5.6 X
Track quality 100.0 %
Test CRC A1A82D52
Copy CRC A1A82D52
Accurately ripped (confidence 1) [35D6926C] (AR v2)
Copy OK

Track 9

Filename D:\Flac Rips\09 - Timidiwa (Friendship).wav

Peak level 100.0 %
Extraction speed 6.0 X
Track quality 100.0 %
Test CRC 2939FFC2
Copy CRC 2939FFC2
Accurately ripped (confidence 1) [6F7E1121] (AR v2)
Copy OK

Track 10

Filename D:\Flac Rips\10 - Naqqim Dagh Timshar (We are Left in this Abandoned Place).wav

Peak level 100.0 %
Extraction speed 5.4 X
Track quality 99.9 %
Test CRC 82AAEB36
Copy CRC 82AAEB36
Accurately ripped (confidence 1) [864A4C51] (AR v2)
Copy OK


All tracks accurately ripped

No errors occurred

End of status report

–– CUETools DB Plugin V2.1.6

[CTDB TOCID: MGH3VB_tV5RxFpC86RcXc1QL6DQ-] found
Submit result: MGH3VB_tV5RxFpC86RcXc1QL6DQ- has been confirmed
Track | CTDB Status
1 | (8/8) Accurately ripped
2 | (8/8) Accurately ripped
3 | (8/8) Accurately ripped
4 | (8/8) Accurately ripped
5 | (8/8) Accurately ripped
6 | (8/8) Accurately ripped
7 | (8/8) Accurately ripped
8 | (8/8) Accurately ripped
9 | (8/8) Accurately ripped
10 | (8/8) Accurately ripped


==== Log checksum 97D0F7B9AADBBF863509607A5D2E31BE7E1B420FD625D24A8465A343B76E9D60 ====


––––––––––––––––––––––––––––––––––––––––
Analyzed: Bombino / Azel
––––––––––––––––––––––––––––––––––––––––

DR Peak RMS Duration Track
––––––––––––––––––––––––––––––––––––––––
DR7 0.00 dB -8.06 dB 3:52 01-Akhar Zaman (This Moment)
DR8 0.00 dB -9.21 dB 5:00 02-Iwaranagh (We Must)
DR8 0.00 dB -9.82 dB 3:47 03-Inar ( If You Know the Degree of My Love for You)
DR7 0.00 dB -8.01 dB 4:03 04-Tamiditine Tarhanam (My Love, I Tell You)
DR7 0.00 dB -7.87 dB 4:53 05-Timtar (Memories)
DR6 0.00 dB -7.28 dB 6:07 06-Iyat Ninhay - Jaguar (A Great Desert I Saw)
DR9 0.00 dB -10.53 dB 5:46 07-Igmayagh Dum (My Love)
DR8 0.00 dB -9.23 dB 3:24 08-Ashuhada (Martyrs of the First Rebellioni)
DR7 0.00 dB -7.29 dB 4:22 09-Timidiwa (Friendship)
DR10 0.00 dB -10.57 dB 5:39 10-Naqqim Dagh Timshar (We are Left in this Abandoned Place)
––––––––––––––––––––––––––––––––––––––––

Number of tracks: 10
Official DR value: DR8

Samplerate: 44100 Hz
Channels: 2
Bits per sample: 16
Bitrate: 861 kbps
Codec: FLAC
================================================================================

Bombino - Azel (2016) {Partisan Records}
Bombino - Azel (2016) {Partisan Records}
Bombino - Azel (2016) {Partisan Records}


Thanks to the original ripper