Subcategories

Bon Jovi - Greatest Hits: The Ultimate Collection (2010) 2CD, Japanese SHM-CD

Posted By: Designol
Bon Jovi - Greatest Hits: The Ultimate Collection (2010) 2CD, Japanese SHM-CD

Bon Jovi - Greatest Hits: The Ultimate Collection (2010) 2CD, Japanese SHM-CD
EAC | FLAC | Image (Cue&Log) ~ 1.1 Gb | Mp3 (CBR320) ~ 340 Mb | Scans ~ 139 Mb | 02:28:12
Rock, Hard Rock, Soft Rock, Pop/Rock | Label: Island | # UICL 9095/6

It’s been a long 16 years since Bon Jovi was last compiled, when Cross Road arrived for the holiday season of 1994, two years after Keep the Faith capped off a near-decade long run of dominance for the Jersey rockers. As it turned out, it was the first act of Bon Jovi’s career. A subdued second act followed in the ‘90s, with Jon Bon Jovi flirting with a solo career once again before returning to the fold late in the decade, with the band setting out for a decade of professionalism, sometimes cresting into the charts – usually with the assist of a canny country crossover – sometimes not. Greatest Hits condenses the highlights of this journey in a mere 16 songs, just two longer than Cross Road – its simultaneously released cousin, Ultimate Greatest Hits, adds a disc with 12 additional songs – and two of those are new tunes that are unlikely to show up on any subsequent best of. What’s left is indeed the cream of the crop, albeit presented almost randomly, opening with the twin hits “Livin’ on a Prayer” and “You Give Love a Bad Name” before winding through “It’s My Life,” “Have a Nice Day,” “Wanted Dead or Alive,” “Bad Medicine,” and “Runaway,” finding time for extracurricular detours like Jon's solo “Blaze of Glory” and his duet with Jennifer Nettles, “Who Says You Can’t Go Home.” There are hits missing, but you’d need to consult a chart book to figure out what they were, and if their absence matters, pick up the Ultimate Greatest Hits instead, which has another ten hits, mostly from the ‘90s on (“Keep the Faith,” “Lost Highway,” “Bed of Roses,” “These Days”), plus two additional new songs that will likely not make any subsequent best-of. But what these two collections prove is that less is indeed more: there’s nothing left unsaid on that first disc, no hit that would be missed; it tells everything.

Review by Stephen Thomas Erlewine, Allmusic.com

Bon Jovi - Greatest Hits: The Ultimate Collection (2010) 2CD, Japanese SHM-CD



Tracklist:

CD1:

01. Livin' on a Prayer (4:11)
02. You Give Love a Bad Name (3:43)
03. It's My Life (3:45)
04. Have a Nice Day (3:49)
05. Wanted Dead or Alive (5:08)
06. Bad Medicine (5:17)
07. We Weren't Born to Follow (4:04)
08. I'll Be There for You (5:46)
09. Born to Be My Baby (4:40)
10. Blaze of Glory (5:41)
11. Who Says You Can't Go Home (4:40)
12. Lay Your Hands on Me (3:49)
13. Always (5:54)
14. Runaway (3:52)
15. Tokyo Road (5:42)
16. What Do You Got? (3:47)
17. No Apologies (3:45)

CD2:

01. In These Arms (5:19)
02. Someday I'll Be Saturday Night (4:39)
03. Lost Highway (4:14)
04. I'll Sleep When I'm Dead (4:42)
05. In And Out Of Love (4:26)
06. Keep The Faith (5:43)
07. When We Were Beautiful (5:18)
08. Bed Of Roses (6:34)
09. This Ain't A Love Song (5:06)
10. These Days (6:27)
11. (You Want To) Make A Memory (4:37)
12. Blood On Blood (6:16)
13. This Is Love This Is Life (3:24)
14. The More Things Change (3:53)


Exact Audio Copy V0.99 prebeta 5 from 4. May 2009

EAC extraction logfile from 15. April 2011, 12:57

Bon Jovi / Greatest Hits (UICL-9095) SHM-CD

Used drive : HL-DT-STDVDRAM GSA-H10A Adapter: 3 ID: 0

Read mode : Secure
Utilize accurate stream : Yes
Defeat audio cache : Yes
Make use of C2 pointers : No

Read offset correction : 667
Overread into Lead-In and Lead-Out : No
Fill up missing offset samples with silence : Yes
Delete leading and trailing silent blocks : No
Null samples used in CRC calculations : Yes
Used interface : Native Win32 interface for Win NT & 2000

Used output format : Monkey's Audio Lossless Encoder
Selected bitrate : High Lossless Compression
Quality : High
Add ID3 tag : Yes
Command line compressor : C:\Archivos de programa\Monkey's Audio\MAC.exe


TOC of the extracted CD

Track | Start | Length | Start sector | End sector
––––––––––––––––––––––––––––-
1 | 0:00.00 | 4:10.47 | 0 | 18796
2 | 4:10.47 | 3:43.12 | 18797 | 35533
3 | 7:53.59 | 3:44.44 | 35534 | 52377
4 | 11:38.28 | 3:48.69 | 52378 | 69546
5 | 15:27.22 | 5:08.37 | 69547 | 92683
6 | 20:35.59 | 5:16.44 | 92684 | 116427
7 | 25:52.28 | 4:04.36 | 116428 | 134763
8 | 29:56.64 | 5:46.29 | 134764 | 160742
9 | 35:43.18 | 4:40.09 | 160743 | 181751
10 | 40:23.27 | 5:40.41 | 181752 | 207292
11 | 46:03.68 | 4:40.24 | 207293 | 228316
12 | 50:44.17 | 3:49.22 | 228317 | 245513
13 | 54:33.39 | 5:53.43 | 245514 | 272031
14 | 60:27.07 | 3:51.55 | 272032 | 289411
15 | 64:18.62 | 5:41.70 | 289412 | 315056
16 | 70:00.57 | 3:47.20 | 315057 | 332101
17 | 73:48.02 | 3:44.64 | 332102 | 348965


Range status and errors

Selected range

Filename D:\Mъsica\EAC\Bon Jovi\Bon Jovi - Greatest Hits (UICL-9095) SHM-CD.wav

Peak level 100.0 %
Range quality 99.9 %
Copy CRC F247D212
Copy OK

No errors occurred


AccurateRip summary

Track 1 accurately ripped (confidence 5) [303C7C1F]
Track 2 accurately ripped (confidence 5) [380C295B]
Track 3 accurately ripped (confidence 5) [5473BD7A]
Track 4 accurately ripped (confidence 5) [2CEFDCF9]
Track 5 accurately ripped (confidence 5) [530FF2B6]
Track 6 accurately ripped (confidence 5) [888D15A4]
Track 7 accurately ripped (confidence 5) [B56AE6D7]
Track 8 accurately ripped (confidence 5) [1AFFCB90]
Track 9 accurately ripped (confidence 5) [7C7CEAE2]
Track 10 accurately ripped (confidence 5) [3CE2CEB2]
Track 11 accurately ripped (confidence 5) [29DE421A]
Track 12 accurately ripped (confidence 5) [B78B9246]
Track 13 accurately ripped (confidence 5) [749829E6]
Track 14 accurately ripped (confidence 5) [3FB96C1A]
Track 15 accurately ripped (confidence 5) [48EF2AB6]
Track 16 accurately ripped (confidence 5) [C3C9BCDB]
Track 17 accurately ripped (confidence 5) [0E0680BC]

All tracks accurately ripped

End of status report

[CUETools log; Date: 19.06.2018 0:38:36; Version: 2.1.4]
[CTDB TOCID: EU9447TuHVFUWCD3QrFoPYjAdhQ-] found.
Track | CTDB Status
1 | (168/170) Accurately ripped
2 | (170/170) Accurately ripped
3 | (169/170) Accurately ripped
4 | (170/170) Accurately ripped
5 | (170/170) Accurately ripped
6 | (170/170) Accurately ripped
7 | (170/170) Accurately ripped
8 | (168/170) Accurately ripped
9 | (170/170) Accurately ripped
10 | (170/170) Accurately ripped
11 | (170/170) Accurately ripped
12 | (170/170) Accurately ripped
13 | (170/170) Accurately ripped
14 | (169/170) Accurately ripped
15 | (167/170) Accurately ripped
16 | (165/170) Accurately ripped
17 | (156/170) Accurately ripped, or (2/170) differs in 2 samples @03:44:47, or (6/170) differs in 5 samples @03:44:47, or (2/170) differs in 50 samples @03:44:47
[AccurateRip ID: 002f5288-025e72ea-ee122c11] found.
Track [ CRC | V2 ] Status
01 [303c7c1f|a66e11ea] (12+52/64) Accurately ripped
02 [380c295b|2e4ce60d] (13+53/66) Accurately ripped
03 [5473bd7a|70d0f29a] (13+52/65) Accurately ripped
04 [2cefdcf9|67f2aa95] (13+52/65) Accurately ripped
05 [530ff2b6|f4959bd2] (13+53/66) Accurately ripped
06 [888d15a4|79fe5f59] (13+54/67) Accurately ripped
07 [b56ae6d7|0e31e8a7] (13+52/65) Accurately ripped
08 [1affcb90|85b366d4] (13+53/66) Accurately ripped
09 [7c7ceae2|12be446b] (13+52/65) Accurately ripped
10 [3ce2ceb2|ad751d05] (12+52/64) Accurately ripped
11 [29de421a|1960d71a] (13+52/65) Accurately ripped
12 [b78b9246|c56a3141] (13+52/65) Accurately ripped
13 [749829e6|20b1fcb6] (13+53/66) Accurately ripped
14 [3fb96c1a|3d5a1ff5] (13+54/67) Accurately ripped
15 [48ef2ab6|9a8919ad] (13+52/65) Accurately ripped
16 [c3c9bcdb|2d671b45] (13+52/65) Accurately ripped
17 [0e0680bc|19a6a421] (13+50/63) Accurately ripped

Track Peak [ CRC32 ] [W/O NULL] [ LOG ]
– 100,0 [F247D212] [48BCCA2A] CRC32
01 97,0 [73638C8A] [3939772D]
02 97,0 [F06BDC10] [B1CDB4DD]
03 100,0 [8D75B082] [3F527C43]
04 97,0 [7898714C] [A8B1C53D]
05 97,0 [A3444240] [34B3958C]
06 97,0 [44D3B3D6] [208B12C1]
07 94,3 [FA6FD6E9] [E85301C8]
08 97,0 [46B1749B] [2BCA54F6]
09 97,0 [E0C12271] [533E738A]
10 100,0 [169CEE34] [4FFD9DE6]
11 92,0 [000C758C] [58F4EAB5]
12 100,0 [7C02DD05] [8DB0DABB]
13 99,8 [3ECCA4E6] [D5BA416E]
14 97,0 [5BABC7E1] [E03A62A4]
15 97,0 [739D9C90] [528A501A]
16 99,9 [B9AA764E] [4B52E696]
17 96,5 [37F1481D] [1EE7D31A]

foobar2000 1.2 / Dynamic Range Meter 1.1.1
log date: 2018-06-18 23:51:49

––––––––––––––––––––––––––––––––––––––––
Analyzed: Bon Jovi / Greatest Hits (UICL-9095) SHM-CD
––––––––––––––––––––––––––––––––––––––––

DR Peak RMS Duration Track
––––––––––––––––––––––––––––––––––––––––
DR6 -0.26 dB -8.05 dB 4:11 01-Livin' on a Prayer
DR6 -0.26 dB -7.47 dB 3:43 02-You Give Love a Bad Name
DR5 0.00 dB -6.86 dB 3:45 03-It's My Life
DR6 -0.26 dB -7.03 dB 3:49 04-Have a Nice Day
DR6 -0.26 dB -8.66 dB 5:08 05-Wanted Dead or Alive
DR6 -0.26 dB -7.02 dB 5:17 06-Bad Medicine
DR6 -0.51 dB -7.52 dB 4:04 07-We Weren't Born to Follow
DR7 -0.26 dB -8.34 dB 5:46 08-I'll Be There for You
DR6 -0.26 dB -7.24 dB 4:40 09-Born to Be My Baby
DR6 0.00 dB -9.10 dB 5:41 10-Blaze of Glory
DR6 -0.72 dB -8.15 dB 4:40 11-Who Says You Can't Go Home
DR7 0.00 dB -8.20 dB 3:49 12-Lay Your Hands on Me
DR7 -0.01 dB -9.57 dB 5:54 13-Always
DR6 -0.26 dB -7.26 dB 3:52 14-Runaway
DR6 -0.26 dB -8.85 dB 5:42 15-Tokyo Road
DR7 -0.01 dB -8.68 dB 3:47 16-What Do You Got?
DR6 -0.31 dB -8.37 dB 3:45 17-No Apologies
––––––––––––––––––––––––––––––––––––––––

Number of tracks: 17
Official DR value: DR6

Samplerate: 44100 Hz
Channels: 2
Bits per sample: 16
Bitrate: 1040 kbps
Codec: FLAC
================================================================================


Exact Audio Copy V0.99 prebeta 5 from 4. May 2009

EAC extraction logfile from 13. April 2011, 23:39

Bon Jovi / Greatest Hits (UICL-9096) SHM-CD

Used drive : HL-DT-STDVDRAM GSA-H10A Adapter: 3 ID: 0

Read mode : Secure
Utilize accurate stream : Yes
Defeat audio cache : Yes
Make use of C2 pointers : No

Read offset correction : 667
Overread into Lead-In and Lead-Out : No
Fill up missing offset samples with silence : Yes
Delete leading and trailing silent blocks : No
Null samples used in CRC calculations : Yes
Used interface : Native Win32 interface for Win NT & 2000

Used output format : Monkey's Audio Lossless Encoder
Selected bitrate : High Lossless Compression
Quality : High
Add ID3 tag : Yes
Command line compressor : C:\Archivos de programa\Monkey's Audio\MAC.exe


TOC of the extracted CD

Track | Start | Length | Start sector | End sector
––––––––––––––––––––––––––––-
1 | 0:00.00 | 5:19.10 | 0 | 23934
2 | 5:19.10 | 4:38.57 | 23935 | 44841
3 | 9:57.67 | 4:13.53 | 44842 | 63869
4 | 14:11.45 | 4:41.40 | 63870 | 84984
5 | 18:53.10 | 4:26.11 | 84985 | 104945
6 | 23:19.21 | 5:43.37 | 104946 | 130707
7 | 29:02.58 | 5:18.21 | 130708 | 154578
8 | 34:21.04 | 6:34.01 | 154579 | 184129
9 | 40:55.05 | 5:05.53 | 184130 | 207057
10 | 46:00.58 | 6:27.20 | 207058 | 236102
11 | 52:28.03 | 4:37.32 | 236103 | 256909
12 | 57:05.35 | 6:16.10 | 256910 | 285119
13 | 63:21.45 | 3:24.37 | 285120 | 300456
14 | 66:46.07 | 3:53.27 | 300457 | 317958


Range status and errors

Selected range

Filename D:\Mъsica\EAC\Bon Jovi\Bon Jovi - Greatest Hits (UICL-9096) SHM-CD.wav

Peak level 100.0 %
Range quality 100.0 %
Copy CRC 024239E2
Copy OK

No errors occurred


AccurateRip summary

Track 1 accurately ripped (confidence 4) [62211CB8]
Track 2 accurately ripped (confidence 4) [5CB4E3E1]
Track 3 accurately ripped (confidence 4) [1EC638AC]
Track 4 accurately ripped (confidence 4) [E3B9EBC7]
Track 5 accurately ripped (confidence 4) [30394E74]
Track 6 accurately ripped (confidence 4) [02F9B9C5]
Track 7 accurately ripped (confidence 4) [CC168523]
Track 8 accurately ripped (confidence 4) [198A8851]
Track 9 accurately ripped (confidence 4) [8F453C38]
Track 10 accurately ripped (confidence 4) [8DB7ACA9]
Track 11 accurately ripped (confidence 4) [BF9DC9BA]
Track 12 accurately ripped (confidence 4) [0F12BC35]
Track 13 accurately ripped (confidence 4) [9A7AF10E]
Track 14 accurately ripped (confidence 4) [CAA15282]

All tracks accurately ripped

End of status report

[CUETools log; Date: 19.06.2018 0:39:01; Version: 2.1.4]
[CTDB TOCID: Jcl.YerfVRtV7wNnn4mfHTvysIk-] found.
Track | CTDB Status
1 | (127/128) Accurately ripped
2 | (127/128) Accurately ripped
3 | (127/128) Accurately ripped
4 | (128/128) Accurately ripped
5 | (128/128) Accurately ripped
6 | (127/128) Accurately ripped
7 | (128/128) Accurately ripped
8 | (128/128) Accurately ripped
9 | (128/128) Accurately ripped
10 | (128/128) Accurately ripped
11 | (126/128) Accurately ripped
12 | (128/128) Accurately ripped
13 | (127/128) Accurately ripped
14 | (122/128) Accurately ripped
[AccurateRip ID: 00248dd2-0188ac44-b0108f0e] found.
Track [ CRC | V2 ] Status
01 [62211cb8|70f4fe68] (12+37/49) Accurately ripped
02 [5cb4e3e1|add7992d] (12+38/50) Accurately ripped
03 [1ec638ac|7a56c908] (12+38/50) Accurately ripped
04 [e3b9ebc7|1a75d27d] (12+38/50) Accurately ripped
05 [30394e74|9874529a] (12+38/50) Accurately ripped
06 [02f9b9c5|6c8abd21] (12+38/50) Accurately ripped
07 [cc168523|3f06e3c7] (12+38/50) Accurately ripped
08 [198a8851|78f7e98c] (12+38/50) Accurately ripped
09 [8f453c38|e9101ffe] (12+38/50) Accurately ripped
10 [8db7aca9|46e27f01] (12+38/50) Accurately ripped
11 [bf9dc9ba|316ef31e] (12+37/49) Accurately ripped
12 [0f12bc35|67f26804] (12+37/49) Accurately ripped
13 [9a7af10e|11129b17] (12+38/50) Accurately ripped
14 [caa15282|4ab8ae6a] (12+36/48) Accurately ripped

Track Peak [ CRC32 ] [W/O NULL] [ LOG ]
– 100,0 [024239E2] [10CB9072] CRC32
01 97,0 [5F1178EA] [E32F8122]
02 100,0 [B2ADFB3F] [6E6834FE]
03 97,0 [03094840] [CCB7B894]
04 97,0 [92430134] [4714E827]
05 97,0 [A39880B8] [E5CB72A2]
06 97,0 [38B72DA9] [C317B402]
07 99,9 [4760566D] [F9657FAB]
08 97,0 [9CEFBF94] [B03012EC]
09 97,0 [B70ACF62] [97B96D4C]
10 97,0 [F74A5489] [A1139ED6]
11 97,0 [2BFCDE34] [6BF1738D]
12 97,0 [BC8618AB] [2EA59C6C]
13 95,4 [A701BB8C] [9732AC7A]
14 99,9 [A543B405] [EA1D98ED]

foobar2000 1.2 / Dynamic Range Meter 1.1.1
log date: 2018-06-18 23:52:18

––––––––––––––––––––––––––––––––––––––––
Analyzed: Bon Jovi / Greatest Hits (UICL-9096) SHM-CD
––––––––––––––––––––––––––––––––––––––––

DR Peak RMS Duration Track
––––––––––––––––––––––––––––––––––––––––
DR7 -0.26 dB -8.29 dB 5:19 01-In These Arms
DR7 0.00 dB -8.70 dB 4:39 02-Someday I'll Be Saturday Night
DR6 -0.26 dB -7.57 dB 4:14 03-Lost Highway
DR7 -0.26 dB -8.53 dB 4:42 04-I'll Sleep When I'm Dead
DR6 -0.26 dB -7.64 dB 4:26 05-In And Out Of Love
DR6 -0.26 dB -8.25 dB 5:43 06-Keep The Faith
DR6 -0.01 dB -8.25 dB 5:18 07-When We Were Beautiful
DR7 -0.26 dB -9.66 dB 6:34 08-Bed Of Roses
DR7 -0.26 dB -10.02 dB 5:06 09-This Ain't A Love Song
DR7 -0.26 dB -9.95 dB 6:27 10-These Days
DR6 -0.26 dB -8.54 dB 4:37 11-(You Want To) Make A Memory
DR6 -0.26 dB -7.54 dB 6:16 12-Blood On Blood
DR6 -0.41 dB -7.36 dB 3:24 13-This Is Love This Is Life
DR7 -0.01 dB -7.53 dB 3:53 14-The More Things Change
––––––––––––––––––––––––––––––––––––––––

Number of tracks: 14
Official DR value: DR6

Samplerate: 44100 Hz
Channels: 2
Bits per sample: 16
Bitrate: 994 kbps
Codec: FLAC
================================================================================

Bon Jovi - Greatest Hits: The Ultimate Collection (2010) 2CD, Japanese SHM-CD

Bon Jovi - Greatest Hits: The Ultimate Collection (2010) 2CD, Japanese SHM-CD