Subcategories

Bonnie Raitt - Give It Up (1972)

Posted By: Designol
Bonnie Raitt - Give It Up (1972)

Bonnie Raitt - Give It Up (1972)
EAC | FLAC | Tracks (Cue&Log) ~ 223 Mb | Mp3 (CBR320) ~ 87 Mb | Artwork included
Blues-Rock, Blues, Classic Rock | Label: Warner Bros. | # 2643-2 | 00:36:55

Bonnie Raitt may have switched producers for her second album Give It Up, hiring Michael Cuscuna, but she hasn't switched her style, sticking with the thoroughly engaging blend of folk, blues, R&B, and Californian soft rock. If anything, she's strengthened her formula here, making the divisions between the genres nearly indistinguishable. Take the title track, for instance. It opens with a bluesy acoustic guitar before kicking into a New Orleans brass band about halfway through – and the great thing about it is that Raitt makes the switch sound natural, even inevitable, never forced. And that's just the tip of the iceberg here, since Give It Up is filled with great songs, delivered in familiar, yet always surprising, ways by Raitt and her skilled band. For those that want to pigeonhole her as a white blues singer, she delivers the lovely "Nothing Seems to Matter," a gentle mid-tempo number that's as mellow as Linda Ronstadt and far more seductive. That's the key to Give It Up: Yes, Raitt can be earthy and sexy, but she balances it with an inviting sensuality that makes the record glow. It's all delivered in a fantastic set of originals and covers performed so naturally it's hard to tell them apart and roots music so thoroughly fused that it all sounds original, even when it's possible to spot the individual elements or influences. Raitt would go on to greater chart successes, but she not only had trouble topping this record, generations of singers, from Sheryl Crow to Shelby Lynne, have used this as a touchstone. One of the great Southern California records.

Review by Stephen Thomas Erlewine, Allmusic.com

Raitt's laid-back style (shades of John Hurt and John Hammond, touches of Aretha Franklin and Bessie Smith) is unique in its active maturity, intelligence, and warmth. With Chris Smither's "Love Me Like a Man" ("lyrics adapted by Bonnie Raitt") and Sippie Wallace's "You Got to Know How" she dares any crotch-rocker to match her sexual expertise. On Joel Zoss's "Stayed Too Long at the Fair" and Jackson Browne's "Under the Falling Sky" she dares any sensitive type to wax lyrical without a drum kit. And on her own "You Told Me Baby" and "Nothing Seems to Matter" she invites Lenny Welch to return the favor.

Review by Robert Christgau (A)

Bonnie Raitt - Give It Up (1972)



Tracklist:

01. Give It Up Or Let Me Go (4:31)
02. Nothing Seems To Matter (4:05)
03. I Know (3:48)
04. If You Gotta Make A Fool Of Somebody (3:01)
05. Love Me Like A Man (3:12)
06. Too Long At The Fair (2:59)
07. Under The Falling Sky (3:45)
08. You Got To Know How (3:36)
09. You Told Me Baby (4:12)
10. Love Has No Pride (3:46)


Exact Audio Copy V1.0 beta 3 from 29. August 2011

EAC extraction logfile from 11. August 2012, 20:35

Bonnie Raitt / Give It Up

Used drive : TSSTcorpCDDVDW SH-222BB Adapter: 0 ID: 1

Read mode : Secure
Utilize accurate stream : Yes
Defeat audio cache : Yes
Make use of C2 pointers : No

Read offset correction : 6
Overread into Lead-In and Lead-Out : No
Fill up missing offset samples with silence : Yes
Delete leading and trailing silent blocks : No
Null samples used in CRC calculations : Yes
Used interface : Native Win32 interface for Win NT & 2000
Gap handling : Appended to previous track

Used output format : User Defined Encoder
Selected bitrate : 1024 kBit/s
Quality : High
Add ID3 tag : No
Command line compressor : C:\Program Files (x86)\Exact Audio Copy\Flac\flac.exe
Additional command line options : -8 -V -T "ARTIST=%artist%" -T "TITLE=%title%" -T "ALBUM=%albumtitle%" -T "DATE=%year%" -T "TRACKNUMBER=%tracknr%" -T "GENRE=%genre%" -T "PERFORMER=%albuminterpret%" -T "COMPOSER=%composer%" %haslyrics%–tag-from-file=LYRICS="%lyricsfile%"%haslyrics% -T "ALBUMARTIST=%albumartist%" -T "DISCNUMBER=%cdnumber%" -T "TOTALDISCS=%totalcds%" -T "TOTALTRACKS=%numtracks%" -T "COMMENT=%comment%" %source% -o %dest%


TOC of the extracted CD

Track | Start | Length | Start sector | End sector
––––––––––––––––––––––––––––-
1 | 0:00.33 | 4:30.42 | 33 | 20324
2 | 4:31.00 | 4:05.05 | 20325 | 38704
3 | 8:36.05 | 3:48.00 | 38705 | 55804
4 | 12:24.05 | 3:00.53 | 55805 | 69357
5 | 15:24.58 | 3:12.00 | 69358 | 83757
6 | 18:36.58 | 2:58.50 | 83758 | 97157
7 | 21:35.33 | 3:45.37 | 97158 | 114069
8 | 25:20.70 | 3:36.30 | 114070 | 130299
9 | 28:57.25 | 4:12.18 | 130300 | 149217
10 | 33:09.43 | 3:46.25 | 149218 | 166192


Track 1

Filename Z:\EAC\FLAC\01 Give It Up Or Let Me Go.wav

Pre-gap length 0:00:02.44

Peak level 77.2 %
Extraction speed 1.6 X
Track quality 99.9 %
Test CRC 7537AB48
Copy CRC 7537AB48
Accurately ripped (confidence 13) [8780F93B] (AR v1)
Copy OK

Track 2

Filename Z:\EAC\FLAC\02 Nothing Seems To Matter.wav

Pre-gap length 0:00:03.49

Peak level 64.8 %
Extraction speed 1.9 X
Track quality 100.0 %
Test CRC 8D4FE06F
Copy CRC 8D4FE06F
Accurately ripped (confidence 14) [AB11E6BA] (AR v1)
Copy OK

Track 3

Filename Z:\EAC\FLAC\03 I Know.wav

Pre-gap length 0:00:01.82

Peak level 97.2 %
Extraction speed 2.1 X
Track quality 100.0 %
Test CRC 3B30B2D0
Copy CRC 3B30B2D0
Accurately ripped (confidence 14) [9E98DD26] (AR v1)
Copy OK

Track 4

Filename Z:\EAC\FLAC\04 If You Gotta Make A Fool Of Somebody.wav

Pre-gap length 0:00:02.89

Peak level 72.6 %
Extraction speed 2.1 X
Track quality 100.0 %
Test CRC 58FCC182
Copy CRC 58FCC182
Accurately ripped (confidence 14) [4753FB46] (AR v1)
Copy OK

Track 5

Filename Z:\EAC\FLAC\05 Love Me Like A Man.wav

Pre-gap length 0:00:03.37

Peak level 100.0 %
Extraction speed 2.3 X
Track quality 100.0 %
Test CRC 5E9B1A9A
Copy CRC 5E9B1A9A
Accurately ripped (confidence 14) [47ECF7BC] (AR v1)
Copy OK

Track 6

Filename Z:\EAC\FLAC\06 Too Long At The Fair.wav

Pre-gap length 0:00:01.97

Peak level 85.3 %
Extraction speed 2.4 X
Track quality 100.0 %
Test CRC 76125B29
Copy CRC 76125B29
Accurately ripped (confidence 14) [5CF9A04E] (AR v1)
Copy OK

Track 7

Filename Z:\EAC\FLAC\07 Under The Falling Sky.wav

Pre-gap length 0:00:02.30

Peak level 88.5 %
Extraction speed 2.6 X
Track quality 100.0 %
Test CRC 992A87BB
Copy CRC 992A87BB
Accurately ripped (confidence 13) [8B73531B] (AR v1)
Copy OK

Track 8

Filename Z:\EAC\FLAC\08 You Got To Know How.wav

Pre-gap length 0:00:04.36

Peak level 68.0 %
Extraction speed 2.6 X
Track quality 100.0 %
Test CRC 5E0A2788
Copy CRC 5E0A2788
Accurately ripped (confidence 14) [5C46ECE1] (AR v1)
Copy OK

Track 9

Filename Z:\EAC\FLAC\09 You Told Me Baby.wav

Pre-gap length 0:00:02.22

Peak level 100.0 %
Extraction speed 2.8 X
Track quality 100.0 %
Test CRC FFE7236E
Copy CRC FFE7236E
Accurately ripped (confidence 12) [7F3B8843] (AR v1)
Copy OK

Track 10

Filename Z:\EAC\FLAC\10 Love Has No Pride.wav

Pre-gap length 0:00:04.06

Peak level 52.2 %
Extraction speed 2.9 X
Track quality 100.0 %
Test CRC D1B8F99E
Copy CRC D1B8F99E
Accurately ripped (confidence 13) [7825242D] (AR v1)
Copy OK


All tracks accurately ripped

No errors occurred

End of status report

==== Log checksum A3C159EBB811A4224B84AFF9A6C165AE74695BE582F119492B5A8E626D3808A0 ====

[CUETools log; Date: 11.10.2017 0:58:23; Version: 2.1.4]
Pregap length 00:00:33.
[CTDB TOCID: 7TAxvdhRgazBTVikSkjOneb8f7w-] found.
Track | CTDB Status
1 | (21/24) Accurately ripped
2 | (23/24) Accurately ripped
3 | (24/24) Accurately ripped
4 | (22/24) Accurately ripped
5 | (22/24) Accurately ripped
6 | (21/24) Accurately ripped
7 | (21/24) Accurately ripped
8 | (22/24) Accurately ripped
9 | (22/24) Accurately ripped
10 | (20/24) Accurately ripped
[AccurateRip ID: 000e1cfb-006f9e51-8e08a70a] found.
Track [ CRC | V2 ] Status
01 [8780f93b|ec1eea83] (14+25/73) Accurately ripped
02 [ab11e6ba|9d2fe442] (15+25/74) Accurately ripped
03 [9e98dd26|f21e48a8] (15+26/76) Accurately ripped
04 [4753fb46|a93c9980] (15+26/75) Accurately ripped
05 [47ecf7bc|4387988b] (15+26/74) Accurately ripped
06 [5cf9a04e|1be05c01] (15+26/76) Accurately ripped
07 [8b73531b|f28c9038] (14+26/74) Accurately ripped
08 [5c46ece1|11564b00] (15+26/75) Accurately ripped
09 [7f3b8843|c23892d3] (13+26/73) Accurately ripped
10 [7825242d|2daa5809] (14+25/73) Accurately ripped
Offsetted by 151:
01 [97b322be] (08/73) Accurately ripped
02 [fd942db5] (08/74) Accurately ripped
03 [c0e382b8] (08/76) Accurately ripped
04 [7c2bc2d1] (08/75) Accurately ripped
05 [61262601] (08/74) Accurately ripped
06 [049b7962] (08/76) Accurately ripped
07 [3b04e0b8] (08/74) Accurately ripped
08 [1654abea] (08/75) Accurately ripped
09 [a6e8fbd2] (08/73) Accurately ripped
10 [a58ab685] (08/73) Accurately ripped
Offsetted by 1646:
01 [4fc91281] (08/73) Accurately ripped
02 [cdd5f4f0] (08/74) Accurately ripped
03 [349c2dca] (08/76) Accurately ripped
04 [7e7549f7] (07/75) Accurately ripped
05 [eb5d527f] (07/74) Accurately ripped
06 [3744b025] (08/76) Accurately ripped
07 [54d873c6] (08/74) Accurately ripped
08 [bd5d9db3] (08/75) Accurately ripped
09 [1875a649] (08/73) Accurately ripped
10 [768dbeed] (08/73) Accurately ripped
Offsetted by 2178:
01 [c7933ba5] (00/73) No match (V2 was not tested)
02 [ba4717b4] (00/74) No match (V2 was not tested)
03 [14d7baa2] (00/76) No match (V2 was not tested)
04 [04637f69] (00/75) No match (V2 was not tested)
05 [c7e20e15] (00/74) No match (V2 was not tested)
06 [fc3b2714] (00/76) No match (V2 was not tested)
07 [40cc2a03] (00/74) No match (V2 was not tested)
08 [4b2bb71f] (00/75) No match (V2 was not tested)
09 [e7c84929] (00/73) No match (V2 was not tested)
10 [1409db81] (00/73) No match (V2 was not tested)

Track Peak [ CRC32 ] [W/O NULL] [ LOG ]
– 100,0 [F1F211C4] [F56867BA]
01 77,2 [7537AB48] [1C05F314] CRC32
02 64,8 [8D4FE06F] [AC03A420] CRC32
03 97,2 [3B30B2D0] [570FA0A0] CRC32
04 72,6 [58FCC182] [5735DEF0] CRC32
05 100,0 [5E9B1A9A] [6F9B7497] CRC32
06 85,3 [76125B29] [B27DE8C9] CRC32
07 88,5 [992A87BB] [441027C9] CRC32
08 68,0 [5E0A2788] [282C97B2] CRC32
09 100,0 [FFE7236E] [DB2DD3EE] CRC32
10 52,2 [D1B8F99E] [3CDE2275] CRC32

foobar2000 1.2 / Dynamic Range Meter 1.1.1
log date: 2017-10-11 00:58:54

––––––––––––––––––––––––––––––––––––––––
Analyzed: Bonnie Raitt / Give It Up
––––––––––––––––––––––––––––––––––––––––

DR Peak RMS Duration Track
––––––––––––––––––––––––––––––––––––––––
DR12 -2.25 dB -16.27 dB 4:31 01-Give It Up Or Let Me Go
DR11 -3.76 dB -17.22 dB 4:05 02-Nothing Seems To Matter
DR13 -0.25 dB -15.08 dB 3:48 03-I Know
DR11 -2.78 dB -16.76 dB 3:01 04-If You Gotta Make A Fool Of Somebody
DR14 0.00 dB -15.49 dB 3:12 05-Love Me Like A Man
DR11 -1.38 dB -17.60 dB 2:59 06-Too Long At The Fair
DR12 -1.06 dB -15.47 dB 3:45 07-Under The Falling Sky
DR11 -3.35 dB -16.21 dB 3:36 08-You Got To Know How
DR14 0.00 dB -15.19 dB 4:12 09-You Told Me Baby
DR11 -5.63 dB -19.07 dB 3:46 10-Love Has No Pride
––––––––––––––––––––––––––––––––––––––––

Number of tracks: 10
Official DR value: DR12

Samplerate: 44100 Hz
Channels: 2
Bits per sample: 16
Bitrate: 790 kbps
Codec: FLAC
================================================================================

Bonnie Raitt - Give It Up (1972)