Tags
Language
Tags

Bonobo - Black Sands (2010)

Posted By: gribovar
Bonobo - Black Sands (2010)

Bonobo - Black Sands (2010)
EAC Rip | FLAC (tracks+.cue+log) - 350 MB | MP3 CBR 320 kbps (LAME 3.93) - 132 MB | Covers - 62 MB
Genre: Electronic, Trip-Hop, Downtempo | RAR 3% Rec. | Label: Ninja Tune (ZENCD140)

Laid-back London groove maestro Simon Green (alias Bonobo) returns after a considerable absence (on the recording front, at least) with this fourth full-length helping of his masterfully mellow monkey magic. While it's not terribly divergent from the future-jazz cut-ups that made his earlier efforts such an instinctively natural fit with the turn-of-the-century Ninja Tune stable, Black Sands evidences a clear evolution into a more distinctive, sophisticated, and complex style, resulting in his most musically adventurous work to date, and certainly his most modern-sounding. Green's clearly been keeping his ear to the ground for a bit of rhythmic reinvigoration: the immediately striking "Kiara" reworks the hauntingly elegant string refrain that opens the album with submerged vocal splices and a halting, head-nodding left-field hip-hop beat á la relative Ninja Tune newcomer Flying Lotus, while cuts like the "Eyesdown" and "All in Forms" shade subtly toward the dubstep diaspora. Elsewhere, "We Could Forever" is a funky Afro-Latin workout riding an infectiously crisp guitar riff, and the scruffy, swing-inflected breakbeats that dominated Bonobo's earlier output crop up again on "Kong" and "El Toro." But while the grooves here serve quite nicely (and keep things consistently varied), it's the lush layers of unmistakably live instrumentation laid on top - most of it played by Green himself - that make the album really soar. That's especially true on the two closing cuts, both stretching toward seven minutes, which eschew electronics almost entirely and feel more than anything like dense, moody, compositionally intricate modern jazz. At the other end of Black Sands' polychromatic though tonally consistent spectrum are a clutch of cuts featuring the rather blandly breezy vocals of Andreya Triana - silky smooth electro-samba ("Wonder When") and neo-soul ("The Keeper") that make for more than passable mood fodder but can't quite match the musical inventiveness displayed elsewhere (though Green does weave her vocals quite deftly among the clustered woodwinds and sparse stutter-step of "Eyesdown.") For a style of electronica (chillout/downtempo) that's grown decidedly dusty over the past decade - even though Bonobo is clearly striving to move well beyond such staid genre divisions, and in many ways succeeding, that's probably still the best place to slot him if you gotta - Black Sands is a welcome infusion of life and warmth.
Tracklist:
01. Prelude
02. Kiara
03. Kong
04. Eyesdown (feat. Andreya Triana)
05. El Toro
06. We Could Forever
07. 1009
08. All In Forms
09. The Keeper (feat. Andreya Triana)
10. Stay The Same (feat. Andreya Triana)
11. Animals
12. Black Sands

Total time: 55:06

Exact Audio Copy V1.3 from 2. September 2016

EAC extraction logfile from 15. December 2016, 22:05

Bonobo / Black Sands

Used drive : ATAPI iHAS124 B Adapter: 1 ID: 0

Read mode : Secure
Utilize accurate stream : Yes
Defeat audio cache : Yes
Make use of C2 pointers : No

Read offset correction : 6
Overread into Lead-In and Lead-Out : No
Fill up missing offset samples with silence : Yes
Delete leading and trailing silent blocks : No
Null samples used in CRC calculations : Yes
Used interface : Native Win32 interface for Win NT & 2000
Gap handling : Appended to previous track

Used output format : User Defined Encoder
Selected bitrate : 1024 kBit/s
Quality : High
Add ID3 tag : No
Command line compressor : C:\Program Files (x86)\Exact Audio Copy\Flac\flac.exe
Additional command line options : -8 -V -T "ARTIST=%artist%" -T "TITLE=%title%" -T "ALBUM=%albumtitle%" -T "DATE=%year%" -T "TRACKNUMBER=%tracknr%" -T "GENRE=%genre%" -T "PERFORMER=%albuminterpret%" -T "COMPOSER=%composer%" %haslyrics%–tag-from-file=LYRICS="%lyricsfile%"%haslyrics% -T "ALBUMARTIST=%albumartist%" -T "DISCNUMBER=%cdnumber%" -T "TOTALDISCS=%totalcds%" -T "TOTALTRACKS=%numtracks%" -T "COMMENT=%comment%" %source% -o %dest%


TOC of the extracted CD

Track | Start | Length | Start sector | End sector
––––––––––––––––––––––––––––-
1 | 0:00.00 | 1:18.20 | 0 | 5869
2 | 1:18.20 | 3:50.23 | 5870 | 23142
3 | 5:08.43 | 3:57.62 | 23143 | 40979
4 | 9:06.30 | 5:26.18 | 40980 | 65447
5 | 14:32.48 | 3:44.22 | 65448 | 82269
6 | 18:16.70 | 4:19.63 | 82270 | 101757
7 | 22:36.58 | 4:30.32 | 101758 | 122039
8 | 27:07.15 | 4:51.55 | 122040 | 143919
9 | 31:58.70 | 4:48.70 | 143920 | 165589
10 | 36:47.65 | 4:44.60 | 165590 | 186949
11 | 41:32.50 | 6:45.03 | 186950 | 217327
12 | 48:17.53 | 6:48.72 | 217328 | 247999


Track 1

Filename G:\Rips\Bonobo - (2010) Black Sands [FLAC]\01 - Prelude.wav

Pre-gap length 0:00:02.00

Peak level 98.0 %
Extraction speed 2.8 X
Track quality 100.0 %
Test CRC FFD07F66
Copy CRC FFD07F66
Accurately ripped (confidence 140) [60AD9431] (AR v2)
Copy OK

Track 2

Filename G:\Rips\Bonobo - (2010) Black Sands [FLAC]\02 - Kiara.wav

Peak level 98.0 %
Extraction speed 3.9 X
Track quality 100.0 %
Test CRC 842A8F0A
Copy CRC 842A8F0A
Accurately ripped (confidence 139) [2F5C0380] (AR v2)
Copy OK

Track 3

Filename G:\Rips\Bonobo - (2010) Black Sands [FLAC]\03 - Kong.wav

Peak level 98.0 %
Extraction speed 4.2 X
Track quality 100.0 %
Test CRC 9AB0DE07
Copy CRC 9AB0DE07
Accurately ripped (confidence 139) [A9DBFA8D] (AR v2)
Copy OK

Track 4

Filename G:\Rips\Bonobo - (2010) Black Sands [FLAC]\04 - Eyesdown.wav

Peak level 98.0 %
Extraction speed 4.7 X
Track quality 100.0 %
Test CRC A7E30C36
Copy CRC A7E30C36
Accurately ripped (confidence 139) [2DA0A3EE] (AR v2)
Copy OK

Track 5

Filename G:\Rips\Bonobo - (2010) Black Sands [FLAC]\05 - El Toro.wav

Peak level 98.0 %
Extraction speed 4.8 X
Track quality 100.0 %
Test CRC 5CEB2A28
Copy CRC 5CEB2A28
Accurately ripped (confidence 139) [18A9FC31] (AR v2)
Copy OK

Track 6

Filename G:\Rips\Bonobo - (2010) Black Sands [FLAC]\06 - We Could Forever.wav

Peak level 98.0 %
Extraction speed 5.2 X
Track quality 100.0 %
Test CRC D45CD081
Copy CRC D45CD081
Accurately ripped (confidence 140) [C5333446] (AR v2)
Copy OK

Track 7

Filename G:\Rips\Bonobo - (2010) Black Sands [FLAC]\07 - 1009.wav

Pre-gap length 0:00:01.24

Peak level 98.0 %
Extraction speed 5.5 X
Track quality 100.0 %
Test CRC 0769A7BC
Copy CRC 0769A7BC
Accurately ripped (confidence 139) [002B738C] (AR v2)
Copy OK

Track 8

Filename G:\Rips\Bonobo - (2010) Black Sands [FLAC]\08 - All In Forms.wav

Peak level 98.0 %
Extraction speed 6.0 X
Track quality 100.0 %
Test CRC C2289D6C
Copy CRC C2289D6C
Accurately ripped (confidence 139) [2FA5629D] (AR v2)
Copy OK

Track 9

Filename G:\Rips\Bonobo - (2010) Black Sands [FLAC]\09 - The Keeper.wav

Peak level 98.0 %
Extraction speed 6.3 X
Track quality 100.0 %
Test CRC 1460B712
Copy CRC 1460B712
Accurately ripped (confidence 139) [45E3A303] (AR v2)
Copy OK

Track 10

Filename G:\Rips\Bonobo - (2010) Black Sands [FLAC]\10 - Stay The Same.wav

Peak level 92.7 %
Extraction speed 6.5 X
Track quality 100.0 %
Test CRC 880EA9A6
Copy CRC 880EA9A6
Accurately ripped (confidence 140) [FF614E22] (AR v2)
Copy OK

Track 11

Filename G:\Rips\Bonobo - (2010) Black Sands [FLAC]\11 - Animals.wav

Peak level 98.0 %
Extraction speed 5.8 X
Track quality 99.9 %
Test CRC 511AC431
Copy CRC 511AC431
Accurately ripped (confidence 137) [1D692D7F] (AR v2)
Copy OK

Track 12

Filename G:\Rips\Bonobo - (2010) Black Sands [FLAC]\12 - Black Sands.wav

Peak level 98.0 %
Extraction speed 7.1 X
Track quality 100.0 %
Test CRC BC871459
Copy CRC BC871459
Accurately ripped (confidence 139) [75D17FC0] (AR v2)
Copy OK


All tracks accurately ripped

No errors occurred

End of status report

–– CUETools DB Plugin V2.1.6

[CTDB TOCID: ErZOAsCrp0qp_j9gYJiT0ZSAc8A-] found
Submit result: ErZOAsCrp0qp_j9gYJiT0ZSAc8A- has been confirmed
Track | CTDB Status
1 | (228/228) Accurately ripped
2 | (227/228) Accurately ripped
3 | (227/228) Accurately ripped
4 | (227/228) Accurately ripped
5 | (226/228) Accurately ripped
6 | (227/228) Accurately ripped
7 | (226/228) Accurately ripped
8 | (225/228) Accurately ripped
9 | (226/228) Accurately ripped
10 | (226/228) Accurately ripped
11 | (224/228) Accurately ripped
12 | (223/228) Accurately ripped


==== Log checksum CF815344D939490EE19B3D2809B86EE806511072D6F055CC044980DBA92BDF74 ====

[CUETools log; Date: 12.07.2021 13:09:01; Version: 2.1.4]
[CTDB TOCID: ErZOAsCrp0qp_j9gYJiT0ZSAc8A-] found.
Track | CTDB Status
1 | (591/592) Accurately ripped
2 | (589/592) Accurately ripped
3 | (588/592) Accurately ripped
4 | (590/592) Accurately ripped
5 | (588/592) Accurately ripped
6 | (589/592) Accurately ripped
7 | (586/592) Accurately ripped
8 | (585/592) Accurately ripped
9 | (585/592) Accurately ripped
10 | (585/592) Accurately ripped
11 | (579/592) Accurately ripped
12 | (583/592) Accurately ripped
[AccurateRip ID: 001569a1-00cf6e1e-af0cea0c] found.
Track [ CRC | V2 ] Status
01 [346eeb2b|60ad9431] (070+200/306) Accurately ripped
02 [c846cf44|2f5c0380] (069+200/305) Accurately ripped
03 [33193824|a9dbfa8d] (069+200/305) Accurately ripped
04 [00c91bd9|2da0a3ee] (070+200/306) Accurately ripped
05 [32797810|18a9fc31] (069+200/305) Accurately ripped
06 [4b560479|c5333446] (069+200/305) Accurately ripped
07 [6ffe5db9|002b738c] (070+200/306) Accurately ripped
08 [a45dde5e|2fa5629d] (069+200/305) Accurately ripped
09 [947550ec|45e3a303] (070+200/306) Accurately ripped
10 [a7365f2f|ff614e22] (070+200/306) Accurately ripped
11 [97e1ff00|1d692d7f] (069+199/303) Accurately ripped
12 [8e03f026|75d17fc0] (069+199/304) Accurately ripped
Offsetted by -756:
01 [deff57a3] (003/306) Accurately ripped
02 [023fc5e8] (003/305) Accurately ripped
03 [7119121e] (003/305) Accurately ripped
04 [66a3ac56] (003/306) Accurately ripped
05 [4643a7bc] (003/305) Accurately ripped
06 [a7f4e6aa] (003/305) Accurately ripped
07 [cfa12274] (003/306) Accurately ripped
08 [86af018c] (003/305) Accurately ripped
09 [ec35138d] (003/306) Accurately ripped
10 [be082d6d] (003/306) Accurately ripped
11 [4cdf458c] (003/303) Accurately ripped
12 [a22f8b1a] (003/304) Accurately ripped
Offsetted by -726:
01 [cbd892b5] (009/306) Accurately ripped
02 [92b76534] (009/305) Accurately ripped
03 [ea137523] (009/305) Accurately ripped
04 [790ec2c1] (009/306) Accurately ripped
05 [6294b8c1] (009/305) Accurately ripped
06 [c25f818b] (009/305) Accurately ripped
07 [c8502d11] (009/306) Accurately ripped
08 [bd67f9f4] (009/305) Accurately ripped
09 [6a58f84b] (009/306) Accurately ripped
10 [ae7178fa] (009/306) Accurately ripped
11 [62226d6a] (009/303) Accurately ripped
12 [af9b86fc] (009/304) Accurately ripped
Offsetted by -778:
01 [687f3bf4] (000/306) No match (V2 was not tested)
02 [cd17dd09] (000/305) No match (V2 was not tested)
03 [ffe80dd3] (000/305) No match (V2 was not tested)
04 [03aeda63] (000/306) No match (V2 was not tested)
05 [bdb92065] (000/305) No match (V2 was not tested)
06 [0a22524d] (000/305) No match (V2 was not tested)
07 [e302ff1d] (000/306) No match (V2 was not tested)
08 [8b75144a] (000/305) No match (V2 was not tested)
09 [2c61cabc] (000/306) No match (V2 was not tested)
10 [40b90657] (000/306) No match (V2 was not tested)
11 [2c368eb6] (000/303) No match (V2 was not tested)
12 [65249f30] (000/304) No match (V2 was not tested)
Offsetted by -714:
01 [feaafdad] (000/306) No match (V2 was not tested)
02 [fae64e90] (000/305) No match (V2 was not tested)
03 [a14e39a7] (000/305) No match (V2 was not tested)
04 [774bbaef] (000/306) No match (V2 was not tested)
05 [effb4630] (000/305) No match (V2 was not tested)
06 [d746f246] (000/305) No match (V2 was not tested)
07 [b2877b22] (000/306) No match (V2 was not tested)
08 [5ddee2fc] (000/305) No match (V2 was not tested)
09 [a98a8ed4] (000/306) No match (V2 was not tested)
10 [db0d30b8] (000/306) No match (V2 was not tested)
11 [d10a16f6] (000/303) No match
12 [e82d1ef0] (000/304) No match (V2 was not tested)
Offsetted by -664:
01 [9ce1e300] (000/306) No match (V2 was not tested)
02 [c0278c1f] (000/305) No match (V2 was not tested)
03 [5f31b30d] (000/305) No match (V2 was not tested)
04 [a9cc6154] (000/306) No match (V2 was not tested)
05 [ae6949ff] (000/305) No match (V2 was not tested)
06 [c8f39386] (000/305) No match (V2 was not tested)
07 [4d0652cd] (000/306) No match (V2 was not tested)
08 [ff6e95c3] (000/305) No match (V2 was not tested)
09 [b6822398] (000/306) No match (V2 was not tested)
10 [6a1955da] (000/306) No match (V2 was not tested)
11 [49cf5968] (000/303) No match (V2 was not tested)
12 [fe8bc2be] (000/304) No match (V2 was not tested)
Offsetted by -658:
01 [54d38eeb] (000/306) No match (V2 was not tested)
02 [60c10baa] (000/305) No match (V2 was not tested)
03 [d9e21d39] (000/305) No match (V2 was not tested)
04 [1dcbadf4] (000/306) No match (V2 was not tested)
05 [a7b7954f] (000/305) No match (V2 was not tested)
06 [b58abdac] (000/305) No match (V2 was not tested)
07 [8576e518] (000/306) No match (V2 was not tested)
08 [6494ad78] (000/305) No match (V2 was not tested)
09 [402970f7] (000/306) No match (V2 was not tested)
10 [006a30f3] (000/306) No match (V2 was not tested)
11 [81432e2e] (000/303) No match (V2 was not tested)
12 [9ad48eb8] (000/304) No match (V2 was not tested)
Offsetted by -30:
01 [528d649f] (000/306) No match (V2 was not tested)
02 [dea45292] (000/305) No match (V2 was not tested)
03 [84e078f8] (000/305) No match (V2 was not tested)
04 [f4eda3d0] (000/306) No match (V2 was not tested)
05 [9908308e] (000/305) No match (V2 was not tested)
06 [99f99b82] (000/305) No match (V2 was not tested)
07 [c080e98d] (000/306) No match (V2 was not tested)
08 [e4d9fac7] (000/305) No match (V2 was not tested)
09 [228aac2c] (000/306) No match (V2 was not tested)
10 [b6974202] (000/306) No match (V2 was not tested)
11 [829ed722] (000/303) No match (V2 was not tested)
12 [8097f444] (000/304) No match (V2 was not tested)

Track Peak [ CRC32 ] [W/O NULL] [ LOG ]
– 98,0 [D4C8872A] [6C1FEFB1]
01 98,0 [FFD07F66] [0EAE1320] CRC32
02 98,0 [842A8F0A] [F3EAFF5E] CRC32
03 98,0 [9AB0DE07] [77748E56] CRC32
04 98,0 [A7E30C36] [B825EC9F] CRC32
05 98,0 [5CEB2A28] [B28C61B2] CRC32
06 98,0 [D45CD081] [2B56C82D] CRC32
07 98,0 [0769A7BC] [33B93250] CRC32
08 98,0 [C2289D6C] [E12463D0] CRC32
09 98,0 [1460B712] [7395BF80] CRC32
10 92,7 [880EA9A6] [C4CC0FEF] CRC32
11 98,0 [511AC431] [D0B50566] CRC32
12 98,0 [BC871459] [A65B1D86] CRC32

Thanks to the original releaser