Tags
Language
Tags

Bonobo - Days to Come (2006) [2CD Limited Edition]

Posted By: gribovar
Bonobo - Days to Come (2006) [2CD Limited Edition]

Bonobo - Days to Come (2006) [2CD Limited Edition]
EAC Rip | FLAC (tracks+.cue+log) - 485 MB | MP3 CBR 320 kbps (LAME 3.93) - 182 MB | Covers - 7 MB
Genre: Electronic, Trip-Hop, Downtempo, Nu Jazz | RAR 3% Rec. | Label: Ninja Tune (ZENCD119X)

Simon Green aka Bonobo returns with his third album and the kind of quantum leap in quality that very few artists make. "Days To Come" has the feeling of a classic all over - a big, brooding, emotional and uplifting record that you can dance to, do the dishes to, or sit and really study.
Green has always been expert at welding together music dripping with atmosphere, combining his own musical and technical talents in such a way as to make utterly organic-sounding machine music. This is not just a knob-twiddling producer but a multi-instrumentalist at work, who writes, plays and then manipulates almost every note of music he releases. And "Days To Come" shows a new structural awareness growing from this, a feeling for the song form and the gradual build which raises it way above the work of many of his contemporaries and cries out for him to achieve the kind of mainstream success that has talent has long hinted at.
CD 1 Tracklist:
01. Intro
02. Days to Come (feat. Bajka)
03. Between the Lines (feat. Bajka)
04. The Fever
05. Ketto
06. Nightlite (feat. Bajka)
07. Transmission 94 (Parts 1 & 2)
08. On Your Marks
09. If You Stayed Over (feat. Fink)
10. Walk in the Sky (feat. Bajka)
11. Recurring

Total time: 51:12

CD 2 Tracklist:
01. Days to Come (instrumental)
02. Between the Lines (instrumental)
03. Nightlite (demo version)
04. If You Stayed Over (instrumental)
05. If You Stayed Over (reprise)
06. Walk in the Sky (instrumental)
07. Hatoa

Total time: 26:05

Exact Audio Copy V1.0 beta 3 from 29. August 2011

EAC extraction logfile from 4. August 2013, 20:42

Bonobo / Days to Come

Used drive : HP DVD Writer 1260t Adapter: 0 ID: 0

Read mode : Secure
Utilize accurate stream : Yes
Defeat audio cache : Yes
Make use of C2 pointers : No

Read offset correction : 6
Overread into Lead-In and Lead-Out : No
Fill up missing offset samples with silence : Yes
Delete leading and trailing silent blocks : No
Null samples used in CRC calculations : Yes
Used interface : Native Win32 interface for Win NT & 2000
Gap handling : Appended to previous track

Used output format : User Defined Encoder
Selected bitrate : 1024 kBit/s
Quality : High
Add ID3 tag : No
Command line compressor : C:\Program Files (x86)\Exact Audio Copy\Flac\flac.exe
Additional command line options : -8 -V -T "ARTIST=%artist%" -T "TITLE=%title%" -T "ALBUM=%albumtitle%" -T "DATE=%year%" -T "TRACKNUMBER=%tracknr%" -T "GENRE=%genre%" -T "PERFORMER=%albuminterpret%" -T "COMPOSER=%composer%" %haslyrics%–tag-from-file=LYRICS="%lyricsfile%"%haslyrics% -T "ALBUMARTIST=%albumartist%" -T "DISCNUMBER=%cdnumber%" -T "TOTALDISCS=%totalcds%" -T "TOTALTRACKS=%numtracks%" -T "COMMENT=%comment%" %source% -o %dest%


TOC of the extracted CD

Track | Start | Length | Start sector | End sector
––––––––––––––––––––––––––––-
1 | 0:00.00 | 0:53.68 | 0 | 4042
2 | 0:53.68 | 3:49.39 | 4043 | 21256
3 | 4:43.32 | 4:36.43 | 21257 | 41999
4 | 9:20.00 | 4:21.35 | 42000 | 61609
5 | 13:41.35 | 5:06.63 | 61610 | 84622
6 | 18:48.23 | 5:09.41 | 84623 | 107838
7 | 23:57.64 | 7:57.41 | 107839 | 143654
8 | 31:55.30 | 4:11.13 | 143655 | 162492
9 | 36:06.43 | 5:23.58 | 162493 | 186775
10 | 41:30.26 | 4:34.67 | 186776 | 207392
11 | 46:05.18 | 5:06.50 | 207393 | 230392


Track 1

Filename D:\EAC Rips\Bonobo - Days to Come (2006) [FLAC] {ZENCD119}\CD1\01 - Bonobo - Intro.wav

Pre-gap length 0:00:02.00

Peak level 91.9 %
Extraction speed 2.0 X
Track quality 100.0 %
Test CRC BE28CD5D
Copy CRC BE28CD5D
Accurately ripped (confidence 28) [94EE4500] (AR v2)
Copy OK

Track 2

Filename D:\EAC Rips\Bonobo - Days to Come (2006) [FLAC] {ZENCD119}\CD1\02 - Bonobo feat. Bajka - Days to Come.wav

Peak level 98.5 %
Extraction speed 3.4 X
Track quality 100.0 %
Test CRC 5939A24F
Copy CRC 5939A24F
Accurately ripped (confidence 29) [FFDC36EF] (AR v2)
Copy OK

Track 3

Filename D:\EAC Rips\Bonobo - Days to Come (2006) [FLAC] {ZENCD119}\CD1\03 - Bonobo feat. Bajka - Between the Lines.wav

Pre-gap length 0:00:00.81

Peak level 98.5 %
Extraction speed 3.3 X
Track quality 99.9 %
Test CRC 3BC548A8
Copy CRC 3BC548A8
Accurately ripped (confidence 29) [DE78324D] (AR v2)
Copy OK

Track 4

Filename D:\EAC Rips\Bonobo - Days to Come (2006) [FLAC] {ZENCD119}\CD1\04 - Bonobo - The Fever.wav

Pre-gap length 0:00:02.04

Peak level 98.5 %
Extraction speed 4.3 X
Track quality 100.0 %
Test CRC 02BFE592
Copy CRC 02BFE592
Accurately ripped (confidence 29) [8B18E9C8] (AR v2)
Copy OK

Track 5

Filename D:\EAC Rips\Bonobo - Days to Come (2006) [FLAC] {ZENCD119}\CD1\05 - Bonobo - Ketto.wav

Pre-gap length 0:00:01.45

Peak level 98.8 %
Extraction speed 4.8 X
Track quality 100.0 %
Test CRC 454AEF89
Copy CRC 454AEF89
Accurately ripped (confidence 29) [08E22FA3] (AR v2)
Copy OK

Track 6

Filename D:\EAC Rips\Bonobo - Days to Come (2006) [FLAC] {ZENCD119}\CD1\06 - Bonobo feat. Bajka - Nightlite.wav

Pre-gap length 0:00:00.50

Peak level 98.5 %
Extraction speed 5.1 X
Track quality 100.0 %
Test CRC 506B0561
Copy CRC 506B0561
Accurately ripped (confidence 29) [3F685783] (AR v2)
Copy OK

Track 7

Filename D:\EAC Rips\Bonobo - Days to Come (2006) [FLAC] {ZENCD119}\CD1\07 - Bonobo - Transmission 94, Parts 1 & 2.wav

Pre-gap length 0:00:00.42

Peak level 98.6 %
Extraction speed 5.8 X
Track quality 100.0 %
Test CRC 6B791BD5
Copy CRC 6B791BD5
Accurately ripped (confidence 29) [ECE9E318] (AR v2)
Copy OK

Track 8

Filename D:\EAC Rips\Bonobo - Days to Come (2006) [FLAC] {ZENCD119}\CD1\08 - Bonobo - On Your Marks.wav

Peak level 98.3 %
Extraction speed 5.8 X
Track quality 100.0 %
Test CRC DDA46305
Copy CRC DDA46305
Accurately ripped (confidence 29) [063000D2] (AR v2)
Copy OK

Track 9

Filename D:\EAC Rips\Bonobo - Days to Come (2006) [FLAC] {ZENCD119}\CD1\09 - Bonobo feat. Fink - If You Stayed Over.wav

Pre-gap length 0:00:01.10

Peak level 98.6 %
Extraction speed 6.3 X
Track quality 100.0 %
Test CRC E9CB8E9C
Copy CRC E9CB8E9C
Accurately ripped (confidence 29) [FC914275] (AR v2)
Copy OK

Track 10

Filename D:\EAC Rips\Bonobo - Days to Come (2006) [FLAC] {ZENCD119}\CD1\10 - Bonobo feat. Bajka - Walk in the Sky.wav

Pre-gap length 0:00:01.77

Peak level 98.5 %
Extraction speed 5.1 X
Track quality 99.9 %
Test CRC 955FA30D
Copy CRC 955FA30D
Accurately ripped (confidence 29) [EB6D23B9] (AR v2)
Copy OK

Track 11

Filename D:\EAC Rips\Bonobo - Days to Come (2006) [FLAC] {ZENCD119}\CD1\11 - Bonobo - Recurring.wav

Pre-gap length 0:00:01.77

Peak level 98.5 %
Extraction speed 6.7 X
Track quality 100.0 %
Test CRC 036E796F
Copy CRC 036E796F
Accurately ripped (confidence 29) [BDCDD287] (AR v2)
Copy OK


All tracks accurately ripped

No errors occurred

End of status report

–– CUETools DB Plugin V2.1.4

[CTDB TOCID: mSoBG.KFzrcZ8a6xBfhiQmyx7kU-] found
Submit result: already submitted
Track | CTDB Status
1 | (34/40) Accurately ripped, or (4/40) differs in 27 samples @00:53:59
2 | (39/40) Accurately ripped
3 | (39/40) Accurately ripped
4 | (39/40) Accurately ripped
5 | (39/40) Accurately ripped
6 | (39/40) Accurately ripped
7 | (39/40) Accurately ripped
8 | (39/40) Accurately ripped
9 | (39/40) Accurately ripped
10 | (39/40) Accurately ripped
11 | (39/40) Accurately ripped


==== Log checksum 3A685DB19B05C265BC18A5744FE933E718DB02A5FB4CA1B4958C5286C1CD80FD ====

[CUETools log; Date: 13.07.2021 23:59:43; Version: 2.1.4]
[CTDB TOCID: mSoBG.KFzrcZ8a6xBfhiQmyx7kU-] found.
Track | CTDB Status
1 | (275/317) Accurately ripped, or (29/317) differs in 27 samples @00:53:67, or (10/317) differs in 36 samples @00:53:66
2 | (315/317) Accurately ripped
3 | (316/317) Accurately ripped
4 | (316/317) Accurately ripped
5 | (316/317) Accurately ripped
6 | (316/317) Accurately ripped
7 | (315/317) Accurately ripped
8 | (315/317) Accurately ripped
9 | (315/317) Accurately ripped
10 | (315/317) Accurately ripped
11 | (314/317) Accurately ripped
[AccurateRip ID: 00131af2-00acf93b-950bff0b] found.
Track [ CRC | V2 ] Status
01 [e3537226|94ee4500] (027+072/213) Accurately ripped
02 [501d2dff|ffdc36ef] (027+074/215) Accurately ripped
03 [a93c1cb4|de78324d] (027+074/215) Accurately ripped
04 [3a61189a|8b18e9c8] (027+074/214) Accurately ripped
05 [3c71e323|08e22fa3] (027+074/216) Accurately ripped
06 [3c8ad6e6|3f685783] (026+074/214) Accurately ripped
07 [e8967a41|ece9e318] (027+074/214) Accurately ripped
08 [2851fd37|063000d2] (027+074/213) Accurately ripped
09 [c1f1c645|fc914275] (027+074/215) Accurately ripped
10 [7050ceb5|eb6d23b9] (026+074/214) Accurately ripped
11 [a2ca9cfd|bdcdd287] (024+073/210) Accurately ripped
Offsetted by -676:
01 [b5d89588] (002/213) Accurately ripped
02 [67915881] (002/215) Accurately ripped
03 [026909d4] (002/215) Accurately ripped
04 [2408f54a] (002/214) Accurately ripped
05 [12ab3c7b] (002/216) Accurately ripped
06 [6c4d903e] (002/214) Accurately ripped
07 [ca09f289] (002/214) Accurately ripped
08 [6140e473] (002/213) Accurately ripped
09 [68fb94a1] (002/215) Accurately ripped
10 [fa022fa9] (002/214) Accurately ripped
11 [befb83b5] (002/210) Accurately ripped
Offsetted by 30:
01 [5edce88b] (031/213) Accurately ripped
02 [ad2a72ae] (030/215) Accurately ripped
03 [3b3de7c4] (030/215) Accurately ripped
04 [10f4e9b2] (029/214) Accurately ripped
05 [642b2d2f] (030/216) Accurately ripped
06 [c80e50f2] (029/214) Accurately ripped
07 [34ecff85] (030/214) Accurately ripped
08 [0e5079c5] (029/213) Accurately ripped
09 [5ee2f2e3] (030/215) Accurately ripped
10 [f10586ff] (030/214) Accurately ripped
11 [1e82c339] (031/210) Accurately ripped
Offsetted by -694:
01 [91c49fb4] (019/213) Accurately ripped
02 [4cd06ac9] (000/215) No match (V2 was not tested)
03 [4467f664] (020/215) Accurately ripped
04 [09b044a2] (020/214) Accurately ripped
05 [fad5a9a7] (020/216) Accurately ripped
06 [7efead6a] (019/214) Accurately ripped
07 [69093c2d] (019/214) Accurately ripped
08 [3da83351] (020/213) Accurately ripped
09 [7137ad0f] (019/215) Accurately ripped
10 [46628de3] (019/214) Accurately ripped
11 [74c03991] (020/210) Accurately ripped
Offsetted by -682:
01 [80c67029] (000/213) No match (V2 was not tested)
02 [5f23b490] (000/215) No match (V2 was not tested)
03 [1868ae04] (000/215) No match (V2 was not tested)
04 [c5eb6512] (000/214) No match (V2 was not tested)
05 [0ab960df] (000/216) No match (V2 was not tested)
06 [1d3344a2] (000/214) No match (V2 was not tested)
07 [545f0b15] (000/214) No match (V2 was not tested)
08 [000dfebd] (000/213) No match (V2 was not tested)
09 [1664f21b] (000/215) No match (V2 was not tested)
10 [1377a467] (000/214) No match (V2 was not tested)
11 [a63d15a9] (000/210) No match (V2 was not tested)
Offsetted by -634:
01 [994b4d30] (000/213) No match (V2 was not tested)
02 [9990c72d] (000/215) No match (V2 was not tested)
03 [686b8c84] (000/215) No match (V2 was not tested)
04 [b6d7e6d2] (000/214) No match (V2 was not tested)
05 [4a483dbf] (000/216) No match (V2 was not tested)
06 [9605a182] (000/214) No match (V2 was not tested)
07 [01b646b5] (000/214) No match (V2 was not tested)
08 [09a52c6d] (000/213) No match (V2 was not tested)
09 [ab1a064b] (000/215) No match (V2 was not tested)
10 [47cbfe77] (000/214) No match (V2 was not tested)
11 [6c308609] (000/210) No match (V2 was not tested)
Offsetted by 24:
01 [3fb2a3da] (000/213) No match (V2 was not tested)
02 [9a5dcb27] (000/215) No match (V2 was not tested)
03 [513d8bf4] (000/215) No match (V2 was not tested)
04 [b2d7597a] (000/214) No match (V2 was not tested)
05 [5c395193] (000/216) No match (V2 was not tested)
06 [78f40556] (000/214) No match (V2 was not tested)
07 [bf421811] (000/214) No match (V2 was not tested)
08 [ad1d940f] (000/213) No match (V2 was not tested)
09 [0c4c505d] (000/215) No match (V2 was not tested)
10 [0a7afbbd] (000/214) No match (V2 was not tested)
11 [05c4552d] (000/210) No match (V2 was not tested)
Offsetted by 36:
01 [aaf9a0af] (000/213) No match (V2 was not tested)
02 [bff01a3a] (000/215) No match (V2 was not tested)
03 [253e4394] (000/215) No match (V2 was not tested)
04 [6f1279ea] (000/214) No match (V2 was not tested)
05 [6c1d08cb] (000/216) No match (V2 was not tested)
06 [17289c8e] (000/214) No match (V2 was not tested)
07 [aa97e6f9] (000/214) No match (V2 was not tested)
08 [6f835f7b] (000/213) No match (V2 was not tested)
09 [b1799569] (000/215) No match (V2 was not tested)
10 [d7901241] (000/214) No match (V2 was not tested)
11 [37413145] (000/210) No match (V2 was not tested)

Track Peak [ CRC32 ] [W/O NULL] [ LOG ]
– 98,8 [6106A95F] [A2DED0B5]
01 91,9 [BE28CD5D] [B783077C] CRC32
02 98,5 [5939A24F] [FC0F4F24] CRC32
03 98,5 [3BC548A8] [EA34A372] CRC32
04 98,5 [02BFE592] [26E2DCCD] CRC32
05 98,8 [454AEF89] [E96F016B] CRC32
06 98,5 [506B0561] [1F0532FC] CRC32
07 98,6 [6B791BD5] [E3B51031] CRC32
08 98,3 [DDA46305] [794FFEF0] CRC32
09 98,6 [E9CB8E9C] [ADF386B1] CRC32
10 98,5 [955FA30D] [995858F0] CRC32
11 98,5 [036E796F] [94CD3219] CRC32

Exact Audio Copy V1.0 beta 3 from 29. August 2011

EAC extraction logfile from 4. August 2013, 19:37

Bonobo / Days to Come

Used drive : HP DVD Writer 1260t Adapter: 0 ID: 0

Read mode : Secure
Utilize accurate stream : Yes
Defeat audio cache : Yes
Make use of C2 pointers : No

Read offset correction : 6
Overread into Lead-In and Lead-Out : No
Fill up missing offset samples with silence : Yes
Delete leading and trailing silent blocks : No
Null samples used in CRC calculations : Yes
Used interface : Native Win32 interface for Win NT & 2000
Gap handling : Appended to previous track

Used output format : User Defined Encoder
Selected bitrate : 1024 kBit/s
Quality : High
Add ID3 tag : No
Command line compressor : C:\Program Files (x86)\Exact Audio Copy\Flac\flac.exe
Additional command line options : -8 -V -T "ARTIST=%artist%" -T "TITLE=%title%" -T "ALBUM=%albumtitle%" -T "DATE=%year%" -T "TRACKNUMBER=%tracknr%" -T "GENRE=%genre%" -T "PERFORMER=%albuminterpret%" -T "COMPOSER=%composer%" %haslyrics%–tag-from-file=LYRICS="%lyricsfile%"%haslyrics% -T "ALBUMARTIST=%albumartist%" -T "DISCNUMBER=%cdnumber%" -T "TOTALDISCS=%totalcds%" -T "TOTALTRACKS=%numtracks%" -T "COMMENT=%comment%" %source% -o %dest%


TOC of the extracted CD

Track | Start | Length | Start sector | End sector
––––––––––––––––––––––––––––-
1 | 0:00.00 | 3:50.27 | 0 | 17276
2 | 3:50.27 | 4:36.26 | 17277 | 38002
3 | 8:26.53 | 5:10.53 | 38003 | 61305
4 | 13:37.31 | 2:15.41 | 61306 | 71471
5 | 15:52.72 | 1:44.27 | 71472 | 79298
6 | 17:37.24 | 4:06.03 | 79299 | 97751
7 | 21:43.27 | 4:21.60 | 97752 | 117386


Track 1

Filename D:\EAC Rips\Bonobo - Days to Come (2006) [FLAC] {ZENCD119}\CD2 (bonus disk)\01 - Days to Come (instrumental).wav

Pre-gap length 0:00:02.00

Peak level 98.5 %
Extraction speed 3.5 X
Track quality 100.0 %
Test CRC 55DAF79D
Copy CRC 55DAF79D
Accurately ripped (confidence 21) [B4FE6AB4] (AR v2)
Copy OK

Track 2

Filename D:\EAC Rips\Bonobo - Days to Come (2006) [FLAC] {ZENCD119}\CD2 (bonus disk)\02 - Between the Lines (instrumental).wav

Pre-gap length 0:00:01.77

Peak level 98.6 %
Extraction speed 4.1 X
Track quality 100.0 %
Test CRC 9EC44C7A
Copy CRC 9EC44C7A
Accurately ripped (confidence 21) [C5F956F2] (AR v2)
Copy OK

Track 3

Filename D:\EAC Rips\Bonobo - Days to Come (2006) [FLAC] {ZENCD119}\CD2 (bonus disk)\03 - Nightlite (demo version).wav

Pre-gap length 0:00:01.77

Peak level 98.5 %
Extraction speed 4.6 X
Track quality 100.0 %
Test CRC 469C444F
Copy CRC 469C444F
Accurately ripped (confidence 21) [E6AAE8ED] (AR v2)
Copy OK

Track 4

Filename D:\EAC Rips\Bonobo - Days to Come (2006) [FLAC] {ZENCD119}\CD2 (bonus disk)\04 - If You Stayed Over (instrumental).wav

Pre-gap length 0:00:01.77

Peak level 98.6 %
Extraction speed 4.3 X
Track quality 100.0 %
Test CRC 79DBD29E
Copy CRC 79DBD29E
Accurately ripped (confidence 21) [C2FCA878] (AR v2)
Copy OK

Track 5

Filename D:\EAC Rips\Bonobo - Days to Come (2006) [FLAC] {ZENCD119}\CD2 (bonus disk)\05 - If You Stayed Over (reprise).wav

Peak level 89.6 %
Extraction speed 4.1 X
Track quality 100.0 %
Test CRC 7CC86E52
Copy CRC 7CC86E52
Accurately ripped (confidence 21) [DA9CF9E0] (AR v2)
Copy OK

Track 6

Filename D:\EAC Rips\Bonobo - Days to Come (2006) [FLAC] {ZENCD119}\CD2 (bonus disk)\06 - Walk in the Sky (instrumental).wav

Pre-gap length 0:00:01.77

Peak level 98.5 %
Extraction speed 4.1 X
Track quality 99.9 %
Test CRC C260257D
Copy CRC C260257D
Accurately ripped (confidence 21) [789BB525] (AR v2)
Copy OK

Track 7

Filename D:\EAC Rips\Bonobo - Days to Come (2006) [FLAC] {ZENCD119}\CD2 (bonus disk)\07 - Hatoa.wav

Pre-gap length 0:00:01.77

Peak level 98.1 %
Extraction speed 5.4 X
Track quality 100.0 %
Test CRC 13531153
Copy CRC 13531153
Accurately ripped (confidence 21) [B6438752] (AR v2)
Copy OK


All tracks accurately ripped

No errors occurred

End of status report

–– CUETools DB Plugin V2.1.4

[CTDB TOCID: g7X8AcxeegriFxGiHAuE8XoBRaw-] found
Submit result: already submitted
Track | CTDB Status
1 | (38/39) Accurately ripped
2 | (38/39) Accurately ripped
3 | (38/39) Accurately ripped
4 | (38/39) Accurately ripped
5 | (34/39) Accurately ripped, or (4/39) differs in 40 samples @00:00:00
6 | (38/39) Accurately ripped
7 | (38/39) Accurately ripped


==== Log checksum 2C2B29F5362D9E27A6C1CDF272627332C446485B1E12002ED680F290FDDCE6A4 ====

[CUETools log; Date: 14.07.2021 0:01:08; Version: 2.1.4]
[CTDB TOCID: g7X8AcxeegriFxGiHAuE8XoBRaw-] found.
Track | CTDB Status
1 | (284/287) Accurately ripped
2 | (286/287) Accurately ripped
3 | (286/287) Accurately ripped
4 | (274/287) Accurately ripped, or (11/287) differs in 39 samples @02:15:39
5 | (257/287) Accurately ripped, or (28/287) differs in 40 samples @00:00:00
6 | (284/287) Accurately ripped
7 | (286/287) Accurately ripped
[AccurateRip ID: 00075cc0-002b7dfe-52061d07] found.
Track [ CRC | V2 ] Status
01 [fc8f35d6|b4fe6ab4] (011+052/189) Accurately ripped
02 [17f59d88|c5f956f2] (011+053/188) Accurately ripped
03 [bcd62251|e6aae8ed] (011+053/190) Accurately ripped
04 [311f6f06|c2fca878] (011+053/192) Accurately ripped
05 [ae0fc3ab|da9cf9e0] (011+053/188) Accurately ripped
06 [c715d974|789bb525] (011+053/189) Accurately ripped
07 [797c0f51|b6438752] (011+053/190) Accurately ripped
Offsetted by -620:
01 [f0bcb2c6] (002/189) Accurately ripped
02 [3df7b548] (002/188) Accurately ripped
03 [d041d96d] (002/190) Accurately ripped
04 [075522c9] (002/192) Accurately ripped
05 [8f5fb970] (002/188) Accurately ripped
06 [33439730] (002/189) Accurately ripped
07 [9297cb45] (002/190) Accurately ripped
Offsetted by 56:
01 [1b5b3476] (013/189) Accurately ripped
02 [ca343008] (013/188) Accurately ripped
03 [b7c77339] (013/190) Accurately ripped
04 [15dcdc50] (013/192) Accurately ripped
05 [4deb07f9] (013/188) Accurately ripped
06 [9406281c] (013/189) Accurately ripped
07 [9b8d5fc9] (013/190) Accurately ripped
Offsetted by 86:
01 [07487cde] (026/189) Accurately ripped
02 [3bfa47a8] (026/188) Accurately ripped
03 [c75b0323] (026/190) Accurately ripped
04 [ee297772] (028/192) Accurately ripped
05 [4607916f] (026/188) Accurately ripped
06 [dd3dbff6] (026/189) Accurately ripped
07 [64a8ef77] (028/190) Accurately ripped
Offsetted by -626:
01 [5b26d77e] (018/189) Accurately ripped
02 [f4034a28] (018/188) Accurately ripped
03 [99f1230b] (018/190) Accurately ripped
04 [eb5d69b7] (018/192) Accurately ripped
05 [6b22baca] (000/188) No match (V2 was not tested)
06 [8b05459e] (018/189) Accurately ripped
07 [6a5f14ef] (018/190) Accurately ripped
Offsetted by 80:
01 [71b2a196] (000/189) No match (V2 was not tested)
02 [f205dc88] (000/188) No match (V2 was not tested)
03 [910a4cc1] (000/190) No match (V2 was not tested)
04 [00e25e71] (000/192) No match (V2 was not tested)
05 [02f79230] (000/188) No match (V2 was not tested)
06 [34ff6e64] (000/189) No match (V2 was not tested)
07 [3c703921] (000/190) No match (V2 was not tested)
Offsetted by 92:
01 [9cde5826] (000/189) No match (V2 was not tested)
02 [85eeb2c8] (000/188) No match (V2 was not tested)
03 [fdabb985] (000/190) No match (V2 was not tested)
04 [f88028d8] (000/192) No match (V2 was not tested)
05 [b5b48d41] (000/188) No match (V2 was not tested)
06 [857c1188] (000/189) No match (V2 was not tested)
07 [8ce1a5cd] (000/190) No match (V2 was not tested)

Track Peak [ CRC32 ] [W/O NULL] [ LOG ]
– 98,6 [E4797AB9] [E4ECC4FA]
01 98,5 [55DAF79D] [9E031095] CRC32
02 98,6 [9EC44C7A] [B382B44D] CRC32
03 98,5 [469C444F] [AA687E60] CRC32
04 98,6 [79DBD29E] [2B4F426B] CRC32
05 89,6 [7CC86E52] [F2347FD3] CRC32
06 98,5 [C260257D] [A5422022] CRC32
07 98,1 [13531153] [5C01FFBA] CRC32

Thanks to the original releaser

See also:
Bonobo - Black Sands (2010)