Subcategories

Charles Michael Brotman - Mango Cooler (1990)

Posted By: congole
Charles Michael Brotman - Mango Cooler (1990)

CHARLES MICHAEL BROTMAN - Mango Cooler (1990) [Global Pacific; R2 79336]
Smooth Jazz | 1CD | EAC FLAC+LOG | no CUE | no scans | .zip | 259MB
(source: friend's disc, Global Pacific * no cue sheet; make playlist from separate FLACs instead * front cover: save the image above - 135K)
(all files tagged with album details)

Seattle-born Charles Michael Brotman played in various pop bands as a teenager before studying classical guitar in college. He moved to Honolulu to teach classical guitar at the University of Hawaii. Eventually he left his teaching position to devote full time to composing and producing music for commercials and film (and his scores are heard worldwide). This is his debut as a guitarist/composer.
Brotman's irresistibly engaging debut is another of '90s smooth jazz guitar greats, following the melodic path previously paved by Grant Geissman, Peter White, Phil Sheeran, et al. Brotman may not add anything stylistically to the fold, but his instantly hummable melodies and smooth production make him one of the more engaging players of the early '90s. Offering a special romantic breeziness, these ten tunes come ready for airplay and those moonlit strolls on the beach. The heartfelt way he strokes his classical strings may remind listeners of Russ Freeman's simpler works, while Brotman's texturing of Steve Reid's percussion and Jerry Martini's silky sax will bring you further into that Rippingtons comfort zone. Fortunately, however, Brotman keeps his guitar happy playing the star here and keeps the overall sound quality sweet and simple. ~ Jonathan Widran


Track list:
1 Mango Cooler
2 Paradise Isle
3 Marisa's Song
4 Merchant Street
5 Heart Of Gold
6 Badinage
7 Kam Hiway
8 Street Dance
9 Pacific Sunset
10 After the Fall

Download (no pass):

Mango Cooler_1990.zip @ megaupload



Exact Audio Copy V1.0 beta 1 from 15. November 2010

EAC extraction logfile from 26. June 2011, 19:48

Charles Michael Brotman / Mango Cooler

Used drive : TSSTcorpCDDVDW TS-L633C Adapter: 0 ID: 1

Read mode : Secure
Utilize accurate stream : Yes
Defeat audio cache : No
Make use of C2 pointers : Yes

Read offset correction : 6
Overread into Lead-In and Lead-Out : Yes
Fill up missing offset samples with silence : Yes
Delete leading and trailing silent blocks : No
Null samples used in CRC calculations : No
Used interface : Native Win32 interface for Win NT & 2000
Gap handling : Not detected, thus appended to previous track

Used output format : User Defined Encoder
Selected bitrate : 1024 kBit/s
Quality : High
Add ID3 tag : Yes
Command line compressor : C:\Program Files (x86)\Exact Audio Copy\FLAC\FLAC.EXE
Additional command line options : -6 -V -T "ARTIST=%a" -T "TITLE=%t" -T "ALBUM=%g" -T "DATE=%y" -T "TRACKNUMBER=%n" -T "GENRE=%m" -T "COMMENT=%e" %j–picture="%i"%j %s -o %d


TOC of the extracted CD

Track | Start | Length | Start sector | End sector
––––––––––––––––––––––––––––-
1 | 0:00.50 | 3:37.32 | 50 | 16356
2 | 3:38.07 | 3:57.00 | 16357 | 34131
3 | 7:35.07 | 3:27.03 | 34132 | 49659
4 | 11:02.10 | 4:21.02 | 49660 | 69236
5 | 15:23.12 | 4:42.38 | 69237 | 90424
6 | 20:05.50 | 5:26.72 | 90425 | 114946
7 | 25:32.47 | 4:51.00 | 114947 | 136771
8 | 30:23.47 | 4:10.73 | 136772 | 155594
9 | 34:34.45 | 3:42.37 | 155595 | 172281
10 | 38:17.07 | 3:42.68 | 172282 | 188999


Track 1

Filename D:\MyMusic\CHARLES MICHAEL BROTMAN - (1990)- Mango Cooler [Global Pacific; R2 79336]\01. Mango Cooler - Charles Michael Brotman.wav

Peak level 96.3 %
Extraction speed 6.0 X
Track quality 100.0 %
Copy CRC 7A41E907
Accurately ripped (confidence 1) [EE395A0C]
Copy OK

Track 2

Filename D:\MyMusic\CHARLES MICHAEL BROTMAN - (1990)- Mango Cooler [Global Pacific; R2 79336]\02. Paradise Isle - Charles Michael Brotman.wav

Peak level 98.8 %
Extraction speed 4.1 X
Track quality 100.0 %
Copy CRC 061D66D6
Accurately ripped (confidence 1) [D0805186]
Copy OK

Track 3

Filename D:\MyMusic\CHARLES MICHAEL BROTMAN - (1990)- Mango Cooler [Global Pacific; R2 79336]\03. Marisa's Song - Charles Michael Brotman.wav

Peak level 99.9 %
Extraction speed 4.5 X
Track quality 100.0 %
Copy CRC ED5FBAC8
Accurately ripped (confidence 1) [C26D76E4]
Copy OK

Track 4

Filename D:\MyMusic\CHARLES MICHAEL BROTMAN - (1990)- Mango Cooler [Global Pacific; R2 79336]\04. Merchant Street - Charles Michael Brotman.wav

Peak level 98.2 %
Extraction speed 4.8 X
Track quality 100.0 %
Copy CRC 12CBCE76
Accurately ripped (confidence 1) [0963E1D1]
Copy OK

Track 5

Filename D:\MyMusic\CHARLES MICHAEL BROTMAN - (1990)- Mango Cooler [Global Pacific; R2 79336]\05. Heart of Gold - Charles Michael Brotman.wav

Peak level 96.8 %
Extraction speed 5.2 X
Track quality 100.0 %
Copy CRC EB5DD99C
Accurately ripped (confidence 1) [8AA9B930]
Copy OK

Track 6

Filename D:\MyMusic\CHARLES MICHAEL BROTMAN - (1990)- Mango Cooler [Global Pacific; R2 79336]\06. Badinage - Charles Michael Brotman.wav

Peak level 97.9 %
Extraction speed 5.6 X
Track quality 100.0 %
Copy CRC 0549CC6B
Accurately ripped (confidence 1) [54B6432A]
Copy OK

Track 7

Filename D:\MyMusic\CHARLES MICHAEL BROTMAN - (1990)- Mango Cooler [Global Pacific; R2 79336]\07. Kam Hiway - Charles Michael Brotman.wav

Peak level 93.3 %
Extraction speed 5.8 X
Track quality 99.9 %
Copy CRC FF46A8D9
Accurately ripped (confidence 1) [BCDBF0DE]
Copy OK

Track 8

Filename D:\MyMusic\CHARLES MICHAEL BROTMAN - (1990)- Mango Cooler [Global Pacific; R2 79336]\08. Street Dance - Charles Michael Brotman.wav

Peak level 93.9 %
Extraction speed 6.3 X
Track quality 100.0 %
Copy CRC E93B93F5
Accurately ripped (confidence 1) [26DC1EBF]
Copy OK

Track 9

Filename D:\MyMusic\CHARLES MICHAEL BROTMAN - (1990)- Mango Cooler [Global Pacific; R2 79336]\09. Pacific Sunrise - Charles Michael Brotman.wav

Peak level 93.7 %
Extraction speed 6.4 X
Track quality 100.0 %
Copy CRC A9E1334D
Accurately ripped (confidence 1) [97CF9147]
Copy OK

Track 10

Filename D:\MyMusic\CHARLES MICHAEL BROTMAN - (1990)- Mango Cooler [Global Pacific; R2 79336]\10. After the Fall - Charles Michael Brotman.wav

Peak level 98.8 %
Extraction speed 6.9 X
Track quality 100.0 %
Copy CRC 9AA3B00B
Accurately ripped (confidence 1) [1FBCA963]
Copy OK


All tracks accurately ripped

No errors occurred

End of status report