Subcategories
Tags
Language
Tags

Bruce Hornsby - Intersections 1985-2005 (2006) [4CD Box Set]

Posted By: v3122
Bruce Hornsby - Intersections 1985-2005 (2006) [4CD Box Set]

Bruce Hornsby - Intersections 1985-2005 (2006)
EAC | Flac(Image) + Cue + Log & MP3 CBR 320Kbps
4CD | RCA, 82876 78939 2 | ~ 1931 or 711 Mb | Artwork -> 5.99 Mb
Rock, Pop, Jazz, Pop Rock, Jazz-Rock

The type of warm, sophisticated jazz-inflected pop/rock proffered by Bruce Hornsby & the Range was probably the last thing anyone expected to find at the top of the charts in the late '80s. Yet Hornsby, with his virtuosic piano playing and mature song craftsmanship, placed six consecutive singles into the Top 40 between 1986 and 1990, among them the number one "The Way It Is" and the equally solid "Mandolin Rain" and "The Valley Road," both of which reached the Top Five. Hornsby's career has taken many turns in the two decades since his first appearance, and while his commercial fortunes have dissipated, his willingness to grow as a musician, to dodge stagnation, has only expanded. That's what Intersections 1985-2005 is all about. With 2004's single-disc Greatest Radio Hits already out there for those who just want, well, the greatest radio hits, this four-CD/one-DVD kitchen-sink of a box set is intended for the true believer. The CDs are divvied thematically. The first, titled "Top 90 Time," contains the hits, albeit rarely in their familiar studio versions. Most are previously unreleased live and alternate versions, sometimes performed faithfully to the hit renditions, other times warped beyond recognition. With the Range, Hornsby offers his own 2005 take on "The End of the Innocence," the song he wrote for Don Henley, while "The Way It Is" opens the collection in a solo piano version. The second disc is easily the most interesting and eclectic. A mishmash of solo piano noodlings ushers it in, many of them simply assigned letters of the alphabet ("Song A," etc.) and released as album tracks over the years. There are collaborations with the Nitty Gritty Dirt Band (a bluegrass take on "The Valley Road") and jazz legend Ornette Coleman (an unreleased 1995 Coleman composition titled "Hop, Skip and Jump"), and covers of Elton John and Grateful Dead tunes (Hornsby served briefly as a member of the Dead during a transitional period for the band); there's yet another workup of "The Valley Road," one of many songs Hornsby penned with his brother John, which represents that side trip – the live Dead version from 1990 makes a particularly convincing case for his contribution to that band. Various songs recorded for film soundtracks round out the disc. The third and fourth CDs were chosen "By Request," both Hornsby's and fans', and while the surprises are fewer here – much of it consists of album tracks – there are still a number of previously hidden little gems, both solo and in various group configurations, worth investigating. A solo piano version of "Sticks & Stones," which opened up the largely electronic Big Swing Face album in 2002, is a totally unexpected reimagining, and if Hornsby's recent composition "Fortunate Son" (no relation to the Creedence Clearwater Revival classic) bears a resemblance to Pink Floyd's "Comfortably Numb," that's because Hornsby once dueted with that group's Roger Waters on said song and felt inspired to write this tribute. The actual video clip of the Waters collaboration is among the 22 tracks found on the accompanying DVD, which also includes an array of live performances, TV appearances, a handful of music videos (some Spike Lee-directed) and other odds and ends, even a duet with Branford Marsalis on "The Star-Spangled Banner," from the 1997 World Series. This box isn't the place to start a Bruce Hornsby collection, but those who've hung in there with him will find it amply rewarding.

by Jeff Tamarkin, allmusic
Bruce Hornsby - Intersections 1985-2005 (2006):

Bruce Hornsby - Intersections 1985-2005 (2006) [4CD Box Set]

Tracklist CD1. Top 90 Time:

01. The Way It Is (08:36)
02. Mandolin Rain (06:11)
03. The Valley Road (05:07)
04. Jacob's Ladder (03:41)
05. Nobody There But Me (02:53)
06. The End Of The Innocence (06:18)
07. Look Out Any Window (05:06)
08. Across The River (05:10)
09. Lost Soul (06:10)
10. Fields Of Gray / That's Where It's At (08:08)
11. Walk In The Sun (04:44)
12. Gonna Be Some Changes Made (07:27)
13. Dreamland (05:06)

Exact Audio Copy V0.99 prebeta 4 from 23. January 2008

EAC extraction logfile from 3. April 2009, 0:10

Bruce Hornsby / Intersections [1985-2005] (CD 1 - Top 90 Time)

Used drive : SONY CD-RW CRX230ED Adapter: 1 ID: 1

Read mode : Secure
Utilize accurate stream : Yes
Defeat audio cache : Yes
Make use of C2 pointers : No

Read offset correction : 6
Overread into Lead-In and Lead-Out : No
Fill up missing offset samples with silence : Yes
Delete leading and trailing silent blocks : No
Null samples used in CRC calculations : Yes
Used interface : Native Win32 interface for Win NT & 2000
Gap handling : Appended to previous track

Used output format : User Defined Encoder
Selected bitrate : 320 kBit/s
Quality : High
Add ID3 tag : No
Command line compressor : C:\Program Files\Exact Audio Copy\flac.exe
Additional command line options : -V -5 -T "artist=%a" -T "title=%t" -T "album=%g" -T "date=%y" -T "tracknumber=%n" -T "genre=%m" -T comment="%e" -T "comment=Exact Audio Copy (Secure Mode)" %s –verify


TOC of the extracted CD

Track | Start | Length | Start sector | End sector
––––––––––––––––––––––––––––-
1 | 0:00.00 | 8:35.48 | 0 | 38672
2 | 8:35.48 | 6:11.20 | 38673 | 66517
3 | 14:46.68 | 5:06.56 | 66518 | 89523
4 | 19:53.49 | 3:40.60 | 89524 | 106083
5 | 23:34.34 | 2:52.64 | 106084 | 119047
6 | 26:27.23 | 6:17.70 | 119048 | 147392
7 | 32:45.18 | 5:06.21 | 147393 | 170363
8 | 37:51.39 | 5:10.30 | 170364 | 193643
9 | 43:01.69 | 6:09.74 | 193644 | 221392
10 | 49:11.68 | 8:08.17 | 221393 | 258009
11 | 57:20.10 | 4:44.01 | 258010 | 279310
12 | 62:04.11 | 7:27.25 | 279311 | 312860
13 | 69:31.36 | 5:05.40 | 312861 | 335775


Track 1

Filename C:\FlowerJewel\EAC Ripped\Bruce Hornsby - Intersections [1985-2005] (2006) [FLAC]\Disc 1\01 - The Way It Is.wav

Pre-gap length 0:00:02.00

Peak level 96.6 %
Track quality 100.0 %
Test CRC 71AEDE0C
Copy CRC 71AEDE0C
Accurately ripped (confidence 5) [498D7816]
Copy OK

Track 2

Filename C:\FlowerJewel\EAC Ripped\Bruce Hornsby - Intersections [1985-2005] (2006) [FLAC]\Disc 1\02 - Mandolin Rain.wav

Peak level 96.6 %
Track quality 100.0 %
Test CRC 5D88DF3C
Copy CRC 5D88DF3C
Accurately ripped (confidence 5) [49603357]
Copy OK

Track 3

Filename C:\FlowerJewel\EAC Ripped\Bruce Hornsby - Intersections [1985-2005] (2006) [FLAC]\Disc 1\03 - The Valley Road.wav

Peak level 96.6 %
Track quality 100.0 %
Test CRC 67B20374
Copy CRC 67B20374
Accurately ripped (confidence 5) [22BBC43D]
Copy OK

Track 4

Filename C:\FlowerJewel\EAC Ripped\Bruce Hornsby - Intersections [1985-2005] (2006) [FLAC]\Disc 1\04 - Jacob's Ladder.wav

Pre-gap length 0:00:01.22

Peak level 96.6 %
Track quality 99.9 %
Test CRC DAFE1262
Copy CRC DAFE1262
Accurately ripped (confidence 5) [C4AE94B8]
Copy OK

Track 5

Filename C:\FlowerJewel\EAC Ripped\Bruce Hornsby - Intersections [1985-2005] (2006) [FLAC]\Disc 1\05 - Nobody There But Me.wav

Peak level 96.6 %
Track quality 100.0 %
Test CRC 6C13C75B
Copy CRC 6C13C75B
Accurately ripped (confidence 5) [231CDF0E]
Copy OK

Track 6

Filename C:\FlowerJewel\EAC Ripped\Bruce Hornsby - Intersections [1985-2005] (2006) [FLAC]\Disc 1\06 - The End Of The Innocence.wav

Peak level 96.6 %
Track quality 100.0 %
Test CRC E64E201D
Copy CRC E64E201D
Accurately ripped (confidence 5) [2A8B1369]
Copy OK

Track 7

Filename C:\FlowerJewel\EAC Ripped\Bruce Hornsby - Intersections [1985-2005] (2006) [FLAC]\Disc 1\07 - Look Out Any Window.wav

Peak level 96.6 %
Track quality 100.0 %
Test CRC 066E8F68
Copy CRC 066E8F68
Accurately ripped (confidence 5) [BFAF5C0C]
Copy OK

Track 8

Filename C:\FlowerJewel\EAC Ripped\Bruce Hornsby - Intersections [1985-2005] (2006) [FLAC]\Disc 1\08 - Across The River.wav

Pre-gap length 0:00:01.25

Peak level 98.9 %
Track quality 100.0 %
Test CRC 493EF59A
Copy CRC 493EF59A
Accurately ripped (confidence 4) [1CD934C9]
Copy OK

Track 9

Filename C:\FlowerJewel\EAC Ripped\Bruce Hornsby - Intersections [1985-2005] (2006) [FLAC]\Disc 1\09 - Lost Soul.wav

Pre-gap length 0:00:00.71

Peak level 96.6 %
Track quality 100.0 %
Test CRC 7EA17D7C
Copy CRC 7EA17D7C
Accurately ripped (confidence 4) [5E5C19FD]
Copy OK

Track 10

Filename C:\FlowerJewel\EAC Ripped\Bruce Hornsby - Intersections [1985-2005] (2006) [FLAC]\Disc 1\10 - Fields Of Gray , That's Where It's At.wav

Peak level 96.6 %
Track quality 100.0 %
Test CRC 0DC3D569
Copy CRC 0DC3D569
Accurately ripped (confidence 5) [455B0D1C]
Copy OK

Track 11

Filename C:\FlowerJewel\EAC Ripped\Bruce Hornsby - Intersections [1985-2005] (2006) [FLAC]\Disc 1\11 - Walk In The Sun.wav

Peak level 96.2 %
Track quality 100.0 %
Test CRC 0B1E3C0D
Copy CRC 0B1E3C0D
Accurately ripped (confidence 5) [5F24109F]
Copy OK

Track 12

Filename C:\FlowerJewel\EAC Ripped\Bruce Hornsby - Intersections [1985-2005] (2006) [FLAC]\Disc 1\12 - Gonna Be Some Changes Made.wav

Peak level 96.6 %
Track quality 100.0 %
Test CRC 51930CEA
Copy CRC 51930CEA
Accurately ripped (confidence 5) [75815EDC]
Copy OK

Track 13

Filename C:\FlowerJewel\EAC Ripped\Bruce Hornsby - Intersections [1985-2005] (2006) [FLAC]\Disc 1\13 - Dreamland.wav

Peak level 100.0 %
Track quality 99.9 %
Test CRC F84E9C79
Copy CRC F84E9C79
Accurately ripped (confidence 5) [91B4083E]
Copy OK


All tracks accurately ripped

No errors occurred

End of status report

[CUETools log; Date: 11.06.2021 11:16:08; Version: 2.1.4]
[AccurateRip ID: 0023af27-0161d601-d2117d0d] found.
Track [ CRC | V2 ] Status
01 [498d7816|76d1c1b9] (21+40/63) Accurately ripped
02 [49603357|dff678ba] (22+39/63) Accurately ripped
03 [22bbc43d|7e9b929e] (22+40/64) Accurately ripped
04 [c4ae94b8|61059fc0] (22+40/64) Accurately ripped
05 [231cdf0e|47119198] (22+40/64) Accurately ripped
06 [2a8b1369|99c2e8ae] (22+40/64) Accurately ripped
07 [bfaf5c0c|464c12e3] (22+40/64) Accurately ripped
08 [1cd934c9|98a20ac8] (22+39/63) Accurately ripped
09 [5e5c19fd|5f2ff0ce] (22+39/63) Accurately ripped
10 [455b0d1c|0afd31a5] (22+39/63) Accurately ripped
11 [5f24109f|62c7af1c] (22+39/63) Accurately ripped
12 [75815edc|f2d781c2] (22+39/63) Accurately ripped
13 [91b4083e|2b03fd4b] (22+39/63) Accurately ripped
Offsetted by 6:
01 [414f3c47] (00/63) No match (V2 was not tested)
02 [79ccaa73] (00/63) No match (V2 was not tested)
03 [aaa49599] (00/64) No match (V2 was not tested)
04 [4fbab217] (00/64) No match (V2 was not tested)
05 [79c0c6c6] (00/64) No match (V2 was not tested)
06 [5dce1db7] (00/64) No match (V2 was not tested)
07 [8dba6d28] (00/64) No match (V2 was not tested)
08 [440bcdd0] (00/63) No match (V2 was not tested)
09 [dd40bfe1] (00/63) No match (V2 was not tested)
10 [ea0dbbd9] (00/63) No match (V2 was not tested)
11 [231bb874] (00/63) No match (V2 was not tested)
12 [559c95df] (00/63) No match (V2 was not tested)
13 [25d7a506] (00/63) No match (V2 was not tested)

Track Peak [ CRC32 ] [W/O NULL] [ LOG ]
– 100,0 [136324F2] [00234EC5]
01 96,6 [71AEDE0C] [7E64CB42] CRC32
02 96,6 [5D88DF3C] [C659930C] CRC32
03 96,6 [67B20374] [D5982AAA] CRC32
04 96,6 [DAFE1262] [CBB40993] CRC32
05 96,6 [6C13C75B] [2D8C9846] CRC32
06 96,6 [E64E201D] [14E0E615] CRC32
07 96,6 [066E8F68] [7B0093C2] CRC32
08 98,9 [493EF59A] [19306A55] CRC32
09 96,6 [7EA17D7C] [1F9AF314] CRC32
10 96,6 [0DC3D569] [4036CBE4] CRC32
11 96,2 [0B1E3C0D] [92779293] CRC32
12 96,6 [51930CEA] [5D8D7924] CRC32
13 100,0 [F84E9C79] [B09A9383] CRC32


Bruce Hornsby - Intersections 1985-2005 (2006) [4CD Box Set]

Tracklist CD2. Solo Piano, Tribute Records, Country-Bluegrass, Movie Songs:

01. Song A (02:45)
02. Song B (03:28)
03. Song C (02:47)
04. Song D (02:04)
05. Variations on Swan Song & Song D (03:52)
06. Song F (04:14)
07. Song H (03:52)
08. Barcelona Mona (03:58)
09. Backhand (04:58)
10. Jack Straw (05:50)
11. Madman Across the Water (06:11)
12. Darlin' Cory (05:13)
13. The Valley Road (04:11)
14. Crown of Jewels (Live) (06:31)
15. Big Stick (03:14)
16. The Valley Road (Live) (05:12)
17. Hop, Skip and Jump (03:05)
18. Love Me Still (Live) (02:25)
19. Shadowland (05:12)

Exact Audio Copy V0.99 prebeta 4 from 23. January 2008

EAC extraction logfile from 3. April 2009, 0:48

Bruce Hornsby / Intersections [1985-2005] (Disc 2)

Used drive : SONY CD-RW CRX230ED Adapter: 1 ID: 1

Read mode : Secure
Utilize accurate stream : Yes
Defeat audio cache : Yes
Make use of C2 pointers : No

Read offset correction : 6
Overread into Lead-In and Lead-Out : No
Fill up missing offset samples with silence : Yes
Delete leading and trailing silent blocks : No
Null samples used in CRC calculations : Yes
Used interface : Native Win32 interface for Win NT & 2000
Gap handling : Appended to previous track

Used output format : User Defined Encoder
Selected bitrate : 320 kBit/s
Quality : High
Add ID3 tag : No
Command line compressor : C:\Program Files\Exact Audio Copy\flac.exe
Additional command line options : -V -5 -T "artist=%a" -T "title=%t" -T "album=%g" -T "date=%y" -T "tracknumber=%n" -T "genre=%m" -T comment="%e" -T "comment=Exact Audio Copy (Secure Mode)" %s –verify


TOC of the extracted CD

Track | Start | Length | Start sector | End sector
––––––––––––––––––––––––––––-
1 | 0:00.00 | 2:44.49 | 0 | 12348
2 | 2:44.49 | 3:27.66 | 12349 | 27939
3 | 6:12.40 | 2:46.49 | 27940 | 40438
4 | 8:59.14 | 2:04.15 | 40439 | 49753
5 | 11:03.29 | 3:52.00 | 49754 | 67153
6 | 14:55.29 | 4:14.03 | 67154 | 86206
7 | 19:09.32 | 3:51.47 | 86207 | 103578
8 | 23:01.04 | 3:58.05 | 103579 | 121433
9 | 26:59.09 | 4:57.40 | 121434 | 143748
10 | 31:56.49 | 5:50.30 | 143749 | 170028
11 | 37:47.04 | 6:11.20 | 170029 | 197873
12 | 43:58.24 | 5:12.44 | 197874 | 221317
13 | 49:10.68 | 4:11.20 | 221318 | 240162
14 | 53:22.13 | 6:30.53 | 240163 | 269465
15 | 59:52.66 | 3:14.18 | 269466 | 284033
16 | 63:07.09 | 5:12.03 | 284034 | 307436
17 | 68:19.12 | 3:04.39 | 307437 | 321275
18 | 71:23.51 | 2:24.46 | 321276 | 332121
19 | 73:48.22 | 5:12.18 | 332122 | 355539


Track 1

Filename C:\FlowerJewel\EAC Ripped\Bruce Hornsby - Intersections [1985-2005] (2006) [FLAC]\Disc 2\01 - Song A.wav

Pre-gap length 0:00:02.00

Peak level 67.9 %
Track quality 100.0 %
Test CRC 63946CC1
Copy CRC 63946CC1
Accurately ripped (confidence 4) [78140173]
Copy OK

Track 2

Filename C:\FlowerJewel\EAC Ripped\Bruce Hornsby - Intersections [1985-2005] (2006) [FLAC]\Disc 2\02 - Song B.wav

Pre-gap length 0:00:00.09

Peak level 96.7 %
Track quality 99.9 %
Test CRC 27DBF7C9
Copy CRC 27DBF7C9
Accurately ripped (confidence 4) [37EC530E]
Copy OK

Track 3

Filename C:\FlowerJewel\EAC Ripped\Bruce Hornsby - Intersections [1985-2005] (2006) [FLAC]\Disc 2\03 - Song C.wav

Pre-gap length 0:00:00.59

Peak level 96.2 %
Track quality 100.0 %
Test CRC 33860988
Copy CRC 33860988
Accurately ripped (confidence 4) [32E7CB9F]
Copy OK

Track 4

Filename C:\FlowerJewel\EAC Ripped\Bruce Hornsby - Intersections [1985-2005] (2006) [FLAC]\Disc 2\04 - Song D.wav

Pre-gap length 0:00:00.20

Peak level 92.5 %
Track quality 99.9 %
Test CRC A3465136
Copy CRC A3465136
Accurately ripped (confidence 4) [FAED33FB]
Copy OK

Track 5

Filename C:\FlowerJewel\EAC Ripped\Bruce Hornsby - Intersections [1985-2005] (2006) [FLAC]\Disc 2\05 - Variations on Swan Song & Song D.wav

Peak level 96.6 %
Track quality 100.0 %
Test CRC 2564F727
Copy CRC 2564F727
Accurately ripped (confidence 4) [3F1DEE79]
Copy OK

Track 6

Filename C:\FlowerJewel\EAC Ripped\Bruce Hornsby - Intersections [1985-2005] (2006) [FLAC]\Disc 2\06 - Song F.wav

Peak level 88.9 %
Track quality 99.9 %
Test CRC 30F9DD77
Copy CRC 30F9DD77
Accurately ripped (confidence 4) [9BD6097D]
Copy OK

Track 7

Filename C:\FlowerJewel\EAC Ripped\Bruce Hornsby - Intersections [1985-2005] (2006) [FLAC]\Disc 2\07 - Song H.wav

Peak level 96.2 %
Track quality 100.0 %
Test CRC D76FD7E0
Copy CRC D76FD7E0
Accurately ripped (confidence 4) [6827CCD3]
Copy OK

Track 8

Filename C:\FlowerJewel\EAC Ripped\Bruce Hornsby - Intersections [1985-2005] (2006) [FLAC]\Disc 2\08 - Barcelona Mona.wav

Peak level 96.6 %
Track quality 99.9 %
Test CRC 85C14C4D
Copy CRC 85C14C4D
Accurately ripped (confidence 4) [4704AB45]
Copy OK

Track 9

Filename C:\FlowerJewel\EAC Ripped\Bruce Hornsby - Intersections [1985-2005] (2006) [FLAC]\Disc 2\09 - Backhand.wav

Pre-gap length 0:00:03.05

Peak level 89.3 %
Track quality 99.9 %
Test CRC F107A43C
Copy CRC F107A43C
Accurately ripped (confidence 4) [9D499378]
Copy OK

Track 10

Filename C:\FlowerJewel\EAC Ripped\Bruce Hornsby - Intersections [1985-2005] (2006) [FLAC]\Disc 2\10 - Jack Straw.wav

Pre-gap length 0:00:02.27

Peak level 100.0 %
Track quality 100.0 %
Test CRC D778292E
Copy CRC D778292E
Accurately ripped (confidence 4) [B236D0DF]
Copy OK

Track 11

Filename C:\FlowerJewel\EAC Ripped\Bruce Hornsby - Intersections [1985-2005] (2006) [FLAC]\Disc 2\11 - Madman Across the Water.wav

Peak level 97.7 %
Track quality 100.0 %
Test CRC DF121ECA
Copy CRC DF121ECA
Accurately ripped (confidence 4) [5D2643FA]
Copy OK

Track 12

Filename C:\FlowerJewel\EAC Ripped\Bruce Hornsby - Intersections [1985-2005] (2006) [FLAC]\Disc 2\12 - Darlin' Cory.wav

Pre-gap length 0:00:01.32

Peak level 84.3 %
Track quality 100.0 %
Test CRC B0EC44F7
Copy CRC B0EC44F7
Accurately ripped (confidence 4) [BC5746F5]
Copy OK

Track 13

Filename C:\FlowerJewel\EAC Ripped\Bruce Hornsby - Intersections [1985-2005] (2006) [FLAC]\Disc 2\13 - The Valley Road.wav

Pre-gap length 0:00:00.25

Peak level 97.7 %
Track quality 100.0 %
Test CRC 3081FA26
Copy CRC 3081FA26
Accurately ripped (confidence 4) [617A4CAA]
Copy OK

Track 14

Filename C:\FlowerJewel\EAC Ripped\Bruce Hornsby - Intersections [1985-2005] (2006) [FLAC]\Disc 2\14 - Crown of Jewels [Live].wav

Pre-gap length 0:00:00.42

Peak level 97.7 %
Track quality 100.0 %
Test CRC 817C8571
Copy CRC 817C8571
Accurately ripped (confidence 4) [ED021429]
Copy OK

Track 15

Filename C:\FlowerJewel\EAC Ripped\Bruce Hornsby - Intersections [1985-2005] (2006) [FLAC]\Disc 2\15 - Big Stick.wav

Peak level 97.7 %
Track quality 99.9 %
Test CRC 40B4372B
Copy CRC 40B4372B
Accurately ripped (confidence 4) [75602785]
Copy OK

Track 16

Filename C:\FlowerJewel\EAC Ripped\Bruce Hornsby - Intersections [1985-2005] (2006) [FLAC]\Disc 2\16 - The Valley Road [Live].wav

Peak level 97.7 %
Track quality 100.0 %
Test CRC E47376C4
Copy CRC E47376C4
Accurately ripped (confidence 4) [BC0CDDDE]
Copy OK

Track 17

Filename C:\FlowerJewel\EAC Ripped\Bruce Hornsby - Intersections [1985-2005] (2006) [FLAC]\Disc 2\17 - Hop, Skip and Jump.wav

Peak level 85.1 %
Track quality 100.0 %
Test CRC BCCB820C
Copy CRC BCCB820C
Accurately ripped (confidence 4) [8AEAF5EA]
Copy OK

Track 18

Filename C:\FlowerJewel\EAC Ripped\Bruce Hornsby - Intersections [1985-2005] (2006) [FLAC]\Disc 2\18 - Love Me Still [Live].wav

Pre-gap length 0:00:01.10

Peak level 97.7 %
Track quality 100.0 %
Test CRC D733C3A6
Copy CRC D733C3A6
Accurately ripped (confidence 4) [9469BCC2]
Copy OK

Track 19

Filename C:\FlowerJewel\EAC Ripped\Bruce Hornsby - Intersections [1985-2005] (2006) [FLAC]\Disc 2\19 - Shadowland.wav

Pre-gap length 0:00:01.34

Peak level 94.0 %
Track quality 100.0 %
Test CRC B5BDEFDF
Copy CRC B5BDEFDF
Accurately ripped (confidence 4) [534F92DA]
Copy OK


All tracks accurately ripped

No errors occurred

End of status report


[CUETools log; Date: 11.06.2021 11:20:24; Version: 2.1.4]
[AccurateRip ID: 00332538-02e24eb6-13128413] found.
Track [ CRC | V2 ] Status
01 [78140173|a2507a80] (20+39/61) Accurately ripped
02 [37ec530e|b04c546c] (21+39/62) Accurately ripped
03 [32e7cb9f|fe9e0f6f] (21+39/62) Accurately ripped
04 [faed33fb|f0f3d3c3] (21+39/62) Accurately ripped
05 [3f1dee79|5b9516ba] (21+38/61) Accurately ripped
06 [9bd6097d|b17b2c1c] (21+39/62) Accurately ripped
07 [6827ccd3|0614327e] (21+39/62) Accurately ripped
08 [4704ab45|ab20d5f7] (21+39/62) Accurately ripped
09 [9d499378|707f1f62] (21+39/62) Accurately ripped
10 [b236d0df|7e1e5fbe] (21+38/61) Accurately ripped
11 [5d2643fa|cf2611a2] (21+38/61) Accurately ripped
12 [bc5746f5|da0e757c] (21+38/61) Accurately ripped
13 [617a4caa|eb6a469c] (21+39/62) Accurately ripped
14 [ed021429|5244ad16] (21+38/61) Accurately ripped
15 [75602785|98c4396a] (21+38/61) Accurately ripped
16 [bc0cddde|4ad6ab90] (21+36/59) Accurately ripped
17 [8aeaf5ea|9c2571a8] (21+38/61) Accurately ripped
18 [9469bcc2|6dab2f96] (21+39/62) Accurately ripped
19 [534f92da|a883e53a] (21+37/60) Accurately ripped
Offsetted by 6:
01 [e2371237] (00/61) No match (V2 was not tested)
02 [7b065496] (00/62) No match (V2 was not tested)
03 [30ecab4f] (00/62) No match (V2 was not tested)
04 [0679e0da] (00/62) No match (V2 was not tested)
05 [9b72590d] (00/61) No match (V2 was not tested)
06 [65d821a2] (00/62) No match (V2 was not tested)
07 [bfa3706c] (00/62) No match (V2 was not tested)
08 [9e330780] (00/62) No match (V2 was not tested)
09 [47912be0] (00/62) No match (V2 was not tested)
10 [c142b80e] (00/61) No match (V2 was not tested)
11 [c9914d80] (00/61) No match (V2 was not tested)
12 [b6cd1542] (00/61) No match (V2 was not tested)
13 [e7c19993] (00/62) No match (V2 was not tested)
14 [bac119a7] (00/61) No match (V2 was not tested)
15 [fc52a770] (00/61) No match (V2 was not tested)
16 [0fdd8f31] (00/59) No match (V2 was not tested)
17 [2854de49] (00/61) No match (V2 was not tested)
18 [b061fd2c] (00/62) No match (V2 was not tested)
19 [e2291b3e] (00/60) No match (V2 was not tested)

Track Peak [ CRC32 ] [W/O NULL] [ LOG ]
– 100,0 [C1BBB6FE] [18BC4601]
01 67,9 [63946CC1] [9D3F278E] CRC32
02 96,7 [27DBF7C9] [C2F5229A] CRC32
03 96,2 [33860988] [24799CA8] CRC32
04 92,5 [A3465136] [4F522E95] CRC32
05 96,6 [2564F727] [B31FCA75] CRC32
06 88,9 [30F9DD77] [CD474128] CRC32
07 96,2 [D76FD7E0] [6EBE2551] CRC32
08 96,6 [85C14C4D] [EBA874E1] CRC32
09 89,3 [F107A43C] [B097E282] CRC32
10 100,0 [D778292E] [839145E0] CRC32
11 97,7 [DF121ECA] [5463A3D0] CRC32
12 84,3 [B0EC44F7] [9558A19D] CRC32
13 97,7 [3081FA26] [6C73E57D] CRC32
14 97,7 [817C8571] [2E50D677] CRC32
15 97,7 [40B4372B] [B6302AF7] CRC32
16 97,7 [E47376C4] [767E8947] CRC32
17 85,1 [BCCB820C] [84B29336] CRC32
18 97,7 [D733C3A6] [81B3F00A] CRC32
19 94,0 [B5BDEFDF] [098CC0B0] CRC32


Bruce Hornsby - Intersections 1985-2005 (2006) [4CD Box Set]

Tracklist CD3. "By Request" (Favorites and Best Songs) - Part 1:

01. The Show Goes on (08:58)
02. Barren Ground (05:26)
03. A Night on the Town (13:19)
04. Talk of the Town (05:42)
05. Rainbow's Cadillac (04:38)
06. Pastures of Plenty (06:30)
07. Spider Fingers / Tempus Fugit (09:48)
08. White Wheeled Limousine / Long Black Veil (11:50)
09. King of the Hill / Twelve Tone Tune / Mystery Train (12:54)

Exact Audio Copy V0.99 prebeta 4 from 23. January 2008

EAC extraction logfile from 3. April 2009, 1:23

Bruce Hornsby / Intersections [1985-2005] (CD 3 - 'By Request' Favorites and Best Songs)

Used drive : SONY CD-RW CRX230ED Adapter: 1 ID: 1

Read mode : Secure
Utilize accurate stream : Yes
Defeat audio cache : Yes
Make use of C2 pointers : No

Read offset correction : 6
Overread into Lead-In and Lead-Out : No
Fill up missing offset samples with silence : Yes
Delete leading and trailing silent blocks : No
Null samples used in CRC calculations : Yes
Used interface : Native Win32 interface for Win NT & 2000
Gap handling : Appended to previous track

Used output format : User Defined Encoder
Selected bitrate : 320 kBit/s
Quality : High
Add ID3 tag : No
Command line compressor : C:\Program Files\Exact Audio Copy\flac.exe
Additional command line options : -V -5 -T "artist=%a" -T "title=%t" -T "album=%g" -T "date=%y" -T "tracknumber=%n" -T "genre=%m" -T comment="%e" -T "comment=Exact Audio Copy (Secure Mode)" %s –verify


TOC of the extracted CD

Track | Start | Length | Start sector | End sector
––––––––––––––––––––––––––––-
1 | 0:00.00 | 8:57.47 | 0 | 40321
2 | 8:57.47 | 5:26.30 | 40322 | 64801
3 | 14:24.02 | 13:19.02 | 64802 | 124728
4 | 27:43.04 | 5:41.74 | 124729 | 150377
5 | 33:25.03 | 4:38.05 | 150378 | 171232
6 | 38:03.08 | 6:29.51 | 171233 | 200458
7 | 44:32.59 | 9:47.42 | 200459 | 244525
8 | 54:20.26 | 11:49.40 | 244526 | 297740
9 | 66:09.66 | 12:53.41 | 297741 | 355756


Track 1

Filename C:\FlowerJewel\EAC Ripped\Bruce Hornsby - Intersections [1985-2005] (2006) [FLAC]\Disc 3\01 - The Show Goes on.wav

Pre-gap length 0:00:02.00

Peak level 97.7 %
Track quality 100.0 %
Test CRC F2EAE03A
Copy CRC F2EAE03A
Accurately ripped (confidence 5) [740DA07B]
Copy OK

Track 2

Filename C:\FlowerJewel\EAC Ripped\Bruce Hornsby - Intersections [1985-2005] (2006) [FLAC]\Disc 3\02 - Barren Ground.wav

Peak level 97.7 %
Track quality 99.9 %
Test CRC D37C14E6
Copy CRC D37C14E6
Accurately ripped (confidence 5) [8D09740C]
Copy OK

Track 3

Filename C:\FlowerJewel\EAC Ripped\Bruce Hornsby - Intersections [1985-2005] (2006) [FLAC]\Disc 3\03 - A Night on the Town.wav

Peak level 85.2 %
Track quality 100.0 %
Test CRC FE60309B
Copy CRC FE60309B
Accurately ripped (confidence 5) [A60C329F]
Copy OK

Track 4

Filename C:\FlowerJewel\EAC Ripped\Bruce Hornsby - Intersections [1985-2005] (2006) [FLAC]\Disc 3\04 - Talk of the Town.wav

Peak level 97.7 %
Track quality 100.0 %
Test CRC FE57421E
Copy CRC FE57421E
Accurately ripped (confidence 5) [BC6357D1]
Copy OK

Track 5

Filename C:\FlowerJewel\EAC Ripped\Bruce Hornsby - Intersections [1985-2005] (2006) [FLAC]\Disc 3\05 - Rainbow's Cadillac.wav

Peak level 97.7 %
Track quality 100.0 %
Test CRC 36D1449C
Copy CRC 36D1449C
Accurately ripped (confidence 5) [CDD505D2]
Copy OK

Track 6

Filename C:\FlowerJewel\EAC Ripped\Bruce Hornsby - Intersections [1985-2005] (2006) [FLAC]\Disc 3\06 - Pastures of Plenty.wav

Pre-gap length 0:00:01.43

Peak level 97.7 %
Track quality 100.0 %
Test CRC 1DEC50D2
Copy CRC 1DEC50D2
Accurately ripped (confidence 5) [D6CDA542]
Copy OK

Track 7

Filename C:\FlowerJewel\EAC Ripped\Bruce Hornsby - Intersections [1985-2005] (2006) [FLAC]\Disc 3\07 - Spider Fingers , Tempus Fugit.wav

Peak level 99.8 %
Track quality 100.0 %
Test CRC FC4CFA76
Copy CRC FC4CFA76
Accurately ripped (confidence 5) [7849F8F6]
Copy OK

Track 8

Filename C:\FlowerJewel\EAC Ripped\Bruce Hornsby - Intersections [1985-2005] (2006) [FLAC]\Disc 3\08 - White Wheeled Limousine , Long Black Veil.wav

Peak level 97.7 %
Track quality 100.0 %
Test CRC 0AC383C9
Copy CRC 0AC383C9
Accurately ripped (confidence 5) [DFDB9392]
Copy OK

Track 9

Filename C:\FlowerJewel\EAC Ripped\Bruce Hornsby - Intersections [1985-2005] (2006) [FLAC]\Disc 3\09 - King of the Hill , Twelve Tone Tune , Mystery Train.wav

Peak level 97.7 %
Track quality 100.0 %
Test CRC 9AD790C4
Copy CRC 9AD790C4
Accurately ripped (confidence 4) [085162B1]
Copy OK


All tracks accurately ripped

No errors occurred

End of status report


[CUETools log; Date: 11.06.2021 11:24:46; Version: 2.1.4]
[AccurateRip ID: 00192d1b-00b9649b-87128709] found.
Track [ CRC | V2 ] Status
01 [740da07b|4fc13014] (21+38/61) Accurately ripped
02 [8d09740c|bbd1b218] (22+38/62) Accurately ripped
03 [a60c329f|90216fc1] (22+38/62) Accurately ripped
04 [bc6357d1|49eb61f7] (22+38/62) Accurately ripped
05 [cdd505d2|11b151a4] (22+37/61) Accurately ripped
06 [d6cda542|cdbf0605] (22+37/61) Accurately ripped
07 [7849f8f6|5cb8cda7] (22+37/61) Accurately ripped
08 [dfdb9392|43a279c5] (21+37/60) Accurately ripped
09 [085162b1|58b9e63d] (22+37/61) Accurately ripped
Offsetted by 6:
01 [983170ef] (00/61) No match (V2 was not tested)
02 [b0eab493] (00/62) No match (V2 was not tested)
03 [36d65528] (00/62) No match (V2 was not tested)
04 [5fb3e9ba] (00/62) No match (V2 was not tested)
05 [a282c458] (00/61) No match (V2 was not tested)
06 [52f8e561] (00/61) No match (V2 was not tested)
07 [17b22965] (00/61) No match (V2 was not tested)
08 [c76f40c5] (00/60) No match (V2 was not tested)
09 [e7074f8f] (00/61) No match (V2 was not tested)

Track Peak [ CRC32 ] [W/O NULL] [ LOG ]
– 99,8 [DF5DAE3C] [B22CA203]
01 97,7 [F2EAE03A] [99DF2E14] CRC32
02 97,7 [D37C14E6] [3B0C2914] CRC32
03 85,2 [FE60309B] [45D8D18D] CRC32
04 97,7 [FE57421E] [67AD9EE6] CRC32
05 97,7 [36D1449C] [6A2F84A2] CRC32
06 97,7 [1DEC50D2] [B60A2906] CRC32
07 99,8 [FC4CFA76] [5BB727FD] CRC32
08 97,7 [0AC383C9] [5C12A837] CRC32
09 97,7 [9AD790C4] [5522D97E] CRC32


Bruce Hornsby - Intersections 1985-2005 (2006) [4CD Box Set]

Tracklist CD4. "By Request" (Favorites and Best Songs) - Part 2:

01. Resting Place (09:58)
02. Preacher in the Ring, Part I (05:01)
03. Preacher in the Ring, Part II (04:49)
04. Fortunate Son / Comfortably Numb (09:45)
05. Sneaking Up on Boo Radley (08:17)
06. Shadowhand (03:55)
07. Stickes & Stones (03:37)
08. The Chill (04:07)
09. The Good Life (03:48)
10. What the Hell Happened (03:56)
11. Hooray for Tom (03:56)
12. Candy Mountain Run (07:39)

Exact Audio Copy V0.99 prebeta 4 from 23. January 2008

EAC extraction logfile from 3. April 2009, 1:55

Bruce Hornsby / Intersections [1985 - 2005] (CD 4 - 'By Request', Part 2)

Used drive : SONY CD-RW CRX230ED Adapter: 1 ID: 1

Read mode : Secure
Utilize accurate stream : Yes
Defeat audio cache : Yes
Make use of C2 pointers : No

Read offset correction : 6
Overread into Lead-In and Lead-Out : No
Fill up missing offset samples with silence : Yes
Delete leading and trailing silent blocks : No
Null samples used in CRC calculations : Yes
Used interface : Native Win32 interface for Win NT & 2000
Gap handling : Appended to previous track

Used output format : User Defined Encoder
Selected bitrate : 320 kBit/s
Quality : High
Add ID3 tag : No
Command line compressor : C:\Program Files\Exact Audio Copy\flac.exe
Additional command line options : -V -5 -T "artist=%a" -T "title=%t" -T "album=%g" -T "date=%y" -T "tracknumber=%n" -T "genre=%m" -T comment="%e" -T "comment=Exact Audio Copy (Secure Mode)" %s –verify


TOC of the extracted CD

Track | Start | Length | Start sector | End sector
––––––––––––––––––––––––––––-
1 | 0:00.00 | 9:58.20 | 0 | 44869
2 | 9:58.20 | 5:01.02 | 44870 | 67446
3 | 14:59.22 | 4:48.39 | 67447 | 89085
4 | 19:47.61 | 9:44.52 | 89086 | 132937
5 | 29:32.38 | 8:17.29 | 132938 | 170241
6 | 37:49.67 | 3:55.17 | 170242 | 187883
7 | 41:45.09 | 3:37.13 | 187884 | 204171
8 | 45:22.22 | 4:07.24 | 204172 | 222720
9 | 49:29.46 | 3:47.70 | 222721 | 239815
10 | 53:17.41 | 3:56.06 | 239816 | 257521
11 | 57:13.47 | 3:56.37 | 257522 | 275258
12 | 61:10.09 | 7:39.37 | 275259 | 309720


Track 1

Filename C:\FlowerJewel\EAC Ripped\Bruce Hornsby - Intersections [1985-2005] (2006) [FLAC]\Disc 4\01 - Resting Place.wav

Pre-gap length 0:00:02.00

Peak level 96.6 %
Track quality 100.0 %
Test CRC D5C4C6E9
Copy CRC D5C4C6E9
Accurately ripped (confidence 4) [DEF51C07]
Copy OK

Track 2

Filename C:\FlowerJewel\EAC Ripped\Bruce Hornsby - Intersections [1985-2005] (2006) [FLAC]\Disc 4\02 - Preacher in the Ring, Part I.wav

Peak level 96.2 %
Track quality 100.0 %
Test CRC 1374F4A9
Copy CRC 1374F4A9
Accurately ripped (confidence 4) [FBEB8F9A]
Copy OK

Track 3

Filename C:\FlowerJewel\EAC Ripped\Bruce Hornsby - Intersections [1985-2005] (2006) [FLAC]\Disc 4\03 - Preacher in the Ring, Part II.wav

Peak level 97.7 %
Track quality 100.0 %
Test CRC 72E87BBE
Copy CRC 72E87BBE
Accurately ripped (confidence 4) [AB5B8FE7]
Copy OK

Track 4

Filename C:\FlowerJewel\EAC Ripped\Bruce Hornsby - Intersections [1985-2005] (2006) [FLAC]\Disc 4\04 - Fortunate Son , Comfortably Numb.wav

Pre-gap length 0:00:02.09

Peak level 97.7 %
Track quality 100.0 %
Test CRC 4EB77729
Copy CRC 4EB77729
Accurately ripped (confidence 4) [85A0B8E2]
Copy OK

Track 5

Filename C:\FlowerJewel\EAC Ripped\Bruce Hornsby - Intersections [1985-2005] (2006) [FLAC]\Disc 4\05 - Sneaking Up on Boo Radley.wav

Peak level 97.7 %
Track quality 100.0 %
Test CRC 7C023F9E
Copy CRC 7C023F9E
Accurately ripped (confidence 4) [0D2E393A]
Copy OK

Track 6

Filename C:\FlowerJewel\EAC Ripped\Bruce Hornsby - Intersections [1985-2005] (2006) [FLAC]\Disc 4\06 - Shadowhand.wav

Pre-gap length 0:00:01.50

Peak level 97.7 %
Track quality 100.0 %
Test CRC FBE799A6
Copy CRC FBE799A6
Accurately ripped (confidence 4) [A97AA84A]
Copy OK

Track 7

Filename C:\FlowerJewel\EAC Ripped\Bruce Hornsby - Intersections [1985-2005] (2006) [FLAC]\Disc 4\07 - Stickes & Stones.wav

Peak level 97.7 %
Track quality 99.9 %
Test CRC 70901414
Copy CRC 70901414
Accurately ripped (confidence 4) [A39568D2]
Copy OK

Track 8

Filename C:\FlowerJewel\EAC Ripped\Bruce Hornsby - Intersections [1985-2005] (2006) [FLAC]\Disc 4\08 - The Chill.wav

Peak level 99.9 %
Track quality 100.0 %
Test CRC 3C6D1538
Copy CRC 3C6D1538
Accurately ripped (confidence 4) [D8CA3847]
Copy OK

Track 9

Filename C:\FlowerJewel\EAC Ripped\Bruce Hornsby - Intersections [1985-2005] (2006) [FLAC]\Disc 4\09 - The Good Life.wav

Peak level 97.7 %
Track quality 100.0 %
Test CRC A8467BE1
Copy CRC A8467BE1
Accurately ripped (confidence 4) [654FFEFD]
Copy OK

Track 10

Filename C:\FlowerJewel\EAC Ripped\Bruce Hornsby - Intersections [1985-2005] (2006) [FLAC]\Disc 4\10 - What the Hell Happened.wav

Pre-gap length 0:00:02.55

Peak level 97.7 %
Track quality 99.9 %
Test CRC FA0F0115
Copy CRC FA0F0115
Accurately ripped (confidence 4) [2A4DB65E]
Copy OK

Track 11

Filename C:\FlowerJewel\EAC Ripped\Bruce Hornsby - Intersections [1985-2005] (2006) [FLAC]\Disc 4\11 - Hooray for Tom.wav

Pre-gap length 0:00:02.36

Peak level 86.1 %
Track quality 100.0 %
Test CRC BABF8259
Copy CRC BABF8259
Accurately ripped (confidence 4) [39F98652]
Copy OK

Track 12

Filename C:\FlowerJewel\EAC Ripped\Bruce Hornsby - Intersections [1985-2005] (2006) [FLAC]\Disc 4\12 - Candy Mountain Run.wav

Pre-gap length 0:00:02.22

Peak level 97.7 %
Track quality 100.0 %
Test CRC C46E89CF
Copy CRC C46E89CF
Accurately ripped (confidence 4) [DEA8B9BD]
Copy OK


All tracks accurately ripped

No errors occurred

End of status report


[CUETools log; Date: 11.06.2021 11:30:04; Version: 2.1.4]
[AccurateRip ID: 0021984e-012edb44-ab10210c] found.
Track [ CRC | V2 ] Status
01 [def51c07|e6fd4491] (18+38/58) Accurately ripped
02 [fbeb8f9a|db0daa74] (19+37/58) Accurately ripped
03 [ab5b8fe7|f0b0c69b] (19+38/59) Accurately ripped
04 [85a0b8e2|15885e12] (19+37/58) Accurately ripped
05 [0d2e393a|224b783c] (19+36/57) Accurately ripped
06 [a97aa84a|cb2ac55e] (19+38/59) Accurately ripped
07 [a39568d2|2539b62e] (19+37/58) Accurately ripped
08 [d8ca3847|ffb730f1] (19+37/58) Accurately ripped
09 [654ffefd|cd55557c] (20+37/59) Accurately ripped
10 [2a4db65e|bdb7c3ae] (20+37/59) Accurately ripped
11 [39f98652|00c4c386] (20+37/59) Accurately ripped
12 [dea8b9bd|2a9d721a] (20+37/59) Accurately ripped
Offsetted by 6:
01 [2bce17bd] (00/58) No match (V2 was not tested)
02 [ece2f26a] (00/58) No match (V2 was not tested)
03 [f2104e60] (00/59) No match (V2 was not tested)
04 [67ab523a] (00/58) No match (V2 was not tested)
05 [04dbbee3] (00/57) No match (V2 was not tested)
06 [c2702564] (00/59) No match (V2 was not tested)
07 [306d6ec7] (00/58) No match (V2 was not tested)
08 [33a51464] (00/58) No match (V2 was not tested)
09 [becba148] (00/59) No match (V2 was not tested)
10 [7cd1a1cc] (00/59) No match (V2 was not tested)
11 [360d10b1] (00/59) No match (V2 was not tested)
12 [ff060f6b] (00/59) No match (V2 was not tested)

Track Peak [ CRC32 ] [W/O NULL] [ LOG ]
– 99,9 [FB860E4E] [5B234BF9]
01 96,6 [D5C4C6E9] [77693031] CRC32
02 96,2 [1374F4A9] [57B0D925] CRC32
03 97,7 [72E87BBE] [2EFB5B90] CRC32
04 97,7 [4EB77729] [4C64B21F] CRC32
05 97,7 [7C023F9E] [6F7C6D6B] CRC32
06 97,7 [FBE799A6] [EFD16C1B] CRC32
07 97,7 [70901414] [A1C8A859] CRC32
08 99,9 [3C6D1538] [57DFC5FF] CRC32
09 97,7 [A8467BE1] [EA4D38C6] CRC32
10 97,7 [FA0F0115] [8C9B5D75] CRC32
11 86,1 [BABF8259] [48AC9584] CRC32
12 97,7 [C46E89CF] [111D7D75] CRC32


Bruce Hornsby - Intersections 1985-2005 (2006) [4CD Box Set]

All thanks go to the original releaser

Bruce Hornsby in my Blog

Download Bruce Hornsby - Intersections 1985-2005 (2006):