Tags
Language
Tags
June 2024
Su Mo Tu We Th Fr Sa
26 27 28 29 30 31 1
2 3 4 5 6 7 8
9 10 11 12 13 14 15
16 17 18 19 20 21 22
23 24 25 26 27 28 29
30 1 2 3 4 5 6

Bruce Brubaker - Glass Cage: Music for piano by Philip Glass and John Cage (2000)

Posted By: Designol
Bruce Brubaker - Glass Cage: Music for piano by Philip Glass and John Cage (2000)

Bruce Brubaker - Glass Cage: Music for piano by Philip Glass and John Cage (2000)
EAC | FLAC | Image (Cue&Log) ~ 243 Mb | Mp3 (CBR320) ~ 191 Mb | Scans included
Classical, Minimalism | Label: Arabesque | # Z6744 | Time: 01:03:35

Though he may not be a piano superstar, Bruce Brubaker is clearly a musician to watch. On this recording of solo piano works by Philip Glass and John Cage, Brubaker somehow shifts between these two very different modernist composers to create a seamless disc of mesmerizing keyboard music. While Glass's own playing is often precise and austere, Brubaker is a different beast altogether. With him, we get a hint of Impressionism and a sense of contemplation with each note. The five parts of Metamorphosis are given shades of melancholy, along with frenzy; on the expansive "Mad Rush," Brubaker goes wild where he has to, but always returns to the piece's calming, sweet center. The piano music of John Cage is limited to just two cuts–"A Room" and "Dream"–but they, too, are hauntingly beautiful (especially the latter, longer piece). For anyone who has grown tired of Philip Glass's recent electronic keyboard forays or the ubiquitous prepared-piano CDs of John Cage, Glass Cage will sound like a fresh and sublime homecoming to two musical mavericks. Recommended.

Review by Jason Verlinde

Bruce Brubaker - Glass Cage: Music for piano by Philip Glass and John Cage (2000)



Tracklist:

01. Philip Glass - Satyagraha (Act 3, Conclusion) (08:13)

02. John Cage - 'A Room' (from She is Asleep) (02:18)

03. Philip Glass - Metamorphosis One (06:29)
04. Philip Glass - Metamorphosis Two (06:25)
05. Philip Glass - Metamorphosis Three (05:00)
06. Philip Glass - Metamorphosis Four (08:02)
07. Philip Glass - Metamorphosis Five (05:14)

08. John Cage - Dream (07:48)

09. Philip Glass - Mad Rush (14:03)


Exact Audio Copy V0.99 prebeta 5 from 4. May 2009

Отчёт EAC об извлечении, выполненном 7. апреля 2010, 20:23

Bruce Brubaker / Glass Cage

Дисковод: Optiarc DVD RW AD-7203A Adapter: 4 ID: 1

Режим чтения : Достоверность
Использование точного потока : Да
Отключение кэша аудио : Да
Использование указателей C2 : Нет

Коррекция смещения при чтении : 48
Способность читать области Lead-in и Lead-out : Нет
Заполнение пропущенных сэмплов тишиной : Да
Удаление блоков с тишиной в начале и конце : Нет
При вычислениях CRC использовались нулевые сэмплы : Да
Интерфейс : Встроенный Win32-интерфейс для Win NT/2000

Выходной формат : Пользовательский кодировщик
Выбранный битрейт : 128 kBit/s
Качество : Высокий
Добавление ID3-тэга : Нет
Утилита сжатия : C:\Program Files\FLAC\flac.exe
Дополнительные параметры : -5 -V %s


TOC извлечённого CD

Трек | Старт | Длительность | Начальный сектор | Конечный сектор
––––––––––––––––––––––––––––––––––-
1 | 0:00.00 | 8:13.60 | 0 | 37034
2 | 8:13.60 | 2:18.05 | 37035 | 47389
3 | 10:31.65 | 6:29.32 | 47390 | 76596
4 | 17:01.22 | 6:25.08 | 76597 | 105479
5 | 23:26.30 | 5:00.00 | 105480 | 127979
6 | 28:26.30 | 8:02.05 | 127980 | 164134
7 | 36:28.35 | 5:14.70 | 164135 | 187754
8 | 41:43.30 | 7:48.20 | 187755 | 222874
9 | 49:31.50 | 14:03.25 | 222875 | 286124


Характеристики диапазона извлечения и сообщения об ошибках

Выбранный диапазон

Имя файла D:\EAC\Bruce Brubaker - Glass Cage.wav

Пиковый уровень 98.1 %
Качество диапазона 100.0 %
CRC теста 46DFCA21
CRC копии 46DFCA21
Копирование… OK

Ошибок не произошло


AccurateRip: сводка

Трек 1 точность не определена (достоверность 2) [5E493B0A], AccurateRip вернул [E2504829]
Трек 2 точность не определена (достоверность 2) [F276901A], AccurateRip вернул [9BF5A662]
Трек 3 точность не определена (достоверность 2) [D18CE9A9], AccurateRip вернул [76F15B90]
Трек 4 точность не определена (достоверность 2) [2DC84839], AccurateRip вернул [3D779215]
Трек 5 точность не определена (достоверность 2) [AB5F388D], AccurateRip вернул [B714A0F7]
Трек 6 точность не определена (достоверность 2) [52FB3077], AccurateRip вернул [D7772811]
Трек 7 точность не определена (достоверность 2) [6D0286B9], AccurateRip вернул [B1872631]
Трек 8 точность не определена (достоверность 2) [4C309621], AccurateRip вернул [C42CB0E2]
Трек 9 точность не определена (достоверность 2) [F01F43C1], AccurateRip вернул [B2FF34E4]

Ни один трек не прошёл проверки на точность
В вашей базе может быть иной вариант штамповки диска

Конец отчёта

foobar2000 1.2 / Dynamic Range Meter 1.1.1
log date: 2015-03-23 15:14:33

––––––––––––––––––––––––––––––––––––––––
Analyzed: Bruce Brubaker / Glass Cage
––––––––––––––––––––––––––––––––––––––––

DR Peak RMS Duration Track
––––––––––––––––––––––––––––––––––––––––
DR12 -4.80 dB -21.18 dB 8:14 01-Philip Glass - Satyagraha (Act 3, Conclusion)
DR10 -18.53 dB -32.14 dB 2:18 02-John Cage - 'A Room' (from She is Asleep)
DR14 -3.16 dB -24.22 dB 6:29 03-Philip Glass - Metamorphosis One
DR12 -3.38 dB -23.25 dB 6:25 04-Philip Glass - Metamorphosis Two
DR11 -3.41 dB -19.57 dB 5:00 05-Philip Glass - Metamorphosis Three
DR12 -1.42 dB -19.83 dB 8:02 06-Philip Glass - Metamorphosis Four
DR13 -11.61 dB -30.11 dB 5:15 07-Philip Glass - Metamorphosis Five
DR12 -22.70 dB -39.24 dB 7:48 08-John Cage - Dream
DR11 -0.16 dB -19.07 dB 14:03 09-Philip Glass - Mad Rush
––––––––––––––––––––––––––––––––––––––––

Number of tracks: 9
Official DR value: DR12

Samplerate: 44100 Hz
Channels: 2
Bits per sample: 16
Bitrate: 434 kbps
Codec: FLAC
================================================================================

Bruce Brubaker - Glass Cage: Music for piano by Philip Glass and John Cage (2000)

All thanks to original releaser - GFox

More interesting music in My Blog