Subcategories

Bruno Meier - Hoffmeister: Flute Concertos, Vol. 2 (2013)

Posted By: tirexiss
Bruno Meier - Hoffmeister: Flute Concertos, Vol. 2 (2013)

Bruno Meier - Hoffmeister: Flute Concertos, Vol. 2 (2013)
EAC | FLAC (image+.cue, log) | Covers Included | 74:14 | 374 MB
Genre: Classical | Label: Naxos | Catalog: 8573040

Franz Anton Hoffmeister was a formative figure in the musical life of his time and highly regarded as a publisher of famous contemporaries such as Mozart, Haydn and Beethoven. The variety and appeal of his own works also made him a popular and renowned composer. As with volume 1 of this series (8572738), flautist Bruno Meier has created new editions of these previously unknown works. With elegant and catchy themes, substantial proportions, intriguing major/minor contrasts of key and virtuoso solo writing, Hoffmeister satisfied the tastes of his time finding a perfect balance between grace and artistry.

Bruno Meier - Hoffmeister: Flute Concertos, Vol. 2 (2013)

Track List:

01. Flute Concerto No.16 in C major - I. Allegro [0:12:27.71]
02. Flute Concerto No.16 in C major - II. Adagio [0:06:10.10]
03. Flute Concerto No.16 in C major - III. Rondo [0:05:56.40]
04. Flute Concerto No.22 in G major - I. Allegro [0:12:52.20]
05. Flute Concerto No.22 in G major - II. Romanze Adagio [0:05:21.65]
06. Flute Concerto No.22 in G major - III. Rondo Allegretto [0:06:18.41]
07. Flute Concerto No.17 in D major - I. Allegro [0:11:43.05]
08. Flute Concerto No.17 in D major - II. Romanze Poco Adagio [0:06:13.47]
09. Flute Concerto No.17 in D major - III. Rondo Allegro [0:07:08.02]

Performers:
Bruno Meier - flute
Prague Chamber Orchestra

Exact Audio Copy V1.0 beta 3 from 29. August 2011

EAC extraction logfile from 2. October 2013, 11:17

Bruno Meier / Hoffmeister - Flute Concertos - Bruno Meier (Vol.2)

Used drive : TSSTcorpCDDVDW SH-222BB Adapter: 2 ID: 1

Read mode : Secure
Utilize accurate stream : Yes
Defeat audio cache : Yes
Make use of C2 pointers : No

Read offset correction : 6
Overread into Lead-In and Lead-Out : No
Fill up missing offset samples with silence : Yes
Delete leading and trailing silent blocks : No
Null samples used in CRC calculations : Yes
Used interface : Native Win32 interface for Win NT & 2000

Used output format : User Defined Encoder
Selected bitrate : 1024 kBit/s
Quality : High
Add ID3 tag : No
Command line compressor : C:\Program Files\Exact Audio Copy\Flac\flac.exe
Additional command line options : -8 -V -T "TITLE=%title%" -T "ARTIST=%artist%" -T "ALBUMARTIST=%albumartist%" -T "ALBUM=%albumtitle%" -T "DATE=%year%" -T "TRACKNUMBER=%tracknr%" -T "TRACKTOTAL=%numtracks%" -T "GENRE=%genre%" -T "COMMENT=%comment%" -T "PERFORMER=%albuminterpret%" -T "COMPOSER=%composer%" %source% -o %dest%


TOC of the extracted CD

Track | Start | Length | Start sector | End sector
––––––––––––––––––––––––––––-
1 | 0:00.00 | 12:27.71 | 0 | 56095
2 | 12:27.71 | 6:10.10 | 56096 | 83855
3 | 18:38.06 | 5:56.40 | 83856 | 110595
4 | 24:34.46 | 12:52.20 | 110596 | 168515
5 | 37:26.66 | 5:21.65 | 168516 | 192655
6 | 42:48.56 | 6:18.41 | 192656 | 221046
7 | 49:07.22 | 11:43.05 | 221047 | 273776
8 | 60:50.27 | 6:13.47 | 273777 | 301798
9 | 67:03.74 | 7:08.02 | 301799 | 333900


Range status and errors

Selected range

Filename G:\Ripped general\[8487] Hoffmeister – Flute Concertos – Bruno Meier (Vol.2)\Hoffmeister - Flute Concertos - Bruno Meier (Vol.2).wav

Peak level 94.6 %
Extraction speed 7.9 X
Range quality 100.0 %
Test CRC 3284B3B3
Copy CRC 3284B3B3
Copy OK

No errors occurred


AccurateRip summary

Track 1 not present in database
Track 2 not present in database
Track 3 not present in database
Track 4 not present in database
Track 5 not present in database
Track 6 not present in database
Track 7 not present in database
Track 8 not present in database
Track 9 not present in database

None of the tracks are present in the AccurateRip database

End of status report

Thanks to the Original ripper (unknown)!

Welcome to my blog!

Download: