Subcategories

Buddy Collette - Six Classic Albums (2017) [6LPs on 4CDs]

Posted By: Designol
Buddy Collette - Six Classic Albums (2017) [6LPs on 4CDs]

Buddy Collette - Six Classic Albums (2017) [6LPs on 4CDs]
EAC | FLAC | Image (Cue&Log) ~ 1.19 Gb | Mp3 (CBR320) ~ 527 Mb | Scans ~ 19 Mb
Cool, West Coast Jazz | Label: Real Gone Jazz | # RGJCD545 | Time: 03:50:05

4CD set. Collects six original albums, including "Man Of Many Parts", "Calm, Cool & Collette", "Nice Day With Buddy Collette", "Jazz Loves Paris", "The Polyhedric Buddy Collette" and "Marx Makes Broadway".

William Marcel "Buddy" Collette was born in Los Angeles USA on 6th August, 1921and died on 19th, 2010.

With the release of "Six Classic Albums" by Buddy Collette you get a load of music for a really cheap price.

I've given this set a full five stars because it contains really great music that is digitally enhanced for a better sound and the fact that this is such a wonderful way to obtain six really great albums by from Buddy for a real steal of a price.

The set has Six Classic Albums contains digitally remastered tracks on 4 CDs packaged in a double sized jewel case.

Information is minimal- the music is the seller of this set.

But Amazon have not, at the time of writing, included the track listing so I have compiled them for you as well as the split of the six albums over the 4 Cds.

The six classic albums are "Man Of Many Parts", "Nice Day With Buddy Collette", "Calm, Cool And Collette", "Marx Makes Broadway (with Dick Marx)", "Jazz Loves Paris" and "The Polyhedric Buddy Collette".

Review by Glenn Cook, Amazon.co.uk

An important force in the Los Angeles jazz community, Buddy Collette was an early pioneer at playing jazz on the flute. Collette started on piano as a child and then gradually learned all of the woodwinds. He played with Les Hite in 1942; led a dance band while in the Navy during World War II; and then freelanced in the L.A. area with such bands as the Stars of Swing (1946), Edgar Hayes, Louis Jordan, Benny Carter, and Gerald Wilson (1949-1950). An early teacher of Charles Mingus, Collette became the first black musician to get a permanent spot in a West Coast studio band (1951-1955). He gained his greatest recognition as an important member of the Chico Hamilton Quintet (1955-1956), and he recorded several albums as a leader in the mid- to late '50s for Contemporary. Otherwise, he mostly stuck to the L.A. area, freelancing, working in the studios, playing in clubs, teaching, and inspiring younger musicians. Although a fine tenor player and a good clarinetist, Collette's most distinctive voice is on flute; he recorded an album with one of his former students, the great James Newton (1989). In addition, Collette participated in a reunion of the Chico Hamilton Quintet, and recorded a two-disc "talking record" for the Issues label in 1994, in which he discussed some of what he had seen and experienced through the years.

Scott Yanow, Allmusic.com

Buddy Collette - Six Classic Albums (2017) [6LPs on 4CDs]



Tracklist:

CD1:

Man of Many Parts (1957)

01. Cycle [2:54]
02. Makin' Whoopee [3:38]
03. Ruby [3:50]
04. St. Andrews Place Blues [3:44]
05. Cheryl Ann [4:37]
06. Sunset Drive [3:22]
07. Jazz City Blues [4:45]
08. Slappy's Tune [3:41]
09. Frenesi [3:44]
10. Santa Monica [4:04]
11. Jungle Pipe [3:22]
12. Zan [3:22]

Nice Day with Buddy Collette (1957)

13. Nice Day [4:18]
14. There Will Never Be Another You [4:25]
15. Minor Deviation [4:41]
16. Over the Rainbow [5:14]
17. Change It [3:15]

CD2:

Nice Day with Buddy Collette (1957) cont.

01. Moten Swing [3:25]
02. I'll Remember April [3:07]
03. Blues for Howard [4:02]
04. Fall Winds [6:26]
05. Buddy Boo [4:33]

Calm, Cool and Collette (1957)

06. Winston Walks [2:59]
07. If She Had Stayed [3:40]
08. They Can't Take That Away from Me [3:53]
09. Undecided [3:21]
10. Flute in "D" [4:57]
11. The Continental [3:12]
12. Three and One [3:37]
13. Night in Tunisia [4:15]
14. Johnny Walks [6:27]
15. Perfidia [3:02]
16. Morning Jazz [3:45]

CD3:

Marx Makes Broadway (With Dick Marx) (1958)

01. Joey Joey [3:26]
02. Why Can't You Behave [3:53]
03. All of You [3:51]
04. Cool [4:34]
05. Too Close for Comfort [3:18]
06. If I Were a Bell [3:27]
07. Baubles, Bangles and Beads [2:18]
08. A Sleepin' Bee [5:27]
09. Guys and Dolls [2:37]
10. Just in Time [3:43]

Jazz Loves Paris (1960)

11. I Love Paris [2:19]
12. Pigalle [2:23]
13. La Vie en Rose [3:54]
14. Darling, Je Vous Aime Beaucoup [2:49]
15. Mam'selle [1:19]

CD4:

Jazz Loves Paris (1960) cont.

01. C'est Si Bon [3:07]
02. Domino [2:20]
03. The Song from Moulin Rouge [2:36]
04. The Last Time I Saw Paris [4:40]
05. Under Paris Skies [2:33]

The Polyhedric Buddy Collette (1961)

06. Orfeo Negro [2:34]
07. Blues for Nicola [4:12]
08. Mounya Labeli Matatoo [5:14]
09. Paddi [4:11]
10. A Taste of Fresh Air [4:02]
11. Pickford Street [4:18]
12. Skater for Mater [3:27]
13. Blues [5:56]


Exact Audio Copy V1.0 beta 3 from 29. August 2011

EAC extraction logfile from 2. September 2018, 17:24

Buddy Collette / Six Classic Albums - CD1

Used drive : TSSTcorpCDDVDW SH-224FB Adapter: 1 ID: 0

Read mode : Secure
Utilize accurate stream : Yes
Defeat audio cache : Yes
Make use of C2 pointers : No

Read offset correction : 6
Overread into Lead-In and Lead-Out : No
Fill up missing offset samples with silence : Yes
Delete leading and trailing silent blocks : No
Null samples used in CRC calculations : Yes
Used interface : Native Win32 interface for Win NT & 2000

Used output format : User Defined Encoder
Selected bitrate : 128 kBit/s
Quality : High
Add ID3 tag : No
Command line compressor : C:\Program Files (x86)\Exact Audio Copy\Flac\flac.exe
Additional command line options : -V -8 -T "Genre=%genre%" -T "Artist=%artist%" -T "Title=%title%" -T "Album=%albumtitle%" -T "Date=%year%" -T "Tracknumber=%tracknr%" -T "Comment=%comment%" %source%


TOC of the extracted CD

Track | Start | Length | Start sector | End sector
––––––––––––––––––––––––––––-
1 | 0:00.00 | 2:53.41 | 0 | 13015
2 | 2:53.41 | 3:38.37 | 13016 | 29402
3 | 6:32.03 | 3:50.25 | 29403 | 46677
4 | 10:22.28 | 3:44.26 | 46678 | 63503
5 | 14:06.54 | 4:36.59 | 63504 | 84262
6 | 18:43.38 | 3:21.44 | 84263 | 99381
7 | 22:05.07 | 4:44.69 | 99382 | 120750
8 | 26:50.01 | 3:41.03 | 120751 | 137328
9 | 30:31.04 | 3:44.37 | 137329 | 154165
10 | 34:15.41 | 4:03.72 | 154166 | 172462
11 | 38:19.38 | 3:21.53 | 172463 | 187590
12 | 41:41.16 | 3:22.35 | 187591 | 202775
13 | 45:03.51 | 4:17.41 | 202776 | 222091
14 | 49:21.17 | 4:25.02 | 222092 | 241968
15 | 53:46.19 | 4:40.56 | 241969 | 263024
16 | 58:27.00 | 5:13.64 | 263025 | 286563
17 | 63:40.64 | 3:15.23 | 286564 | 301211


Range status and errors

Selected range

Filename D:\1\ssagwebster\Buddy Collette - Six Classic Albums (4CD, 2017)\CD1\Buddy Collette - Six Classic Albums - CD1.wav

Peak level 96.5 %
Extraction speed 3.3 X
Range quality 100.0 %
Test CRC 6AE99B21
Copy CRC 6AE99B21
Copy OK

No errors occurred


AccurateRip summary

Track 1 not present in database
Track 2 not present in database
Track 3 not present in database
Track 4 not present in database
Track 5 not present in database
Track 6 not present in database
Track 7 not present in database
Track 8 not present in database
Track 9 not present in database
Track 10 not present in database
Track 11 not present in database
Track 12 not present in database
Track 13 not present in database
Track 14 not present in database
Track 15 not present in database
Track 16 not present in database
Track 17 not present in database

None of the tracks are present in the AccurateRip database

End of status report

==== Log checksum 502B0E2F5F567110B3B7BE8D49228F2C1818EA3A8EADBA40049437CDD19AA822 ====

foobar2000 1.2 / Dynamic Range Meter 1.1.1
log date: 2018-11-12 01:32:11

––––––––––––––––––––––––––––––––––––––––
Analyzed: Buddy Collette / Six Classic Albums CD1
––––––––––––––––––––––––––––––––––––––––

DR Peak RMS Duration Track
––––––––––––––––––––––––––––––––––––––––
DR10 -0.30 dB -11.74 dB 2:54 01-Cycle
DR9 -0.30 dB -11.18 dB 3:38 02-Makin' Whoopee
DR8 -0.30 dB -11.07 dB 3:50 03-Ruby
DR8 -0.30 dB -10.29 dB 3:44 04-St. Andrews Place Blues
DR8 -0.30 dB -10.61 dB 4:37 05-Cheryl Ann
DR9 -0.30 dB -10.69 dB 3:22 06-Sunset Drive
DR9 -0.30 dB -10.99 dB 4:45 07-Jazz City Blues
DR10 -0.30 dB -11.57 dB 3:41 08-Slappy's Tune
DR10 -0.30 dB -11.93 dB 3:44 09-Frenesi
DR9 -0.30 dB -10.77 dB 4:04 10-Santa Monica
DR9 -0.30 dB -10.73 dB 3:22 11-Jungle Pipe
DR9 -0.30 dB -10.75 dB 3:22 12-Zan
DR9 -0.30 dB -10.36 dB 4:18 13-Nice Day
DR9 -0.30 dB -10.55 dB 4:25 14-There Will Never Be Another You
DR8 -0.30 dB -10.42 dB 4:41 15-Minor Deviation
DR9 -0.30 dB -11.40 dB 5:14 16-Over the Rainbow
DR9 -0.30 dB -10.29 dB 3:15 17-Change It
––––––––––––––––––––––––––––––––––––––––

Number of tracks: 17
Official DR value: DR9

Samplerate: 44100 Hz
Channels: 2
Bits per sample: 16
Bitrate: 742 kbps
Codec: FLAC
================================================================================


Exact Audio Copy V1.0 beta 3 from 29. August 2011

EAC extraction logfile from 2. September 2018, 19:35

Buddy Collette / Six Classic Albums - CD2

Used drive : TSSTcorpCDDVDW SH-224FB Adapter: 1 ID: 0

Read mode : Secure
Utilize accurate stream : Yes
Defeat audio cache : Yes
Make use of C2 pointers : No

Read offset correction : 6
Overread into Lead-In and Lead-Out : No
Fill up missing offset samples with silence : Yes
Delete leading and trailing silent blocks : No
Null samples used in CRC calculations : Yes
Used interface : Native Win32 interface for Win NT & 2000

Used output format : User Defined Encoder
Selected bitrate : 128 kBit/s
Quality : High
Add ID3 tag : No
Command line compressor : C:\Program Files (x86)\Exact Audio Copy\Flac\flac.exe
Additional command line options : -V -8 -T "Genre=%genre%" -T "Artist=%artist%" -T "Title=%title%" -T "Album=%albumtitle%" -T "Date=%year%" -T "Tracknumber=%tracknr%" -T "Comment=%comment%" %source%


TOC of the extracted CD

Track | Start | Length | Start sector | End sector
––––––––––––––––––––––––––––-
1 | 0:00.00 | 3:24.61 | 0 | 15360
2 | 3:24.61 | 3:07.33 | 15361 | 29418
3 | 6:32.19 | 4:01.54 | 29419 | 47547
4 | 10:33.73 | 6:25.66 | 47548 | 76488
5 | 16:59.64 | 4:32.64 | 76489 | 96952
6 | 21:32.53 | 2:58.66 | 96953 | 110368
7 | 24:31.44 | 3:39.69 | 110369 | 126862
8 | 28:11.38 | 3:53.06 | 126863 | 144343
9 | 32:04.44 | 3:21.06 | 144344 | 159424
10 | 35:25.50 | 4:57.29 | 159425 | 181728
11 | 40:23.04 | 3:12.36 | 181729 | 196164
12 | 43:35.40 | 3:36.39 | 196165 | 212403
13 | 47:12.04 | 4:14.48 | 212404 | 231501
14 | 51:26.52 | 6:26.69 | 231502 | 260520
15 | 57:53.46 | 3:01.68 | 260521 | 274163
16 | 60:55.39 | 3:45.26 | 274164 | 291064


Range status and errors

Selected range

Filename D:\1\ssagwebster\Buddy Collette - Six Classic Albums (4CD, 2017)\CD2\Buddy Collette - Six Classic Albums - CD2.wav

Peak level 96.5 %
Extraction speed 3.2 X
Range quality 100.0 %
Test CRC 724E6B5B
Copy CRC 724E6B5B
Copy OK

No errors occurred


AccurateRip summary

Track 1 not present in database
Track 2 not present in database
Track 3 not present in database
Track 4 not present in database
Track 5 not present in database
Track 6 not present in database
Track 7 not present in database
Track 8 not present in database
Track 9 not present in database
Track 10 not present in database
Track 11 not present in database
Track 12 not present in database
Track 13 not present in database
Track 14 not present in database
Track 15 not present in database
Track 16 not present in database

None of the tracks are present in the AccurateRip database

End of status report

==== Log checksum A68C9E61913A3CA22EEC26B771A20DB4CAA7BFD09AA0A92C3ED875C3BED717CC ====

foobar2000 1.2 / Dynamic Range Meter 1.1.1
log date: 2018-11-12 01:33:32

––––––––––––––––––––––––––––––––––––––––
Analyzed: Buddy Collette / Six Classic Albums CD2
––––––––––––––––––––––––––––––––––––––––

DR Peak RMS Duration Track
––––––––––––––––––––––––––––––––––––––––
DR9 -0.30 dB -11.93 dB 3:25 01-Moten Swing
DR10 -0.30 dB -11.36 dB 3:07 02-I'll Remember April
DR9 -0.30 dB -11.42 dB 4:02 03-Blues for Howard
DR8 -0.30 dB -10.31 dB 6:26 04-Fall Winds
DR9 -0.30 dB -10.46 dB 4:33 05-Buddy Boo
DR10 -0.30 dB -12.01 dB 2:59 06-Winston Walks
DR10 -0.30 dB -12.93 dB 3:40 07-If She Had Stayed
DR10 -0.30 dB -12.02 dB 3:53 08-They Can't Take That Away from Me
DR10 -0.30 dB -12.20 dB 3:21 09-Undecided
DR9 -0.30 dB -11.96 dB 4:57 10-Flute in 'D'
DR9 -0.30 dB -11.84 dB 3:12 11-The Continental
DR10 -0.30 dB -11.96 dB 3:37 12-Three and One
DR10 -0.30 dB -12.96 dB 4:15 13-Night in Tunisia
DR11 -0.30 dB -15.04 dB 6:27 14-Johnny Walks
DR11 -0.30 dB -13.23 dB 3:02 15-Perfidia
DR11 -0.30 dB -12.60 dB 3:45 16-Morning Jazz
––––––––––––––––––––––––––––––––––––––––

Number of tracks: 16
Official DR value: DR10

Samplerate: 44100 Hz
Channels: 2
Bits per sample: 16
Bitrate: 698 kbps
Codec: FLAC
================================================================================


Exact Audio Copy V1.0 beta 3 from 29. August 2011

EAC extraction logfile from 2. September 2018, 21:02

Buddy Collette / Six Classic Albums - CD3

Used drive : TSSTcorpCDDVDW SH-224FB Adapter: 1 ID: 0

Read mode : Secure
Utilize accurate stream : Yes
Defeat audio cache : Yes
Make use of C2 pointers : No

Read offset correction : 6
Overread into Lead-In and Lead-Out : No
Fill up missing offset samples with silence : Yes
Delete leading and trailing silent blocks : No
Null samples used in CRC calculations : Yes
Used interface : Native Win32 interface for Win NT & 2000

Used output format : User Defined Encoder
Selected bitrate : 128 kBit/s
Quality : High
Add ID3 tag : No
Command line compressor : C:\Program Files (x86)\Exact Audio Copy\Flac\flac.exe
Additional command line options : -V -8 -T "Genre=%genre%" -T "Artist=%artist%" -T "Title=%title%" -T "Album=%albumtitle%" -T "Date=%year%" -T "Tracknumber=%tracknr%" -T "Comment=%comment%" %source%


TOC of the extracted CD

Track | Start | Length | Start sector | End sector
––––––––––––––––––––––––––––-
1 | 0:00.00 | 3:26.26 | 0 | 15475
2 | 3:26.26 | 3:53.10 | 15476 | 32960
3 | 7:19.36 | 3:50.60 | 32961 | 50270
4 | 11:10.21 | 4:34.33 | 50271 | 70853
5 | 15:44.54 | 3:17.40 | 70854 | 85668
6 | 19:02.19 | 3:26.72 | 85669 | 101190
7 | 22:29.16 | 2:17.40 | 101191 | 111505
8 | 24:46.56 | 5:27.11 | 111506 | 136041
9 | 30:13.67 | 2:36.45 | 136042 | 147786
10 | 32:50.37 | 3:42.68 | 147787 | 164504
11 | 36:33.30 | 2:18.51 | 164505 | 174905
12 | 38:52.06 | 2:22.70 | 174906 | 185625
13 | 41:15.01 | 3:54.18 | 185626 | 203193
14 | 45:09.19 | 2:49.14 | 203194 | 215882
15 | 47:58.33 | 1:18.40 | 215883 | 221772


Range status and errors

Selected range

Filename D:\1\ssagwebster\Buddy Collette - Six Classic Albums (4CD, 2017)\CD3\Buddy Collette - Six Classic Albums - CD3.wav

Peak level 96.5 %
Extraction speed 2.9 X
Range quality 100.0 %
Test CRC ED801587
Copy CRC ED801587
Copy OK

No errors occurred


AccurateRip summary

Track 1 not present in database
Track 2 not present in database
Track 3 not present in database
Track 4 not present in database
Track 5 not present in database
Track 6 not present in database
Track 7 not present in database
Track 8 not present in database
Track 9 not present in database
Track 10 not present in database
Track 11 not present in database
Track 12 not present in database
Track 13 not present in database
Track 14 not present in database
Track 15 not present in database

None of the tracks are present in the AccurateRip database

End of status report

==== Log checksum BBD4DF666506C20198DABF962E1943B81FF59A4FCC97FFD12F837EEBBABB266A ====

foobar2000 1.2 / Dynamic Range Meter 1.1.1
log date: 2018-11-12 01:34:14

––––––––––––––––––––––––––––––––––––––––
Analyzed: Buddy Collette / Six Classic Albums CD3
––––––––––––––––––––––––––––––––––––––––

DR Peak RMS Duration Track
––––––––––––––––––––––––––––––––––––––––
DR7 -0.30 dB -10.02 dB 3:26 01-Joey Joey
DR9 -0.30 dB -10.87 dB 3:53 02-Why Can't You Behave
DR8 -0.30 dB -10.43 dB 3:51 03-All of You
DR8 -0.30 dB -10.83 dB 4:34 04-Cool
DR8 -0.30 dB -10.70 dB 3:18 05-Too Close for Comfort
DR8 -0.30 dB -11.19 dB 3:27 06-If I Were a Bell
DR8 -0.30 dB -11.30 dB 2:18 07-Baubles, Bangles and Beads
DR8 -0.30 dB -9.63 dB 5:27 08-A Sleepin' Bee
DR8 -0.30 dB -9.62 dB 2:37 09-Guys and Dolls
DR8 -0.30 dB -9.73 dB 3:43 10-Just in Time
DR9 -0.30 dB -10.85 dB 2:19 11-I Love Paris
DR8 -0.30 dB -10.25 dB 2:23 12-Pigalle
DR9 -0.30 dB -11.51 dB 3:54 13-La Vie en Rose
DR9 -0.30 dB -10.75 dB 2:49 14-Darling, Je Vous Aime Beaucoup
DR9 -0.30 dB -11.04 dB 1:19 15-Mam'selle
––––––––––––––––––––––––––––––––––––––––

Number of tracks: 15
Official DR value: DR8

Samplerate: 44100 Hz
Channels: 2
Bits per sample: 16
Bitrate: 743 kbps
Codec: FLAC
================================================================================


Exact Audio Copy V1.0 beta 3 from 29. August 2011

EAC extraction logfile from 2. September 2018, 22:54

Buddy Collette / Six Classic Albums - CD4

Used drive : TSSTcorpCDDVDW SH-224FB Adapter: 1 ID: 0

Read mode : Secure
Utilize accurate stream : Yes
Defeat audio cache : Yes
Make use of C2 pointers : No

Read offset correction : 6
Overread into Lead-In and Lead-Out : No
Fill up missing offset samples with silence : Yes
Delete leading and trailing silent blocks : No
Null samples used in CRC calculations : Yes
Used interface : Native Win32 interface for Win NT & 2000

Used output format : User Defined Encoder
Selected bitrate : 128 kBit/s
Quality : High
Add ID3 tag : No
Command line compressor : C:\Program Files (x86)\Exact Audio Copy\Flac\flac.exe
Additional command line options : -V -8 -T "Genre=%genre%" -T "Artist=%artist%" -T "Title=%title%" -T "Album=%albumtitle%" -T "Date=%year%" -T "Tracknumber=%tracknr%" -T "Comment=%comment%" %source%


TOC of the extracted CD

Track | Start | Length | Start sector | End sector
––––––––––––––––––––––––––––-
1 | 0:00.00 | 3:07.34 | 0 | 14058
2 | 3:07.34 | 2:19.61 | 14059 | 24544
3 | 5:27.20 | 2:36.18 | 24545 | 36262
4 | 8:03.38 | 4:39.67 | 36263 | 57254
5 | 12:43.30 | 2:33.09 | 57255 | 68738
6 | 15:16.39 | 2:33.60 | 68739 | 80273
7 | 17:50.24 | 4:12.31 | 80274 | 99204
8 | 22:02.55 | 5:13.42 | 99205 | 122721
9 | 27:16.22 | 4:11.13 | 122722 | 141559
10 | 31:27.35 | 4:02.29 | 141560 | 159738
11 | 35:29.64 | 4:18.01 | 159739 | 179089
12 | 39:47.65 | 3:27.25 | 179090 | 194639
13 | 43:15.15 | 5:56.16 | 194640 | 221355


Range status and errors

Selected range

Filename D:\1\ssagwebster\Buddy Collette - Six Classic Albums (4CD, 2017)\CD4\Buddy Collette - Six Classic Albums - CD4.wav

Peak level 96.5 %
Extraction speed 2.9 X
Range quality 100.0 %
Test CRC 360DDE68
Copy CRC 360DDE68
Copy OK

No errors occurred


AccurateRip summary

Track 1 not present in database
Track 2 not present in database
Track 3 not present in database
Track 4 not present in database
Track 5 not present in database
Track 6 not present in database
Track 7 not present in database
Track 8 not present in database
Track 9 not present in database
Track 10 not present in database
Track 11 not present in database
Track 12 not present in database
Track 13 not present in database

None of the tracks are present in the AccurateRip database

End of status report

==== Log checksum 2351EB85365D991C065CDBBAEC7733C1C871FB574002A5C588E1FD486FAD2351 ====

foobar2000 1.2 / Dynamic Range Meter 1.1.1
log date: 2018-11-12 01:34:40

––––––––––––––––––––––––––––––––––––––––
Analyzed: Buddy Collette / Six Classic Albums CD4
––––––––––––––––––––––––––––––––––––––––

DR Peak RMS Duration Track
––––––––––––––––––––––––––––––––––––––––
DR8 -0.30 dB -10.24 dB 3:07 01-C'est Si Bon
DR8 -0.30 dB -10.76 dB 2:20 02-Domino
DR8 -0.30 dB -10.00 dB 2:36 03-The Song from Moulin Rouge
DR9 -0.30 dB -10.85 dB 4:40 04-The Last Time I Saw Paris
DR8 -0.30 dB -10.24 dB 2:33 05-Under Paris Skies
DR10 -0.30 dB -11.85 dB 2:34 06-Orfeo Negro
DR10 -0.30 dB -12.64 dB 4:12 07-Blues for Nicola
DR8 -0.30 dB -10.77 dB 5:14 08-Mounya Labeli Matatoo
DR9 -0.30 dB -12.02 dB 4:11 09-Paddi
DR10 -0.30 dB -11.88 dB 4:02 10-A Taste of Fresh Air
DR10 -0.30 dB -13.06 dB 4:18 11-Pickford Street
DR8 -0.30 dB -11.33 dB 3:27 12-Skater for Mater
DR10 -0.30 dB -11.73 dB 5:56 13-Blues
––––––––––––––––––––––––––––––––––––––––

Number of tracks: 13
Official DR value: DR9

Samplerate: 44100 Hz
Channels: 2
Bits per sample: 16
Bitrate: 796 kbps
Codec: FLAC
================================================================================

Buddy Collette - Six Classic Albums (2017) [6LPs on 4CDs]

All thanks to original releaser - ssagwebster

More interesting music in My Blog