Tags
Language
Tags
December 2022
Su Mo Tu We Th Fr Sa
27 28 29 30 1 2 3
4 5 6 7 8 9 10
11 12 13 14 15 16 17
18 19 20 21 22 23 24
25 26 27 28 29 30 31

Buddy Guy - Can't Quit the Blues (2006) 3 CDs + DVD, Box Set

Posted By: Designol
Buddy Guy - Can't Quit the Blues (2006) 3 CDs + DVD, Box Set

Buddy Guy - Can't Quit the Blues (2006) 3 CDs + DVD, Box Set
EAC | FLAC | Tracks (Cue&Log) ~ 1.3 Gb | Mp3 (CBR320) ~ 511 Mb | Time: 03:43:38
DVD9 | NTSC | 4:3 (720x480) VBR | AC3, 2ch, 224 kbps | 02:30:33 | ~ 6.8 Gb
Electric Chicago Blues | Label: Silvertone/Legacy | # 82876 81967 2 | Scans ~ 852 Mb

Robert Cray says that Buddy Guy's guitar solos sound like laughter from space, but they can also peal like the cries of lost souls attempting to cross the River Styx. If these 47 songs on three CDs plus a DVD boasting a new 75-minute documentary and six performances from the Montreux Jazz Festival prove anything, it's that Guy is one of the most dynamic, diverse, expressionistic, and emotional guitarists–in any genre. The set neatly examines the 70-year-old Chicago blues legend's half-century career, starting with a ragged but soulful "The Way You Been Treating Me" cut in 1957 at a radio station in Guy's native Louisiana that finds him developing his searing, exploratory style. A year later, he's in Chicago working with tunesmith Willie Dixon, and the rest is history (chronicled in Anthony DeCurtis's excellent lines notes) that leads from the glory days of Chess Records to Guy's early breakout recordings for Vanguard to his modern-day mastery. The most recent recordings often find him working with acolytes: Eric Clapton, Jeff Beck, Keb' Mo', Jonny Lang, Bonnie Raitt, Keith Richards, and John Mayer (who duets with Guy on the unreleased "I'd Rather Be Blind, Crippled & Crazy"). B.B. King, who along with Guitar Slim was Guy's most important early influence, also joins Clapton and Guy on a stirring acoustic version of John Lee Hooker's "Crawlin' Kingsnake."

Legend status came late to Buddy Guy, so it shouldn't be surprising that this is the first box set devoted to the blues giant's work. Yet it is still a bit of a shock, because Guy, it seems, has always been a part of the modern blues scene, ubiquitous even in the late '60s at the era's high-profile rock and folk festivals, playing the hippie ballrooms alongside the major rockers of the day, and being name-dropped by the likes of Eric Clapton, the Rolling Stones, and Led Zeppelin. So this three-CD/one-DVD collection arrives years after it might have, its audio discs stacked with 47 prime samplings of Guy's sizzling guitar work and passionate wailing, covering nearly 50 years' worth of music. That said, those looking for an evenly balanced career overview may ultimately be disappointed: two of the three CDs are drawn from recordings made during Guy's comeback years of the 1990s to the present, after he signed to the Silvertone label (he hadn't recorded in nearly a decade prior to that point), leaving only the first disc devoted to Guy's influential recordings for such labels as Delmark, Vanguard, Artistic, Alligator, JSP, and, most importantly, Chess Records, where – although he felt stifled by the label's insistence that he soften his lethal attack – he cut some classic sides working alongside such blues titans as Willie Dixon, Otis Spann, and Junior Wells, the harmonica genius with whom Guy would share stages for many years. That first disc is crammed with classic blues moments – from the first track, 1957's "The Way You Been Treating Me," Guy is burning, and as he settles into his trademark stinging guitar style and belted-out, passionate vocalizing, leaving behind some of the more derivative aspects of his early playing and singing, it becomes quickly apparent that he was meant to become one of the genre's most influential artists. "I Can't Quit the Blues," from 1968, is a soul blaster par excellence, and by the early '70s, rock luminaries such as Clapton and Bill Wyman of the Stones were lining up to play on his records. Guy's Grammy-winning 1991 debut for Silvertone, Damn Right, I've Got the Blues, marks the onset of his rightful ascendance to blues royalty, and though excessive attention is arguably paid to this period of his career, there is no denying that some of his best music has been made during these years. In particular, tracks from the rootsy 2001 Sweet Tea are as good as anything he'd done before, and even the all-star affairs – among them "Crawlin' Kingsnake," cut in 2003 with Clapton, B.B. King, Jim Keltner, and others aboard, and 2005's "The Price You Gotta Pay," featuring Keb' Mo', Keith Richards, and others – find Guy still in tip-top shape. The DVD features a 90-minute documentary and rare live footage, including six full performances from the 1974 Montreux Jazz Festival. Ideally this collection (which includes six previously unreleased tracks) would have benefited from a fourth disc expanding upon the pre-Silvertone years, but it's hard to argue with something that's been so long overdue and, despite its lopsided emphasis on the recent output, delivers so much.

Review by Jeff Tamarkin, Allmusic.com

Buddy Guy at Allmusic
Buddy Guy Website
Buddy Guy at Wiki

Tracklist:

CD1:

01. The Way You Been Treating Me (3:16)
02. Sit and Cry (The Blues) (3:03)
03. This Is the End (2:59)
04. Untitled Instrumental (1:46)
05. First Time I Met the Blues (2:19)
06. Ten Years Ago (2:39)
07. Let Me Love You Baby (2:54)
08. Stone Crazy (7:12)
09. When My Left Eye Jumps (3:54)
10. Hoodoo Man Blues (2:06)
11. In the Wee Hours (3:45)
12. I Can't Quit the Blues (3:19)
13. One Room Country Shack (5:38)
14. T-Bone Shuffle (4:18)
15. When You See the Tears From My Eyes (Live) (6:22)
16. I Smell a Rat (9:13)
17. She Suits Me to a T (4:32)
18. D. J. Play My Blues (5:20)

CD2:

01. Damn Right, I've Got the Blues (4:31)
02. Mustang Sally (4:41)
03. Five Long Years (8:27)
04. Mary Ann (3:14)
05. She's Nineteen Years Old (5:44)
06. Miss Ida B (6:26)
07. Feels Like Rain (4:38)
08. 7-11 (6:59)
09. I Smell Trouble (3:17)
10. Someone Else Is Steppin' In (Slippin' Out, Slippin' In) (4:23)
11. My Time After Awhile (Live) (7:27)
12. Your Mind Is On Vacation (3:20)
13. Midnight Train (5:23)
14. Totally out of Control (6:49)

CD3:

01. Nobody Understands Me But My Guitar (5:10)
02. Baby Please Don't Leave Me (7:25)
03. Done Got Old (3:24)
04. Honey Bee (5:49)
05. Tramp (6:48)
06. Crawlin' Kingsnake (5:17)
07. Moaning And Groaning (3:30)
08. Bad Life Blues (3:48)
09. I Can't Be Satisfied (live) (3:00)
10. First Time I Met The Blues (live) (4:11)
11. I'd Rather Be Blind, Crippled And Crazy (3:31)
12. Somebody's Sleeping In My Bed (6:26)
13. I Miss You (4:05)
14. Cut You Loose (7:39)
15. Price You Gotta Pay (3:41)


Exact Audio Copy V1.1 from 23. June 2015

EAC extraction logfile from 25. March 2017, 12:09

Buddy Guy / Can't Quit the Blues (Disc 1)

Used drive : HL-DT-STDVD+-RW GHB0N Adapter: 1 ID: 1

Read mode : Secure
Utilize accurate stream : Yes
Defeat audio cache : Yes
Make use of C2 pointers : No

Read offset correction : 6
Overread into Lead-In and Lead-Out : No
Fill up missing offset samples with silence : Yes
Delete leading and trailing silent blocks : No
Null samples used in CRC calculations : Yes
Used interface : Native Win32 interface for Win NT & 2000
Gap handling : Appended to previous track

Used output format : User Defined Encoder
Selected bitrate : 768 kBit/s
Quality : High
Add ID3 tag : No
Command line compressor : C:\Program Files (x86)\Exact Audio Copy\FLAC\FLAC.EXE
Additional command line options : -8 -V -T "ARTIST=%artist%" -T "TITLE=%title%" -T "ALBUM=%albumtitle%" -T "DATE=%year%" -T "TRACKNUMBER=%tracknr%" -T "TOTALTRACKS=%numtracks%" -T "GENRE=%genre%" -T "ALBUMARTIST=%albumartist%" -T "ALBUM ARTIST=%albumartist%" -T "COMMENT=EAC Secure Mode, Test & Copy, AccurateRip, FLAC -8" %source%


TOC of the extracted CD

Track | Start | Length | Start sector | End sector
––––––––––––––––––––––––––––-
1 | 0:00.00 | 3:15.38 | 0 | 14662
2 | 3:15.38 | 3:03.34 | 14663 | 28421
3 | 6:18.72 | 2:58.61 | 28422 | 41832
4 | 9:17.58 | 1:46.20 | 41833 | 49802
5 | 11:04.03 | 2:18.72 | 49803 | 60224
6 | 13:23.00 | 2:38.53 | 60225 | 72127
7 | 16:01.53 | 2:53.64 | 72128 | 85166
8 | 18:55.42 | 7:11.74 | 85167 | 117565
9 | 26:07.41 | 3:54.03 | 117566 | 135118
10 | 30:01.44 | 2:06.15 | 135119 | 144583
11 | 32:07.59 | 3:44.55 | 144584 | 161438
12 | 35:52.39 | 3:18.45 | 161439 | 176333
13 | 39:11.09 | 5:37.43 | 176334 | 201651
14 | 44:48.52 | 4:17.73 | 201652 | 220999
15 | 49:06.50 | 6:22.03 | 221000 | 249652
16 | 55:28.53 | 9:12.43 | 249653 | 291095
17 | 64:41.21 | 4:31.50 | 291096 | 311470
18 | 69:12.71 | 5:20.06 | 311471 | 335476


Track 1

Filename F:\Torrents\Downloads\Buddy Guy - Can't Quit The Blues (2006) [FLAC] {82876 81967 2}\CD1\01 - The Way You Been Treating Me.wav

Pre-gap length 0:00:02.00

Peak level 77.1 %
Extraction speed 0.9 X
Track quality 99.9 %
Test CRC 10F77437
Copy CRC 10F77437
Accurately ripped (confidence 24) [7DC0F999] (AR v2)
Copy OK

Track 2

Filename F:\Torrents\Downloads\Buddy Guy - Can't Quit The Blues (2006) [FLAC] {82876 81967 2}\CD1\02 - Sit and Cry (The Blues).wav

Pre-gap length 0:00:02.32

Peak level 100.0 %
Extraction speed 1.2 X
Track quality 100.0 %
Test CRC 9C3187FB
Copy CRC 9C3187FB
Accurately ripped (confidence 24) [D0451373] (AR v2)
Copy OK

Track 3

Filename F:\Torrents\Downloads\Buddy Guy - Can't Quit The Blues (2006) [FLAC] {82876 81967 2}\CD1\03 - This Is the End.wav

Pre-gap length 0:00:02.30

Peak level 94.4 %
Extraction speed 1.3 X
Track quality 100.0 %
Test CRC 1CD13C02
Copy CRC 1CD13C02
Accurately ripped (confidence 24) [F233FB08] (AR v2)
Copy OK

Track 4

Filename F:\Torrents\Downloads\Buddy Guy - Can't Quit The Blues (2006) [FLAC] {82876 81967 2}\CD1\04 - Untitled Instrumental.wav

Pre-gap length 0:00:02.15

Peak level 84.2 %
Extraction speed 1.2 X
Track quality 100.0 %
Test CRC 1DB4EFC5
Copy CRC 1DB4EFC5
Accurately ripped (confidence 24) [55B8330A] (AR v2)
Copy OK

Track 5

Filename F:\Torrents\Downloads\Buddy Guy - Can't Quit The Blues (2006) [FLAC] {82876 81967 2}\CD1\05 - First Time I Met the Blues.wav

Pre-gap length 0:00:01.65

Peak level 100.0 %
Extraction speed 1.3 X
Track quality 100.0 %
Test CRC BA81C0D2
Copy CRC BA81C0D2
Accurately ripped (confidence 24) [36269245] (AR v2)
Copy OK

Track 6

Filename F:\Torrents\Downloads\Buddy Guy - Can't Quit The Blues (2006) [FLAC] {82876 81967 2}\CD1\06 - Ten Years Ago.wav

Pre-gap length 0:00:01.60

Peak level 90.7 %
Extraction speed 1.2 X
Track quality 99.9 %
Test CRC 9172DB1D
Copy CRC 9172DB1D
Accurately ripped (confidence 23) [0DD8F5B2] (AR v2)
Copy OK

Track 7

Filename F:\Torrents\Downloads\Buddy Guy - Can't Quit The Blues (2006) [FLAC] {82876 81967 2}\CD1\07 - Let Me Love You Baby.wav

Pre-gap length 0:00:01.67

Peak level 99.9 %
Extraction speed 1.5 X
Track quality 100.0 %
Test CRC 2003EBC5
Copy CRC 2003EBC5
Accurately ripped (confidence 24) [2AB5A91C] (AR v2)
Copy OK

Track 8

Filename F:\Torrents\Downloads\Buddy Guy - Can't Quit The Blues (2006) [FLAC] {82876 81967 2}\CD1\08 - Stone Crazy.wav

Pre-gap length 0:00:01.39

Peak level 80.6 %
Extraction speed 1.8 X
Track quality 100.0 %
Test CRC F7A94F69
Copy CRC F7A94F69
Accurately ripped (confidence 24) [27DC91A9] (AR v2)
Copy OK

Track 9

Filename F:\Torrents\Downloads\Buddy Guy - Can't Quit The Blues (2006) [FLAC] {82876 81967 2}\CD1\09 - When My Left Eye Jumps.wav

Pre-gap length 0:00:02.29

Peak level 100.0 %
Extraction speed 1.5 X
Track quality 99.9 %
Test CRC 80F9D98E
Copy CRC 80F9D98E
Accurately ripped (confidence 24) [A07BD154] (AR v2)
Copy OK

Track 10

Filename F:\Torrents\Downloads\Buddy Guy - Can't Quit The Blues (2006) [FLAC] {82876 81967 2}\CD1\10 - Hoodoo Man Blues.wav

Pre-gap length 0:00:01.14

Peak level 100.0 %
Extraction speed 1.6 X
Track quality 100.0 %
Test CRC 1DC9300A
Copy CRC 1DC9300A
Accurately ripped (confidence 24) [D957D0C9] (AR v2)
Copy OK

Track 11

Filename F:\Torrents\Downloads\Buddy Guy - Can't Quit The Blues (2006) [FLAC] {82876 81967 2}\CD1\11 - In the Wee Hours.wav

Pre-gap length 0:00:01.32

Peak level 100.0 %
Extraction speed 1.6 X
Track quality 99.9 %
Test CRC 2E739F55
Copy CRC 2E739F55
Accurately ripped (confidence 24) [95503401] (AR v2)
Copy OK

Track 12

Filename F:\Torrents\Downloads\Buddy Guy - Can't Quit The Blues (2006) [FLAC] {82876 81967 2}\CD1\12 - I Can't Quit the Blues.wav

Pre-gap length 0:00:01.34

Peak level 100.0 %
Extraction speed 1.9 X
Track quality 100.0 %
Test CRC 8734EE3E
Copy CRC 8734EE3E
Accurately ripped (confidence 23) [B0351731] (AR v2)
Copy OK

Track 13

Filename F:\Torrents\Downloads\Buddy Guy - Can't Quit The Blues (2006) [FLAC] {82876 81967 2}\CD1\13 - One Room Country Shack.wav

Pre-gap length 0:00:01.53

Peak level 97.2 %
Extraction speed 2.1 X
Track quality 100.0 %
Test CRC B49D9EE7
Copy CRC B49D9EE7
Accurately ripped (confidence 24) [61E43B70] (AR v2)
Copy OK

Track 14

Filename F:\Torrents\Downloads\Buddy Guy - Can't Quit The Blues (2006) [FLAC] {82876 81967 2}\CD1\14 - T-Bone Shuffle.wav

Pre-gap length 0:00:01.72

Peak level 96.4 %
Extraction speed 1.9 X
Track quality 99.9 %
Test CRC 73311EDA
Copy CRC 73311EDA
Accurately ripped (confidence 24) [CFD41B1B] (AR v2)
Copy OK

Track 15

Filename F:\Torrents\Downloads\Buddy Guy - Can't Quit The Blues (2006) [FLAC] {82876 81967 2}\CD1\15 - When You See the Tears From My Eyes (Live).wav

Pre-gap length 0:00:02.20

Peak level 100.0 %
Extraction speed 2.3 X
Track quality 100.0 %
Test CRC B60C82E3
Copy CRC B60C82E3
Accurately ripped (confidence 23) [3D86459A] (AR v2)
Copy OK

Track 16

Filename F:\Torrents\Downloads\Buddy Guy - Can't Quit The Blues (2006) [FLAC] {82876 81967 2}\CD1\16 - I Smell a Rat.wav

Pre-gap length 0:00:01.47

Peak level 100.0 %
Extraction speed 2.5 X
Track quality 100.0 %
Test CRC 2D78F219
Copy CRC 2D78F219
Accurately ripped (confidence 22) [CFF93E85] (AR v2)
Copy OK

Track 17

Filename F:\Torrents\Downloads\Buddy Guy - Can't Quit The Blues (2006) [FLAC] {82876 81967 2}\CD1\17 - She Suits Me to a T.wav

Pre-gap length 0:00:02.07

Peak level 100.0 %
Extraction speed 2.4 X
Track quality 100.0 %
Test CRC CE94315C
Copy CRC CE94315C
Accurately ripped (confidence 23) [DD4C425A] (AR v2)
Copy OK

Track 18

Filename F:\Torrents\Downloads\Buddy Guy - Can't Quit The Blues (2006) [FLAC] {82876 81967 2}\CD1\18 - D. J. Play My Blues.wav

Pre-gap length 0:00:01.67

Peak level 100.0 %
Extraction speed 2.5 X
Track quality 100.0 %
Test CRC 66F7F86D
Copy CRC 66F7F86D
Accurately ripped (confidence 22) [CE5029C4] (AR v2)
Copy OK


All tracks accurately ripped

No errors occurred

End of status report

–– CUETools DB Plugin V2.1.6

[CTDB TOCID: 4hSg3dkO2bF_Np5QdrlZ5HV9iO8-] found
Submit result: 4hSg3dkO2bF_Np5QdrlZ5HV9iO8- has been confirmed
Track | CTDB Status
1 | (28/28) Accurately ripped
2 | (28/28) Accurately ripped
3 | (28/28) Accurately ripped
4 | (28/28) Accurately ripped
5 | (28/28) Accurately ripped
6 | (28/28) Accurately ripped
7 | (28/28) Accurately ripped
8 | (28/28) Accurately ripped
9 | (28/28) Accurately ripped
10 | (28/28) Accurately ripped
11 | (28/28) Accurately ripped
12 | (28/28) Accurately ripped
13 | (28/28) Accurately ripped
14 | (28/28) Accurately ripped
15 | (28/28) Accurately ripped
16 | (28/28) Accurately ripped
17 | (28/28) Accurately ripped
18 | (28/28) Accurately ripped


==== Log checksum BB9AFD31FC9F0EBADF7BD06CA992CCBBB48CD49FB783D147178E9D635A1F05C4 ====

foobar2000 1.2 / Dynamic Range Meter 1.1.1
log date: 2017-04-04 22:35:10

––––––––––––––––––––––––––––––––––––––––
Analyzed: Buddy Guy / Can't Quit the Blues (Disc 1)
––––––––––––––––––––––––––––––––––––––––

DR Peak RMS Duration Track
––––––––––––––––––––––––––––––––––––––––
DR9 -2.26 dB -13.14 dB 3:16 01-The Way You Been Treating Me
DR12 0.00 dB -13.18 dB 3:03 02-Sit and Cry (The Blues)
DR12 -0.50 dB -13.62 dB 2:59 03-This Is the End
DR10 -1.49 dB -13.87 dB 1:46 04-Untitled Instrumental
DR10 0.00 dB -12.18 dB 2:19 05-First Time I Met the Blues
DR12 -0.84 dB -15.14 dB 2:39 06-Ten Years Ago
DR10 0.00 dB -11.92 dB 2:54 07-Let Me Love You Baby
DR10 -1.86 dB -14.13 dB 7:12 08-Stone Crazy
DR11 0.00 dB -13.68 dB 3:54 09-When My Left Eye Jumps
DR12 0.00 dB -13.86 dB 2:06 10-Hoodoo Man Blues
DR13 0.00 dB -15.59 dB 3:45 11-In the Wee Hours
DR11 0.00 dB -12.83 dB 3:19 12-I Can't Quit the Blues
DR12 -0.24 dB -15.40 dB 5:38 13-One Room Country Shack
DR11 -0.32 dB -13.67 dB 4:18 14-T-Bone Shuffle
DR10 0.00 dB -13.43 dB 6:22 15-When You See the Tears From My Eyes (Live)
DR10 0.00 dB -13.09 dB 9:13 16-I Smell a Rat
DR9 0.00 dB -10.56 dB 4:32 17-She Suits Me to a T
DR10 0.00 dB -12.79 dB 5:20 18-D. J. Play My Blues
––––––––––––––––––––––––––––––––––––––––

Number of tracks: 18
Official DR value: DR11

Samplerate: 44100 Hz
Channels: 2
Bits per sample: 16
Bitrate: 731 kbps
Codec: FLAC
================================================================================


Exact Audio Copy V1.1 from 23. June 2015

EAC extraction logfile from 25. March 2017, 15:51

Buddy Guy / Can't Quit the Blues (Disc 2)

Used drive : HL-DT-STDVD+-RW GHB0N Adapter: 1 ID: 1

Read mode : Secure
Utilize accurate stream : Yes
Defeat audio cache : Yes
Make use of C2 pointers : No

Read offset correction : 6
Overread into Lead-In and Lead-Out : No
Fill up missing offset samples with silence : Yes
Delete leading and trailing silent blocks : No
Null samples used in CRC calculations : Yes
Used interface : Native Win32 interface for Win NT & 2000
Gap handling : Appended to previous track

Used output format : User Defined Encoder
Selected bitrate : 768 kBit/s
Quality : High
Add ID3 tag : No
Command line compressor : C:\Program Files (x86)\Exact Audio Copy\FLAC\FLAC.EXE
Additional command line options : -8 -V -T "ARTIST=%artist%" -T "TITLE=%title%" -T "ALBUM=%albumtitle%" -T "DATE=%year%" -T "TRACKNUMBER=%tracknr%" -T "TOTALTRACKS=%numtracks%" -T "GENRE=%genre%" -T "ALBUMARTIST=%albumartist%" -T "ALBUM ARTIST=%albumartist%" -T "COMMENT=EAC Secure Mode, Test & Copy, AccurateRip, FLAC -8" %source%


TOC of the extracted CD

Track | Start | Length | Start sector | End sector
––––––––––––––––––––––––––––-
1 | 0:00.00 | 4:31.15 | 0 | 20339
2 | 4:31.15 | 4:41.08 | 20340 | 41422
3 | 9:12.23 | 8:26.41 | 41423 | 79413
4 | 17:38.64 | 3:14.06 | 79414 | 93969
5 | 20:52.70 | 5:44.28 | 93970 | 119797
6 | 26:37.23 | 6:25.68 | 119798 | 148740
7 | 33:03.16 | 4:37.42 | 148741 | 169557
8 | 37:40.58 | 6:59.26 | 169558 | 201008
9 | 44:40.09 | 3:17.00 | 201009 | 215783
10 | 47:57.09 | 4:22.61 | 215784 | 235494
11 | 52:19.70 | 7:27.35 | 235495 | 269054
12 | 59:47.30 | 3:20.14 | 269055 | 284068
13 | 63:07.44 | 5:22.38 | 284069 | 308256
14 | 68:30.07 | 6:49.26 | 308257 | 338957


Track 1

Filename F:\Torrents\Downloads\Buddy Guy - Can't Quit The Blues (2006) [FLAC] {82876 81967 2}\CD2\01 - Damn Right, I've Got the Blues.wav

Pre-gap length 0:00:02.00

Peak level 100.0 %
Extraction speed 1.2 X
Track quality 100.0 %
Test CRC 015ACD23
Copy CRC 015ACD23
Accurately ripped (confidence 23) [51CC4010] (AR v2)
Copy OK

Track 2

Filename F:\Torrents\Downloads\Buddy Guy - Can't Quit The Blues (2006) [FLAC] {82876 81967 2}\CD2\02 - Mustang Sally.wav

Pre-gap length 0:00:00.63

Peak level 100.0 %
Extraction speed 1.3 X
Track quality 100.0 %
Test CRC 6E2A520B
Copy CRC 6E2A520B
Accurately ripped (confidence 23) [90395DB5] (AR v2)
Copy OK

Track 3

Filename F:\Torrents\Downloads\Buddy Guy - Can't Quit The Blues (2006) [FLAC] {82876 81967 2}\CD2\03 - Five Long Years.wav

Pre-gap length 0:00:01.24

Peak level 100.0 %
Extraction speed 1.6 X
Track quality 100.0 %
Test CRC C4D4152D
Copy CRC C4D4152D
Accurately ripped (confidence 23) [8E3FB162] (AR v2)
Copy OK

Track 4

Filename F:\Torrents\Downloads\Buddy Guy - Can't Quit The Blues (2006) [FLAC] {82876 81967 2}\CD2\04 - Mary Ann.wav

Pre-gap length 0:00:02.31

Peak level 94.4 %
Extraction speed 1.5 X
Track quality 100.0 %
Test CRC 854152E3
Copy CRC 854152E3
Accurately ripped (confidence 23) [147311DB] (AR v2)
Copy OK

Track 5

Filename F:\Torrents\Downloads\Buddy Guy - Can't Quit The Blues (2006) [FLAC] {82876 81967 2}\CD2\05 - She's Nineteen Years Old.wav

Pre-gap length 0:00:01.62

Peak level 94.4 %
Extraction speed 1.8 X
Track quality 100.0 %
Test CRC B606E916
Copy CRC B606E916
Accurately ripped (confidence 22) [75FB80A2] (AR v2)
Copy OK

Track 6

Filename F:\Torrents\Downloads\Buddy Guy - Can't Quit The Blues (2006) [FLAC] {82876 81967 2}\CD2\06 - Miss Ida B.wav

Pre-gap length 0:00:02.46

Peak level 100.0 %
Extraction speed 1.9 X
Track quality 100.0 %
Test CRC F045EE69
Copy CRC F045EE69
Accurately ripped (confidence 23) [1667143C] (AR v2)
Copy OK

Track 7

Filename F:\Torrents\Downloads\Buddy Guy - Can't Quit The Blues (2006) [FLAC] {82876 81967 2}\CD2\07 - Feels Like Rain.wav

Pre-gap length 0:00:01.47

Peak level 100.0 %
Extraction speed 1.7 X
Track quality 99.9 %
Test CRC E3B513AC
Copy CRC E3B513AC
Accurately ripped (confidence 23) [EA298CD7] (AR v2)
Copy OK

Track 8

Filename F:\Torrents\Downloads\Buddy Guy - Can't Quit The Blues (2006) [FLAC] {82876 81967 2}\CD2\08 - 7-11.wav

Pre-gap length 0:00:02.06

Peak level 94.4 %
Extraction speed 2.1 X
Track quality 100.0 %
Test CRC AF65F04F
Copy CRC AF65F04F
Accurately ripped (confidence 23) [22CE1CA2] (AR v2)
Copy OK

Track 9

Filename F:\Torrents\Downloads\Buddy Guy - Can't Quit The Blues (2006) [FLAC] {82876 81967 2}\CD2\09 - I Smell Trouble.wav

Pre-gap length 0:00:00.62

Peak level 100.0 %
Extraction speed 2.0 X
Track quality 100.0 %
Test CRC AB0BF609
Copy CRC AB0BF609
Accurately ripped (confidence 22) [0CD5CF64] (AR v2)
Copy OK

Track 10

Filename F:\Torrents\Downloads\Buddy Guy - Can't Quit The Blues (2006) [FLAC] {82876 81967 2}\CD2\10 - Someone Else Is Steppin' In (Slippin' Out, Slippin' In).wav

Pre-gap length 0:00:00.59

Peak level 100.0 %
Extraction speed 2.2 X
Track quality 100.0 %
Test CRC 32860FFD
Copy CRC 32860FFD
Accurately ripped (confidence 22) [466AA7FB] (AR v2)
Copy OK

Track 11

Filename F:\Torrents\Downloads\Buddy Guy - Can't Quit The Blues (2006) [FLAC] {82876 81967 2}\CD2\11 - My Time After Awhile (Live).wav

Pre-gap length 0:00:01.00

Peak level 100.0 %
Extraction speed 2.4 X
Track quality 100.0 %
Test CRC 83FD0C37
Copy CRC 83FD0C37
Accurately ripped (confidence 21) [9EE02264] (AR v2)
Copy OK

Track 12

Filename F:\Torrents\Downloads\Buddy Guy - Can't Quit The Blues (2006) [FLAC] {82876 81967 2}\CD2\12 - Your Mind Is On Vacation.wav

Pre-gap length 0:00:01.29

Peak level 100.0 %
Extraction speed 1.9 X
Track quality 99.9 %
Test CRC 8D0AFC67
Copy CRC 8D0AFC67
Accurately ripped (confidence 23) [F04B9EE2] (AR v2)
Copy OK

Track 13

Filename F:\Torrents\Downloads\Buddy Guy - Can't Quit The Blues (2006) [FLAC] {82876 81967 2}\CD2\13 - Midnight Train.wav

Pre-gap length 0:00:01.69

Peak level 89.1 %
Extraction speed 2.5 X
Track quality 100.0 %
Test CRC 26B3AB69
Copy CRC 26B3AB69
Accurately ripped (confidence 23) [6777A08D] (AR v2)
Copy OK

Track 14

Filename F:\Torrents\Downloads\Buddy Guy - Can't Quit The Blues (2006) [FLAC] {82876 81967 2}\CD2\14 - Totally out of Control.wav

Pre-gap length 0:00:02.29

Peak level 100.0 %
Extraction speed 2.4 X
Track quality 99.9 %
Test CRC 5169D5E5
Copy CRC 5169D5E5
Accurately ripped (confidence 23) [ACB09184] (AR v2)
Copy OK


All tracks accurately ripped

No errors occurred

End of status report

–– CUETools DB Plugin V2.1.6

[CTDB TOCID: AFiq1UwD_ZjaMes5V.pxWPHjRH8-] found
Submit result: AFiq1UwD_ZjaMes5V.pxWPHjRH8- has been confirmed
Track | CTDB Status
1 | (27/27) Accurately ripped
2 | (27/27) Accurately ripped
3 | (27/27) Accurately ripped
4 | (27/27) Accurately ripped
5 | (27/27) Accurately ripped
6 | (27/27) Accurately ripped
7 | (27/27) Accurately ripped
8 | (27/27) Accurately ripped
9 | (27/27) Accurately ripped
10 | (27/27) Accurately ripped
11 | (27/27) Accurately ripped
12 | (27/27) Accurately ripped
13 | (27/27) Accurately ripped
14 | (27/27) Accurately ripped


==== Log checksum 92842B27E901BEE0531AAF174F62A0F4A33A9A98E3DEAED8DE69C9C5955D5DC2 ====

foobar2000 1.2 / Dynamic Range Meter 1.1.1
log date: 2017-04-04 22:35:41

––––––––––––––––––––––––––––––––––––––––
Analyzed: Buddy Guy / Can't Quit the Blues (Disc 2)
––––––––––––––––––––––––––––––––––––––––

DR Peak RMS Duration Track
––––––––––––––––––––––––––––––––––––––––
DR10 0.00 dB -11.83 dB 4:31 01-Damn Right, I've Got the Blues
DR9 0.00 dB -10.36 dB 4:41 02-Mustang Sally
DR9 0.00 dB -12.09 dB 8:27 03-Five Long Years
DR8 -0.50 dB -10.06 dB 3:14 04-Mary Ann
DR9 -0.50 dB -11.25 dB 5:44 05-She's Nineteen Years Old
DR11 0.00 dB -13.80 dB 6:26 06-Miss Ida B
DR9 0.00 dB -10.92 dB 4:38 07-Feels Like Rain
DR10 -0.50 dB -11.61 dB 6:59 08-7-11
DR10 0.00 dB -11.09 dB 3:17 09-I Smell Trouble
DR9 0.00 dB -11.17 dB 4:23 10-Someone Else Is Steppin' In (Slippin' Out, Slippin' In)
DR9 0.00 dB -13.11 dB 7:27 11-My Time After Awhile (Live)
DR8 0.00 dB -9.35 dB 3:20 12-Your Mind Is On Vacation
DR6 -1.00 dB -9.04 dB 5:23 13-Midnight Train
DR9 0.00 dB -9.95 dB 6:49 14-Totally out of Control
––––––––––––––––––––––––––––––––––––––––

Number of tracks: 14
Official DR value: DR9

Samplerate: 44100 Hz
Channels: 2
Bits per sample: 16
Bitrate: 973 kbps
Codec: FLAC
================================================================================


Exact Audio Copy V1.1 from 23. June 2015

EAC extraction logfile from 25. March 2017, 17:59

Buddy Guy / Can't Quit The Blues (Disc 3)

Used drive : HL-DT-STDVD+-RW GHB0N Adapter: 1 ID: 1

Read mode : Secure
Utilize accurate stream : Yes
Defeat audio cache : Yes
Make use of C2 pointers : No

Read offset correction : 6
Overread into Lead-In and Lead-Out : No
Fill up missing offset samples with silence : Yes
Delete leading and trailing silent blocks : No
Null samples used in CRC calculations : Yes
Used interface : Native Win32 interface for Win NT & 2000
Gap handling : Appended to previous track

Used output format : User Defined Encoder
Selected bitrate : 768 kBit/s
Quality : High
Add ID3 tag : No
Command line compressor : C:\Program Files (x86)\Exact Audio Copy\FLAC\FLAC.EXE
Additional command line options : -8 -V -T "ARTIST=%artist%" -T "TITLE=%title%" -T "ALBUM=%albumtitle%" -T "DATE=%year%" -T "TRACKNUMBER=%tracknr%" -T "TOTALTRACKS=%numtracks%" -T "GENRE=%genre%" -T "ALBUMARTIST=%albumartist%" -T "ALBUM ARTIST=%albumartist%" -T "COMMENT=EAC Secure Mode, Test & Copy, AccurateRip, FLAC -8" %source%


TOC of the extracted CD

Track | Start | Length | Start sector | End sector
––––––––––––––––––––––––––––-
1 | 0:00.00 | 5:10.08 | 0 | 23257
2 | 5:10.08 | 7:25.29 | 23258 | 56661
3 | 12:35.37 | 3:24.18 | 56662 | 71979
4 | 15:59.55 | 5:48.65 | 71980 | 98144
5 | 21:48.45 | 6:48.22 | 98145 | 128766
6 | 28:36.67 | 5:17.28 | 128767 | 152569
7 | 33:54.20 | 3:29.50 | 152570 | 168294
8 | 37:23.70 | 3:47.42 | 168295 | 185361
9 | 41:11.37 | 3:00.14 | 185362 | 198875
10 | 44:11.51 | 4:11.00 | 198876 | 217700
11 | 48:22.51 | 3:30.68 | 217701 | 233518
12 | 51:53.44 | 6:26.18 | 233519 | 262486
13 | 58:19.62 | 4:05.18 | 262487 | 280879
14 | 62:25.05 | 7:39.13 | 280880 | 315317
15 | 70:04.18 | 3:41.18 | 315318 | 331910


Track 1

Filename F:\Torrents\Downloads\Buddy Guy - Can't Quit The Blues (2006) [FLAC] {82876 81967 2}\CD3\01 - Nobody Understands Me But My Guitar.wav

Pre-gap length 0:00:02.00

Peak level 100.0 %
Extraction speed 1.1 X
Track quality 99.9 %
Test CRC 86C06F9A
Copy CRC 86C06F9A
Accurately ripped (confidence 19) [BFBBC617] (AR v2)
Copy OK

Track 2

Filename F:\Torrents\Downloads\Buddy Guy - Can't Quit The Blues (2006) [FLAC] {82876 81967 2}\CD3\02 - Baby Please Don't Leave Me.wav

Pre-gap length 0:00:00.65

Peak level 86.3 %
Extraction speed 1.4 X
Track quality 100.0 %
Test CRC DE354283
Copy CRC DE354283
Accurately ripped (confidence 19) [1DA57746] (AR v2)
Copy OK

Track 3

Filename F:\Torrents\Downloads\Buddy Guy - Can't Quit The Blues (2006) [FLAC] {82876 81967 2}\CD3\03 - Done Got Old.wav

Pre-gap length 0:00:02.41

Peak level 69.3 %
Extraction speed 1.4 X
Track quality 100.0 %
Test CRC 05151AF2
Copy CRC 05151AF2
Accurately ripped (confidence 19) [9B87805B] (AR v2)
Copy OK

Track 4

Filename F:\Torrents\Downloads\Buddy Guy - Can't Quit The Blues (2006) [FLAC] {82876 81967 2}\CD3\04 - Honey Bee.wav

Pre-gap length 0:00:01.69

Peak level 91.4 %
Extraction speed 1.7 X
Track quality 100.0 %
Test CRC 208D8C3E
Copy CRC 208D8C3E
Accurately ripped (confidence 19) [86A2C77B] (AR v2)
Copy OK

Track 5

Filename F:\Torrents\Downloads\Buddy Guy - Can't Quit The Blues (2006) [FLAC] {82876 81967 2}\CD3\05 - Tramp.wav

Pre-gap length 0:00:02.34

Peak level 86.3 %
Extraction speed 1.8 X
Track quality 100.0 %
Test CRC 0B669DAD
Copy CRC 0B669DAD
Accurately ripped (confidence 18) [4AD84B53] (AR v2)
Copy OK

Track 6

Filename F:\Torrents\Downloads\Buddy Guy - Can't Quit The Blues (2006) [FLAC] {82876 81967 2}\CD3\06 - Crawlin' Kingsnake.wav

Pre-gap length 0:00:00.61

Peak level 100.0 %
Extraction speed 1.7 X
Track quality 99.9 %
Test CRC CE12A7D3
Copy CRC CE12A7D3
Accurately ripped (confidence 19) [08B8AFCD] (AR v2)
Copy OK

Track 7

Filename F:\Torrents\Downloads\Buddy Guy - Can't Quit The Blues (2006) [FLAC] {82876 81967 2}\CD3\07 - Moaning And Groaning.wav

Pre-gap length 0:00:01.02

Peak level 100.0 %
Extraction speed 1.9 X
Track quality 100.0 %
Test CRC 6191C14C
Copy CRC 6191C14C
Accurately ripped (confidence 19) [F2E61DC4] (AR v2)
Copy OK

Track 8

Filename F:\Torrents\Downloads\Buddy Guy - Can't Quit The Blues (2006) [FLAC] {82876 81967 2}\CD3\08 - Bad Life Blues.wav

Pre-gap length 0:00:01.49

Peak level 100.0 %
Extraction speed 2.0 X
Track quality 100.0 %
Test CRC F7CE1E34
Copy CRC F7CE1E34
Accurately ripped (confidence 19) [6EDA67CA] (AR v2)
Copy OK

Track 9

Filename F:\Torrents\Downloads\Buddy Guy - Can't Quit The Blues (2006) [FLAC] {82876 81967 2}\CD3\09 - I Can't Be Satisfied (live).wav

Pre-gap length 0:00:01.73

Peak level 89.0 %
Extraction speed 1.9 X
Track quality 100.0 %
Test CRC BD92BE4B
Copy CRC BD92BE4B
Accurately ripped (confidence 19) [5B731651] (AR v2)
Copy OK

Track 10

Filename F:\Torrents\Downloads\Buddy Guy - Can't Quit The Blues (2006) [FLAC] {82876 81967 2}\CD3\10 - First Time I Met The Blues (live).wav

Peak level 100.0 %
Extraction speed 1.9 X
Track quality 99.9 %
Test CRC 9CA511A5
Copy CRC 9CA511A5
Accurately ripped (confidence 19) [53777315] (AR v2)
Copy OK

Track 11

Filename F:\Torrents\Downloads\Buddy Guy - Can't Quit The Blues (2006) [FLAC] {82876 81967 2}\CD3\11 - I'd Rather Be Blind, Crippled And Crazy.wav

Pre-gap length 0:00:01.00

Peak level 89.0 %
Extraction speed 2.1 X
Track quality 100.0 %
Test CRC F8F11EA9
Copy CRC F8F11EA9
Accurately ripped (confidence 19) [2AD66723] (AR v2)
Copy OK

Track 12

Filename F:\Torrents\Downloads\Buddy Guy - Can't Quit The Blues (2006) [FLAC] {82876 81967 2}\CD3\12 - Somebody's Sleeping In My Bed.wav

Pre-gap length 0:00:00.72

Peak level 88.1 %
Extraction speed 2.4 X
Track quality 100.0 %
Test CRC 5619EA61
Copy CRC 5619EA61
Accurately ripped (confidence 19) [5AC3FFA5] (AR v2)
Copy OK

Track 13

Filename F:\Torrents\Downloads\Buddy Guy - Can't Quit The Blues (2006) [FLAC] {82876 81967 2}\CD3\13 - I Miss You.wav

Pre-gap length 0:00:01.17

Peak level 100.0 %
Extraction speed 2.3 X
Track quality 100.0 %
Test CRC 1BF6FDDF
Copy CRC 1BF6FDDF
Accurately ripped (confidence 19) [3F5E77FA] (AR v2)
Copy OK

Track 14

Filename F:\Torrents\Downloads\Buddy Guy - Can't Quit The Blues (2006) [FLAC] {82876 81967 2}\CD3\14 - Cut You Loose.wav

Pre-gap length 0:00:01.21

Peak level 89.0 %
Extraction speed 2.6 X
Track quality 100.0 %
Test CRC AF801007
Copy CRC AF801007
Accurately ripped (confidence 19) [956B6F5D] (AR v2)
Copy OK

Track 15

Filename F:\Torrents\Downloads\Buddy Guy - Can't Quit The Blues (2006) [FLAC] {82876 81967 2}\CD3\15 - Price You Gotta Pay.wav

Pre-gap length 0:00:00.63

Peak level 99.9 %
Extraction speed 2.4 X
Track quality 100.0 %
Test CRC BBBC668F
Copy CRC BBBC668F
Accurately ripped (confidence 19) [6D693024] (AR v2)
Copy OK


All tracks accurately ripped

No errors occurred

End of status report

–– CUETools DB Plugin V2.1.6

[CTDB TOCID: f.eN1uW7sr.2Cr3udyM7xsRttNE-] found
Submit result: f.eN1uW7sr.2Cr3udyM7xsRttNE- has been confirmed
Track | CTDB Status
1 | (28/28) Accurately ripped
2 | (28/28) Accurately ripped
3 | (28/28) Accurately ripped
4 | (28/28) Accurately ripped
5 | (28/28) Accurately ripped
6 | (28/28) Accurately ripped
7 | (28/28) Accurately ripped
8 | (28/28) Accurately ripped
9 | (28/28) Accurately ripped
10 | (28/28) Accurately ripped
11 | (28/28) Accurately ripped
12 | (26/28) Accurately ripped
13 | (28/28) Accurately ripped
14 | (28/28) Accurately ripped
15 | (28/28) Accurately ripped


==== Log checksum 3A098A9C5E23CF09C50BC95A91718014C95D350CCA5373436D89C1A7C688510A ====

foobar2000 1.2 / Dynamic Range Meter 1.1.1
log date: 2017-04-04 22:36:14

––––––––––––––––––––––––––––––––––––––––
Analyzed: Buddy Guy / Can't Quit The Blues (Disc 3)
––––––––––––––––––––––––––––––––––––––––

DR Peak RMS Duration Track
––––––––––––––––––––––––––––––––––––––––
DR9 0.00 dB -10.55 dB 5:10 01-Nobody Understands Me But My Guitar
DR6 -1.28 dB -8.42 dB 7:25 02-Baby Please Don't Leave Me
DR10 -3.17 dB -16.79 dB 3:24 03-Done Got Old
DR8 -0.78 dB -10.47 dB 5:49 04-Honey Bee
DR6 -1.28 dB -8.66 dB 6:48 05-Tramp
DR10 0.00 dB -11.99 dB 5:17 06-Crawlin' Kingsnake
DR11 0.00 dB -13.04 dB 3:30 07-Moaning And Groaning
DR10 0.00 dB -13.09 dB 3:48 08-Bad Life Blues
DR9 -1.01 dB -11.43 dB 3:00 09-I Can't Be Satisfied (live)
DR6 0.00 dB -8.20 dB 4:11 10-First Time I Met The Blues (live)
DR7 -1.01 dB -9.34 dB 3:31 11-I'd Rather Be Blind, Crippled And Crazy
DR6 -1.10 dB -8.78 dB 6:26 12-Somebody's Sleeping In My Bed
DR10 0.00 dB -11.15 dB 4:05 13-I Miss You
DR6 -1.01 dB -9.07 dB 7:39 14-Cut You Loose
DR8 -0.01 dB -9.34 dB 3:41 15-Price You Gotta Pay
––––––––––––––––––––––––––––––––––––––––

Number of tracks: 15
Official DR value: DR8

Samplerate: 44100 Hz
Channels: 2
Bits per sample: 16
Bitrate: 876 kbps
Codec: FLAC
================================================================================




Buddy Guy - Can't Quit the Blues (2006) 3 CDs + DVD, Box Set

Buddy Guy - Can't Quit the Blues (2006) 3 CDs + DVD, Box Set

Buddy Guy - Can't Quit the Blues (2006) 3 CDs + DVD, Box Set

Buddy Guy - Can't Quit the Blues (2006) 3 CDs + DVD, Box Set

Buddy Guy - Can't Quit the Blues (2006) 3 CDs + DVD, Box Set

Buddy Guy - Can't Quit the Blues (2006) 3 CDs + DVD, Box Set

Buddy Guy - Can't Quit the Blues (2006) 3 CDs + DVD, Box Set

Buddy Guy - Can't Quit the Blues (2006) 3 CDs + DVD, Box Set

Buddy Guy - Can't Quit the Blues (2006) 3 CDs + DVD, Box Set

Buddy Guy - Can't Quit the Blues (2006) 3 CDs + DVD, Box Set


DVD Content:

My Time After Awhile - documentary (01:23:05)

Live perfomances 1974-2004 (01:07:28):

01. Ten Years Ago
02. Hoodoo Man Blues
03. Messin' With The Kid
04. Come On In This House
05. Sweet Little Angel
06. Damn Right, I've Got The Blues
07. Drowning On Dry Land
08. Tramp
09. Mustang Sally
10. Louise McGhee
11. What'd I Say




Buddy Guy - Can't Quit the Blues (2006) 3 CDs + DVD, Box Set

Buddy Guy - Can't Quit the Blues (2006) 3 CDs + DVD, Box Set