Subcategories

Burl Ives - Greatest Hits (1996)

Posted By: Designol
Burl Ives - Greatest Hits (1996)

Burl Ives - Greatest Hits (1996)
XLD | FLAC | Tracks (Cue&Log) ~ 253 Mb | Mp3 (CBR320) ~ 112 Mb | Covers included
Traditional Folk, Country | Label: Decca/MCA | # MCAD - 11439 | Time: 00:48:45

Gen X-ers will instantly recognize Burl Ives's voice from his appearance as a rotund snowman in the animated TV classic Rudolph the Red Nosed Reindeer. But more mature listeners should remember that Ives was a key figure in the folk explosion of the '50s. His pop handling of traditional tunes brought him great success, and this CD collects some of his best. A few tracks, like a swinging "Blue Tail Fly," complete with Andrews Sisters-style background singing, may seem anathema to the folk aesthetic, but that's splitting hairs. If nothing else, this is exceedingly friendly music, and there's nothing wrong with that.

Review by Tim Sheridan, Allmusic.com

Burl Ives - Greatest Hits (1996)



Tracklist:

01. Big Rock Candy Mountain (2:40)
02. Blue Tail Fly (2:46)
03. Lavender Hill(Dilly Dilly) (2:21)
04. One Hour Ahead Of The Posse (3:07)
05. On Top Of Ol´ Smoky (2:33)
06. True Love Goes On And On (3:05)
07. Polly Wolly Doodle (1:59)
08. A Little Bitty Tear (2:05)
09. Royal Telephone (3:33)
10. Home On The Range (2:28)
11. Funny Way Of Laughin´ (2:42)
12. Call Me Mr. In-Between (2:43)
13. Pearly Shells(Popo O Ewa) (2:27)
14. It Never Happens (2:53)
15. My Heart Stood Still (2:16)
16. By The Light Of The Silvery Moon (2:14)
17. Beautiful Brown Eyes (2:52)
18. This Is All I Ask (4:04)


X Lossless Decoder version 20110703 (135.1)

XLD extraction logfile from 2011-08-04 09:20:57 +0000

Burl Ives / Greatest Hits

Used drive : MATSHITA DVD-R UJ-898 (revision HE13)

Ripper mode : XLD Secure Ripper
Disable audio cache : OK for the drive with a cache less than 1375KiB
Make use of C2 pointers : NO
Read offset correction : 102
Max retry count : 100
Gap status : Analyzed, Appended

TOC of the extracted CD
Track | Start | Length | Start sector | End sector
––––––––––––––––––––––––––––-
1 | 00:00:00 | 02:39:60 | 0 | 11984
2 | 02:39:60 | 02:45:52 | 11985 | 24411
3 | 05:25:37 | 02:20:68 | 24412 | 34979
4 | 07:46:30 | 03:06:52 | 34980 | 48981
5 | 10:53:07 | 02:32:43 | 48982 | 60424
6 | 13:25:50 | 03:05:25 | 60425 | 74324
7 | 16:31:00 | 01:58:50 | 74325 | 83224
8 | 18:29:50 | 02:04:40 | 83225 | 92564
9 | 20:34:15 | 03:32:72 | 92565 | 108536
10 | 24:07:12 | 02:27:40 | 108537 | 119601
11 | 26:34:52 | 02:42:15 | 119602 | 131766
12 | 29:16:67 | 02:43:05 | 131767 | 143996
13 | 31:59:72 | 02:26:40 | 143997 | 154986
14 | 34:26:37 | 02:52:43 | 154987 | 167929
15 | 37:19:05 | 02:16:25 | 167930 | 178154
16 | 39:35:30 | 02:14:20 | 178155 | 188224
17 | 41:49:50 | 02:51:47 | 188225 | 201096
18 | 44:41:22 | 04:03:55 | 201097 | 219376

AccurateRip Summary
Track 01 : OK (confidence 4)
Track 02 : OK (confidence 4)
Track 03 : OK (confidence 4)
Track 04 : OK (confidence 4)
Track 05 : OK (confidence 4)
Track 06 : OK (confidence 4)
Track 07 : OK (confidence 4)
Track 08 : OK (confidence 4)
Track 09 : OK (confidence 4)
Track 10 : OK (confidence 4)
Track 11 : OK (confidence 4)
Track 12 : OK (confidence 4)
Track 13 : OK (confidence 4)
Track 14 : OK (confidence 4)
Track 15 : OK (confidence 4)
Track 16 : OK (confidence 4)
Track 17 : OK (confidence 4)
Track 18 : OK (confidence 4)
->All tracks accurately ripped.

All Tracks
Album gain : -3.92 dB
Peak : 0.999969
Statistics
Read error : 0
Jitter error (maybe fixed) : 0
Retry sector count : 0
Damaged sector count : 0

Track 01
Filename : /Users/treynolds993/Downloads/For Torrents/Burl Ives - 1996 - Greatest Hits [FLAC]/01 Big Rock Candy Mountain.flac
Pre-gap length : 00:02:00

Track gain : -3.53 dB
Peak : 0.999969
CRC32 hash (test run) : 96F6337F
CRC32 hash : 96F6337F
CRC32 hash (skip zero) : 47BF425C
AccurateRip signature : A7142FAC
->Accurately ripped! (confidence 4)
Statistics
Read error : 0
Jitter error (maybe fixed) : 0
Retry sector count : 0
Damaged sector count : 0

Track 02
Filename : /Users/treynolds993/Downloads/For Torrents/Burl Ives - 1996 - Greatest Hits [FLAC]/02 Blue Tail Fly.flac
Pre-gap length : 00:02:18

Track gain : -4.10 dB
Peak : 0.984222
CRC32 hash (test run) : 62067DBC
CRC32 hash : 62067DBC
CRC32 hash (skip zero) : DB02004B
AccurateRip signature : 9A7CF339
->Accurately ripped! (confidence 4)
Statistics
Read error : 0
Jitter error (maybe fixed) : 0
Retry sector count : 0
Damaged sector count : 0

Track 03
Filename : /Users/treynolds993/Downloads/For Torrents/Burl Ives - 1996 - Greatest Hits [FLAC]/03 Lavender Hill(Dilly Dilly).flac
Pre-gap length : 00:01:70

Track gain : -4.34 dB
Peak : 0.988708
CRC32 hash (test run) : 004AF46D
CRC32 hash : 004AF46D
CRC32 hash (skip zero) : F9C5D71B
AccurateRip signature : 6BCEDD66
->Accurately ripped! (confidence 4)
Statistics
Read error : 0
Jitter error (maybe fixed) : 0
Retry sector count : 0
Damaged sector count : 0

Track 04
Filename : /Users/treynolds993/Downloads/For Torrents/Burl Ives - 1996 - Greatest Hits [FLAC]/04 One Hour Ahead Of The Posse.flac
Pre-gap length : 00:02:08

Track gain : -4.11 dB
Peak : 0.835693
CRC32 hash (test run) : B6889A19
CRC32 hash : B6889A19
CRC32 hash (skip zero) : 2A849902
AccurateRip signature : F85DB461
->Accurately ripped! (confidence 4)
Statistics
Read error : 0
Jitter error (maybe fixed) : 0
Retry sector count : 0
Damaged sector count : 0

Track 05
Filename : /Users/treynolds993/Downloads/For Torrents/Burl Ives - 1996 - Greatest Hits [FLAC]/05 On Top Of OlВґ Smoky.flac
Pre-gap length : 00:01:70

Track gain : -5.23 dB
Peak : 0.964203
CRC32 hash (test run) : 15C44B7F
CRC32 hash : 15C44B7F
CRC32 hash (skip zero) : 7BFA21AF
AccurateRip signature : 00936694
->Accurately ripped! (confidence 4)
Statistics
Read error : 0
Jitter error (maybe fixed) : 0
Retry sector count : 0
Damaged sector count : 0

Track 06
Filename : /Users/treynolds993/Downloads/For Torrents/Burl Ives - 1996 - Greatest Hits [FLAC]/06 True Love Goes On And On.flac
Pre-gap length : 00:01:48

Track gain : -5.43 dB
Peak : 0.929779
CRC32 hash (test run) : E570CD6A
CRC32 hash : E570CD6A
CRC32 hash (skip zero) : EE7AF4C1
AccurateRip signature : B3744C73
->Accurately ripped! (confidence 4)
Statistics
Read error : 0
Jitter error (maybe fixed) : 0
Retry sector count : 0
Damaged sector count : 0

Track 07
Filename : /Users/treynolds993/Downloads/For Torrents/Burl Ives - 1996 - Greatest Hits [FLAC]/07 Polly Wolly Doodle.flac
Pre-gap length : 00:02:03

Track gain : -4.30 dB
Peak : 0.988617
CRC32 hash (test run) : CB570B88
CRC32 hash : CB570B88
CRC32 hash (skip zero) : 0CF05BCD
AccurateRip signature : 832C88B6
->Accurately ripped! (confidence 4)
Statistics
Read error : 0
Jitter error (maybe fixed) : 0
Retry sector count : 0
Damaged sector count : 0

Track 08
Filename : /Users/treynolds993/Downloads/For Torrents/Burl Ives - 1996 - Greatest Hits [FLAC]/08 A Little Bitty Tear.flac
Pre-gap length : 00:02:18

Track gain : -3.41 dB
Peak : 0.988556
CRC32 hash (test run) : B30D4067
CRC32 hash : B30D4067
CRC32 hash (skip zero) : 39A6359F
AccurateRip signature : 063585BC
->Accurately ripped! (confidence 4)
Statistics
Read error : 0
Jitter error (maybe fixed) : 0
Retry sector count : 0
Damaged sector count : 0

Track 09
Filename : /Users/treynolds993/Downloads/For Torrents/Burl Ives - 1996 - Greatest Hits [FLAC]/09 Royal Telephone.flac
Pre-gap length : 00:02:20

Track gain : -4.33 dB
Peak : 0.947876
CRC32 hash (test run) : 6807A86B
CRC32 hash : 6807A86B
CRC32 hash (skip zero) : 696EA55E
AccurateRip signature : A4B04BA1
->Accurately ripped! (confidence 4)
Statistics
Read error : 0
Jitter error (maybe fixed) : 0
Retry sector count : 0
Damaged sector count : 0

Track 10
Filename : /Users/treynolds993/Downloads/For Torrents/Burl Ives - 1996 - Greatest Hits [FLAC]/10 Home On The Range.flac
Pre-gap length : 00:02:25

Track gain : -3.85 dB
Peak : 0.938690
CRC32 hash (test run) : 50177F8A
CRC32 hash : 50177F8A
CRC32 hash (skip zero) : C747DF9C
AccurateRip signature : E0A2D82A
->Accurately ripped! (confidence 4)
Statistics
Read error : 0
Jitter error (maybe fixed) : 0
Retry sector count : 0
Damaged sector count : 0

Track 11
Filename : /Users/treynolds993/Downloads/For Torrents/Burl Ives - 1996 - Greatest Hits [FLAC]/11 Funny Way Of LaughinВґ.flac
Pre-gap length : 00:02:25

Track gain : -2.63 dB
Peak : 0.927094
CRC32 hash (test run) : 91B747EF
CRC32 hash : 91B747EF
CRC32 hash (skip zero) : F4101AFB
AccurateRip signature : 6E760CC2
->Accurately ripped! (confidence 4)
Statistics
Read error : 0
Jitter error (maybe fixed) : 0
Retry sector count : 0
Damaged sector count : 0

Track 12
Filename : /Users/treynolds993/Downloads/For Torrents/Burl Ives - 1996 - Greatest Hits [FLAC]/12 Call Me Mr. In-Between.flac
Pre-gap length : 00:02:10

Track gain : -2.55 dB
Peak : 0.915192
CRC32 hash (test run) : EFEAED35
CRC32 hash : EFEAED35
CRC32 hash (skip zero) : 9FEA2C4F
AccurateRip signature : AB80ADCE
->Accurately ripped! (confidence 4)
Statistics
Read error : 0
Jitter error (maybe fixed) : 0
Retry sector count : 0
Damaged sector count : 0

Track 13
Filename : /Users/treynolds993/Downloads/For Torrents/Burl Ives - 1996 - Greatest Hits [FLAC]/13 Pearly Shells(Popo O Ewa).flac
Pre-gap length : 00:02:25

Track gain : -3.96 dB
Peak : 0.988220
CRC32 hash (test run) : BA0D6490
CRC32 hash : BA0D6490
CRC32 hash (skip zero) : 0DEFBAD4
AccurateRip signature : DBB89826
->Accurately ripped! (confidence 4)
Statistics
Read error : 0
Jitter error (maybe fixed) : 0
Retry sector count : 0
Damaged sector count : 0

Track 14
Filename : /Users/treynolds993/Downloads/For Torrents/Burl Ives - 1996 - Greatest Hits [FLAC]/14 It Never Happens.flac
Pre-gap length : 00:02:22

Track gain : -3.54 dB
Peak : 0.936279
CRC32 hash (test run) : 12C9EAEE
CRC32 hash : 12C9EAEE
CRC32 hash (skip zero) : 10DA71C1
AccurateRip signature : 6782F002
->Accurately ripped! (confidence 4)
Statistics
Read error : 0
Jitter error (maybe fixed) : 0
Retry sector count : 0
Damaged sector count : 0

Track 15
Filename : /Users/treynolds993/Downloads/For Torrents/Burl Ives - 1996 - Greatest Hits [FLAC]/15 My Heart Stood Still.flac
Pre-gap length : 00:02:18

Track gain : -2.62 dB
Peak : 0.914062
CRC32 hash (test run) : 8E9EA819
CRC32 hash : 8E9EA819
CRC32 hash (skip zero) : ED8841FA
AccurateRip signature : C02A1590
->Accurately ripped! (confidence 4)
Statistics
Read error : 0
Jitter error (maybe fixed) : 0
Retry sector count : 0
Damaged sector count : 0

Track 16
Filename : /Users/treynolds993/Downloads/For Torrents/Burl Ives - 1996 - Greatest Hits [FLAC]/16 By The Light Of The Silvery Moon.flac
Pre-gap length : 00:02:15

Track gain : -3.52 dB
Peak : 0.988190
CRC32 hash (test run) : 175C34B7
CRC32 hash : 175C34B7
CRC32 hash (skip zero) : 12F3D3BB
AccurateRip signature : EAEADAED
->Accurately ripped! (confidence 4)
Statistics
Read error : 0
Jitter error (maybe fixed) : 0
Retry sector count : 0
Damaged sector count : 0

Track 17
Filename : /Users/treynolds993/Downloads/For Torrents/Burl Ives - 1996 - Greatest Hits [FLAC]/17 Beautiful Brown Eyes.flac
Pre-gap length : 00:02:25

Track gain : -3.37 dB
Peak : 0.988068
CRC32 hash (test run) : E11AEB6B
CRC32 hash : E11AEB6B
CRC32 hash (skip zero) : D0D3533A
AccurateRip signature : 8174D26E
->Accurately ripped! (confidence 4)
Statistics
Read error : 0
Jitter error (maybe fixed) : 0
Retry sector count : 0
Damaged sector count : 0

Track 18
Filename : /Users/treynolds993/Downloads/For Torrents/Burl Ives - 1996 - Greatest Hits [FLAC]/18 This Is All I Ask.flac
Pre-gap length : 00:02:17

Track gain : -2.95 dB
Peak : 0.987854
CRC32 hash (test run) : AE4F6F79
CRC32 hash : AE4F6F79
CRC32 hash (skip zero) : B324E502
AccurateRip signature : 9F9ACDB4
->Accurately ripped! (confidence 4)
Statistics
Read error : 0
Jitter error (maybe fixed) : 0
Retry sector count : 0
Damaged sector count : 0

No errors occurred

End of status report

[CUETools log; Date: 01.02.2018 5:52:19; Version: 2.1.4]
[CTDB TOCID: D29dzpFgeMQsuh2Zm4ynrR_7YsA-] found.
Track | CTDB Status
1 | (13/13) Accurately ripped
2 | (13/13) Accurately ripped
3 | (13/13) Accurately ripped
4 | (13/13) Accurately ripped
5 | (13/13) Accurately ripped
6 | (13/13) Accurately ripped
7 | (13/13) Accurately ripped
8 | (13/13) Accurately ripped
9 | (13/13) Accurately ripped
10 | (13/13) Accurately ripped
11 | (13/13) Accurately ripped
12 | (13/13) Accurately ripped
13 | (13/13) Accurately ripped
14 | (13/13) Accurately ripped
15 | (13/13) Accurately ripped
16 | (13/13) Accurately ripped
17 | (13/13) Accurately ripped
18 | (13/13) Accurately ripped
[AccurateRip ID: 001f329d-019fb956-fd0b6d12] found.
Track [ CRC | V2 ] Status
01 [a7142fac|0c61f4d8] (04+11/15) Accurately ripped
02 [9a7cf339|0078a703] (04+11/15) Accurately ripped
03 [6bcedd66|6d6f8f00] (04+11/15) Accurately ripped
04 [f85db461|863ffa7f] (04+11/15) Accurately ripped
05 [00936694|32e96147] (04+11/15) Accurately ripped
06 [b3744c73|59860ba0] (04+11/15) Accurately ripped
07 [832c88b6|ea7d1453] (04+11/15) Accurately ripped
08 [063585bc|52ae6ecb] (04+11/15) Accurately ripped
09 [a4b04ba1|a6204a77] (04+11/15) Accurately ripped
10 [e0a2d82a|4aa6d496] (04+11/15) Accurately ripped
11 [6e760cc2|c78fafa9] (04+11/15) Accurately ripped
12 [ab80adce|b161b7df] (04+11/15) Accurately ripped
13 [dbb89826|31717a1c] (04+11/15) Accurately ripped
14 [6782f002|7b3c91e2] (04+11/15) Accurately ripped
15 [c02a1590|232e8b54] (04+11/15) Accurately ripped
16 [eaeadaed|a6ffdc3c] (04+11/15) Accurately ripped
17 [8174d26e|6439b66b] (04+11/15) Accurately ripped
18 [9f9acdb4|95572722] (04+11/15) Accurately ripped

Track Peak [ CRC32 ] [W/O NULL]
– 100,0 [1F123D17] [EE357193]
01 100,0 [96F6337F] [47BF425C]
02 98,4 [62067DBC] [DB02004B]
03 98,8 [004AF46D] [F9C5D71B]
04 83,5 [B6889A19] [2A849902]
05 96,4 [15C44B7F] [7BFA21AF]
06 92,9 [E570CD6A] [EE7AF4C1]
07 98,8 [CB570B88] [0CF05BCD]
08 98,8 [B30D4067] [39A6359F]
09 94,7 [6807A86B] [696EA55E]
10 93,8 [50177F8A] [C747DF9C]
11 92,7 [91B747EF] [F4101AFB]
12 91,5 [EFEAED35] [9FEA2C4F]
13 98,8 [BA0D6490] [0DEFBAD4]
14 93,6 [12C9EAEE] [10DA71C1]
15 91,4 [8E9EA819] [ED8841FA]
16 98,8 [175C34B7] [12F3D3BB]
17 98,8 [E11AEB6B] [D0D3533A]
18 98,7 [AE4F6F79] [B324E502]

foobar2000 1.2 / Dynamic Range Meter 1.1.1
log date: 2018-02-01 06:13:31

––––––––––––––––––––––––––––––––––––––––
Analyzed: Burl Ives / Greatest Hits
––––––––––––––––––––––––––––––––––––––––

DR Peak RMS Duration Track
––––––––––––––––––––––––––––––––––––––––
DR14 0.00 dB -17.38 dB 2:40 01-Big Rock Candy Mountain
DR13 -0.14 dB -15.83 dB 2:46 02-Blue Tail Fly
DR13 -0.10 dB -15.33 dB 2:21 03-Lavender Hill(Dilly Dilly)
DR12 -1.56 dB -16.07 dB 3:07 04-One Hour Ahead Of The Posse
DR12 -0.32 dB -14.60 dB 2:33 05-On Top Of Ol´ Smoky
DR11 -0.63 dB -14.42 dB 3:05 06-True Love Goes On And On
DR13 -0.10 dB -15.10 dB 1:59 07-Polly Wolly Doodle
DR12 -0.10 dB -14.06 dB 2:05 08-A Little Bitty Tear
DR11 -0.46 dB -13.97 dB 3:33 09-Royal Telephone
DR11 -0.55 dB -14.70 dB 2:28 10-Home On The Range
DR13 -0.66 dB -15.95 dB 2:42 11-Funny Way Of Laughin´
DR12 -0.77 dB -15.77 dB 2:43 12-Call Me Mr. In-Between
DR12 -0.10 dB -13.62 dB 2:27 13-Pearly Shells(Popo O Ewa)
DR11 -0.57 dB -15.29 dB 2:53 14-It Never Happens
DR11 -0.78 dB -15.03 dB 2:16 15-My Heart Stood Still
DR11 -0.10 dB -13.97 dB 2:14 16-By The Light Of The Silvery Moon
DR11 -0.10 dB -14.34 dB 2:52 17-Beautiful Brown Eyes
DR13 -0.11 dB -17.93 dB 4:04 18-This Is All I Ask
––––––––––––––––––––––––––––––––––––––––

Number of tracks: 18
Official DR value: DR12

Samplerate: 44100 Hz
Channels: 2
Bits per sample: 16
Bitrate: 694 kbps
Codec: FLAC
================================================================================

Burl Ives - Greatest Hits (1996)

Burl Ives - Greatest Hits (1996)

All thanks to original releaser

More interesting music in My Blog