CCS (Collective Consciousness Society) - Tap Turns On The Water: The CCS Story (2013) 2CD

Posted By: Designol
CCS (Collective Consciousness Society) - Tap Turns On The Water: The CCS Story (2013) 2CD

CCS (Collective Consciousness Society) - Tap Turns On The Water: The CCS Story (2013) 2CD
EAC | FLAC | Image (Cue&Log) ~ 918 Mb (incl 5%) | Mp3 (CBR320) ~ 369 Mb (incl 5%) | Scans ~ 79 Mb
Genre: Jazz Rock, Blues Rock, Hard Rock | Label: Esoteric Recordings | # ECLEC 22404 | Time: 02:33:40

Esoteric Recordings are pleased to announce the release of a brand new 2CD deluxe anthology of the complete recordings by the legendary C.C.S.

Formed in 1970, C.C.S. (Collective Consciousness Society) was the brainchild of musician and arranger John Cameron, guitarist Alexis Korner (the father of British Blues) and producer MIckie Most. The group was initially conceived as a recording band only, but following the success of their legendary cover version of Led Zeppelin’s "Whole Lotta Love” (used as the theme for "Top of the Pops” for many years) and "Tap Turns on the Water”, the band also undertook live work.

C.C.S. featured the cream of jazz and blues talent such as flautist Harold McNair, bass players Herbie Flowers and Spike Heatley, sax players Tony Coe and Ron Ross, trumpet players Henry Lowther, Kenny Wheeler and Harold Beckett and drummers Barry Morgan and Tony Carr.

Between 1970 and 1973 C.C.S. released three albums and seven singles for RAK Records, with one album and four singles all reaching the UK Top Forty.

This Esoteric Recordings release has been newly remastered from the original master tapes and features all of the band’s recordings for RAK Records. The set also features an illustrated booklet with new essay.

Up until now I've had all three of Repertoire's 2000 card digipaks for the 3 CCS albums as well as the superb 2004 EMI compilation "A's B's & Rarities" which mopped up the non-album stragglers. But this new 2013 2CD set from England's Esoteric Recordings (part of Cherry Red) supersedes all of those - especially on sound. Here are the collective details:

UK released July 2013 (August 2013 in the USA) - "Tap Turns On The Water: The CCS Story" is a 2CD anthology on Esoteric Recordings ECLEC 22404 (Barcode 5013929450448) and breaks down as follows:

Disc 1 (76:22 minutes):
Tracks 1 to 9 are their debut album "C.C.S." released October 1970 in the UK on RAK Records SRAK 6751
Tracks 10 and 11 are "Walkin'" and "Salome" - both tracks are non-album and were released as a 7" single in the UK on RAK Records RAK 109 in January 1971 ("Walkin'" is a Donovan cover version)
Tracks 12 and 13 are "Tap Turns On The Water" and "Save The World" - both tracks are non-album and were released as a 7" single in the UK on RAK Records RAK 119
Tracks 14 to 18 are Side 1 of their 2nd album called "CCS" (aka "CCS II") - released March 1972 on RAK Records SRAK 503

Disc 2 (77:17 minutes)
Tracks 1 to 5 are Side 1 of "CCS" [aka CCS II]
Track 6 is "If I Never Sing Another Song" which is an outtake recorded during the "CCS II" sessions in 1971 - it first turned up as one of two Previously Unreleased songs on the "A's B's & Rarities" EMI CD from 2004. It has a brass refrain of "Tap Turns On The Water" as it ends.
Track 7 is "Mister, What You Can't Have I Can Get" - a non-album B-side to the 7" single of "Brother" released February 1972 on RAK Records RAK 126
Track 8 is "Sixteen Tons" - a non-album A-side to a UK 7" single - released October 1972 in the UK on RAK Records RAK 141
Tracks 10 to 18 are their 3rd and final studio album `The Best Band In The Land" - released September 1973 on RAK Records SRAK 504
Track 19 is "Hang It On Me" - a non-album B-side to "The Band Played The Boogie" released June 1973 on UK 7" single RAK Records RAK 154
Tracks 20 and 21 are "Hurricane Coming" and "Dragster" - both non-album tracks released April 1974 on a UK 7" single RAK Records RAK 172

A huge ensemble group - C.C.S. (short for COLLECTIVE CONSCIOUSNESS SOCIETY) - was the brain-child of British Blues Boom Godfather ALEXIS KORNER who along with Danish singer PETER THORUP and British arranger JOHN CAMERON pulled together the cream of brass/flute-playing session-men of the time and went after the BLOOD, SWEAT & TEARS market for funked-up rock. Owner of RAK Records - Mickie Most's timing couldn't have been better. Deciding right from the start to include cover versions on their records - they did a fantastic brassed-up take on Led Zeppelin's "Whole Lotta Love" (late 1969) that not only complimented the original - but also defined that "CCS" sound. So when the new BBC pop program "Top Of The Pops" needed a cool theme song - they took this winner - dropped the flute intro, vocal middle and end - and a riffing theme song legend was born. I can vividly remember as a budding teenager thrilling to its power chords every Thursday night as it and Pans People did their thing.

The 3-way card digipak houses a 16-page booklet with sleeve shots, rare advert photos, pictures of Alexis and the band and great liner notes by noted musicologist MALCOME DOME. And the whole project is coordinated and arranged by long-time hero of reissues MARK POWELL. But the big news is the sound. Remastered from first generation tapes by BEN WISEMAN at Audio Archiving in London - this thing sounds just awesome. I should reiterate that the Repertoire CDs had fabulous sound anyway (licensed from EMI) - but these remasters trump them for sheer power and presence - the clarity is fantastic without ever being over-ramped for effect. The only down note is that "This Is My Life" - the great B-side to "Sixteen Tons" - is missing (the 7" mix is different to the album version). But this and a very good outtake called "Blues" are both available on the 2004 EMI CD compilation "A's…" for a very reasonable cost.

The first album is an utter blast with their lead off track being a cover of John Lee Hooker's "Boom Boom" done in their distinctive style (it was the B-side of their October 1970 debut single "Whole Lotta Love"). And then you're hit with their other lethal weapon - the voice of ALEXIS KORNER - a man who straddles these tracks with a presence and enthusiasm that is irresistible. The ethereally atmospheric AK original "Sunrise" sounds just gorgeous with its double-played acoustic guitars. The uber-cool John Cameron original "Dos Cantos" is another flute and brass gem that slinks and tingles and then funks for over eight minutes. It sports wicked lyrics like "weave your web…spider of forgetfulness…" - it deserves praise and rediscovery (and again with that stunning audio quality).

By the time they hit album two (which is actually called C.C.S. on the sleeve and label) - they were in their stride with "Chaos/Can't We Ever Get It Back" and "Misunderstood" standing out (not to mention the wicked "Brother" opener). But the 3rd album (possibly sporting the worst album cover ever) saw the song quality take a major dip and public interest wane (its been a vinyl rarity for years). The icing on the cake is the superb non-album 7"s between the LPs.

Overall - this has been a blast to listen to - so many great memories - and now in stunning sound quality.

A quality reissue of a band that are held in huge affection - well done to all involved…

Review by Mark Barry, Amazon

CCS (Collective Consciousness Society) - Tap Turns On The Water: The CCS Story (2013) 2CD



Tracklist:

CD1:

01. Boom, Boom (03:36)
02. (I Can't Get No) Satisfaction (04:32)
03. Waiting Song (04:35)
04. Lookin' For Fun (04:01)
05. Whole Lotta Love (03:44)
06. Living In The Past (03:47)
07. Sunrise (05:15)
08. Dos Cantos (08:09)
09. Wade In The Water (02:56)
10. Walking (03:12)
11. Salome (03:05)
12. Tap Turns On the Water (03:43)
13. Save The World (04:02)
14. Brother (03:26)
15. Black Dog (04:10)
16. I Want You Back (03:44)
17. Running Out Of Sky (Sky Diver) (04:00)
18. Whole Lotta Rock & Roll (06:14)

CD2:

01. Chaos / Can't We Ever Get it Back (08:56)
02. This is My Life (03:53)
03. Misunderstood (02:47)
04. Maggie's Song (03:42)
05. City (03:37)
06. If I Never Sing Another Song (01:40)
07. Mister, What You Can't Have I Can Get (04:10)
08. Sixteen Tons (02:58)
09. The Band Played the Boogie (03:50)
10. Wild Witch Lady (04:00)
11. Lola (03:35)
12. Primitive Love (03:15)
13. Hundred Highways (03:50)
14. Shakin' All Over (03:09)
15. Memphis (03:41)
16. Sunshine of Your Love (03:40)
17. Our Man in London (02:23)
18. Cannibal Sheep (03:35)
19. Hang it on Me (04:00)
20. Hurricane Coming (03:14)
21. Dragster (03:13)


Exact Audio Copy V1.1 from 23. June 2015

Отчёт EAC об извлечении, выполненном 29. марта 2016, 10:54

C.C.S. / Tap Turns On The Water

Дисковод: ASUS DRW-24B3ST Adapter: 0 ID: 0

Режим чтения : Достоверность
Использование точного потока : Да
Отключение кэша аудио : Да
Использование указателей C2 : Нет

Коррекция смещения при чтении : 6
Способность читать области Lead-in и Lead-out : Нет
Заполнение пропущенных сэмплов тишиной : Да
Удаление блоков с тишиной в начале и конце : Нет
При вычислениях CRC использовались нулевые сэмплы : Да
Интерфейс : Установленный внешний ASPI-интерфейс

Выходной формат : Пользовательский кодировщик
Выбранный битрейт : 1024 kBit/s
Качество : Высокий
Добавление ID3-тега : Нет
Утилита сжатия : C:\Program Files (x86)\Exact Audio Copy\FLAC\FLAC.EXE
Дополнительные параметры : -6 -V -T "ARTIST=%artist%" -T "TITLE=%title%" -T "ALBUM=%albumtitle%" -T "DATE=%year%" -T "TRACKNUMBER=%tracknr%" -T "GENRE=%genre%" -T "COMMENT=%comment%" -T "BAND=%albuminterpret%" -T "ALBUMARTIST=%albuminterpret%" -T "COMPOSER=%composer%" %haslyrics%–tag-from-file=LYRICS="%lyricsfile%"%haslyrics% -T "DISCNUMBER=%cdnumber%" -T "TOTALDISCS=%totalcds%" -T "TOTALTRACKS=%numtracks%" %hascover%–picture="%coverfile%"%hascover% %source% -o %dest%


TOC извлечённого CD

Трек | Старт | Длительность | Начальный сектор | Конечный сектор
––––––––––––––––––––––––––––––––––-
1 | 0:00.00 | 3:36.59 | 0 | 16258
2 | 3:36.59 | 4:32.72 | 16259 | 36730
3 | 8:09.56 | 4:35.39 | 36731 | 57394
4 | 12:45.20 | 4:01.69 | 57395 | 75538
5 | 16:47.14 | 3:44.18 | 75539 | 92356
6 | 20:31.32 | 3:47.61 | 92357 | 109442
7 | 24:19.18 | 5:15.69 | 109443 | 133136
8 | 29:35.12 | 8:09.12 | 133137 | 169823
9 | 37:44.24 | 2:56.47 | 169824 | 183070
10 | 40:40.71 | 3:12.64 | 183071 | 197534
11 | 43:53.60 | 3:05.07 | 197535 | 211416
12 | 46:58.67 | 3:43.41 | 211417 | 228182
13 | 50:42.33 | 4:02.64 | 228183 | 246396
14 | 54:45.22 | 3:26.40 | 246397 | 261886
15 | 58:11.62 | 4:10.29 | 261887 | 280665
16 | 62:22.16 | 3:44.41 | 280666 | 297506
17 | 66:06.57 | 4:00.66 | 297507 | 315572
18 | 70:07.48 | 6:14.37 | 315573 | 343659


Характеристики диапазона извлечения и сообщения об ошибках

Выбранный диапазон

Имя файла C:\Torrents - my\C.C.S. - 2013 - Tap Turns On The Water - The CCS Story\CD1\C.C.S. - Tap Turns On The Water.wav

Пиковый уровень 99.4 %
Скорость извлечения 9.7 X
Качество диапазона 100.0 %
CRC теста CB5C1022
CRC копии CB5C1022
Копирование… OK

Ошибок не произошло

Конец отчёта

==== Контрольная сумма отчёта 9452B7120C297A4C010271D9A3F9857606A217F9D0C379582EB324CFC793D6F8 ====

[CUETools log; Date: 30.03.2016 13:38:34; Version: 2.1.4]
[CTDB TOCID: IuC9Pi8PwXRRJcf.h3_IZ7MnAGQ-] found.
Track | CTDB Status
1 | (7/7) Accurately ripped
2 | (7/7) Accurately ripped
3 | (7/7) Accurately ripped
4 | (7/7) Accurately ripped
5 | (7/7) Accurately ripped
6 | (7/7) Accurately ripped
7 | (7/7) Accurately ripped
8 | (7/7) Accurately ripped
9 | (7/7) Accurately ripped
10 | (7/7) Accurately ripped
11 | (7/7) Accurately ripped
12 | (7/7) Accurately ripped
13 | (7/7) Accurately ripped
14 | (7/7) Accurately ripped
15 | (7/7) Accurately ripped
16 | (7/7) Accurately ripped
17 | (7/7) Accurately ripped
18 | (7/7) Accurately ripped
[AccurateRip ID: 0031b105-0294ced8-0a11e612] found.
Track [ CRC | V2 ] Status
01 [b6540af6|d3f9d790] (0+0/2) No match
02 [187e1213|a3015c36] (0+0/2) No match
03 [429eb925|3757242f] (0+0/2) No match
04 [c5175d22|e866668f] (0+0/2) No match
05 [fd641ce5|1f004ce6] (0+0/2) No match
06 [3d6573d0|951267c5] (0+0/2) No match
07 [2f8ae05b|81356a00] (0+0/2) No match
08 [14e0b431|1a621ab1] (0+0/2) No match
09 [b00cd151|a80e2080] (0+0/2) No match
10 [7a563a69|2c52432d] (0+0/2) No match
11 [81df3acf|1c313dea] (0+0/2) No match
12 [97c43314|e397bb5f] (0+0/2) No match
13 [6def8148|4a31ad29] (0+0/2) No match
14 [368c4c3f|f3f0a4ea] (0+0/2) No match
15 [18bdb913|cbb9f398] (0+0/2) No match
16 [1b16ba37|b0d2c14c] (0+0/2) No match
17 [47bbbcfa|005e1b2b] (0+0/2) No match
18 [d120845e|0f6794a2] (0+0/2) No match
Offsetted by 6:
01 [d4fe99de] (0/2) No match (V2 was not tested)
02 [68c656c3] (0/2) No match (V2 was not tested)
03 [14d3998d] (0/2) No match (V2 was not tested)
04 [c1d0f7c6] (0/2) No match (V2 was not tested)
05 [f4146045] (0/2) No match (V2 was not tested)
06 [6fbff9d0] (0/2) No match (V2 was not tested)
07 [1c036523] (0/2) No match (V2 was not tested)
08 [521a559f] (0/2) No match (V2 was not tested)
09 [056d1c01] (0/2) No match (V2 was not tested)
10 [cebd6f95] (0/2) No match (V2 was not tested)
11 [0b80fe53] (0/2) No match (V2 was not tested)
12 [2d374aae] (0/2) No match (V2 was not tested)
13 [8b5c8dd0] (0/2) No match (V2 was not tested)
14 [bf73cd51] (0/2) No match (V2 was not tested)
15 [3323ab71] (0/2) No match (V2 was not tested)
16 [bd98bfad] (0/2) No match (V2 was not tested)
17 [e3f88a92] (0/2) No match (V2 was not tested)
18 [935fbf08] (0/2) No match (V2 was not tested)

Track Peak [ CRC32 ] [W/O NULL] [ LOG ]
– 99,4 [CB5C1022] [F08411CD] CRC32
01 95,2 [6BA9CCC2] [5DFE98E4]
02 84,9 [4F1D0C84] [6127E17C]
03 94,9 [D67A46F9] [90D3D415]
04 85,8 [2F914F6A] [C84D6067]
05 85,3 [1DA4FD8B] [1E2CEBCF]
06 80,3 [86426B58] [3C384784]
07 84,0 [299B05C6] [BB8CD36F]
08 99,4 [17AB53A3] [EDBCA6FE]
09 78,6 [E96EF875] [D7CFFCE5]
10 68,6 [B26E74E4] [F26DD17E]
11 88,4 [69721062] [26B1915A]
12 83,5 [FC1AF096] [610D2D31]
13 88,4 [23351C90] [AA17BF5F]
14 70,8 [B6A91284] [406C3C10]
15 77,3 [F83C6A60] [746C4520]
16 78,5 [8A4CCC80] [7B70FDD0]
17 75,4 [F6412444] [C4631120]
18 83,8 [A8D5F4AC] [7DB10E76]

foobar2000 1.2 / Dynamic Range Meter 1.1.1
log date: 2016-03-30 13:25:25

––––––––––––––––––––––––––––––––––––––––
Analyzed: C.C.S. / Tap Turns On The Water
––––––––––––––––––––––––––––––––––––––––

DR Peak RMS Duration Track
––––––––––––––––––––––––––––––––––––––––
DR11 -0.43 dB -13.65 dB 3:37 01-Boom, Boom
DR10 -1.42 dB -14.20 dB 4:33 02-(I Can't Get No) Satisfaction
DR11 -0.45 dB -17.16 dB 4:36 03-Waiting Song
DR10 -1.33 dB -14.41 dB 4:02 04-Lookin' For Fun
DR10 -1.38 dB -15.51 dB 3:44 05-Whole Lotta Love
DR10 -1.90 dB -15.38 dB 3:48 06-Living In The Past
DR12 -1.51 dB -19.83 dB 5:16 07-Sunrise
DR11 -0.05 dB -16.27 dB 8:09 08-Dos Cantos
DR10 -2.08 dB -15.42 dB 2:57 09-Wade In The Water
DR10 -3.26 dB -16.15 dB 3:13 10-Walking
DR11 -1.06 dB -14.18 dB 3:05 11-Salome
DR11 -1.56 dB -15.54 dB 3:44 12-Tap Turns On the Water
DR11 -1.06 dB -15.14 dB 4:03 13-Save The World
DR9 -2.99 dB -13.87 dB 3:27 14-Brother
DR11 -2.23 dB -16.07 dB 4:10 15-Black Dog
DR10 -2.10 dB -14.25 dB 3:45 16-I Want You Back
DR10 -2.45 dB -15.95 dB 4:01 17-Running Out Of Sky (Sky Diver)
DR11 -1.53 dB -15.05 dB 6:14 18-Whole Lotta Rock & Roll
––––––––––––––––––––––––––––––––––––––––

Number of tracks: 18
Official DR value: DR10

Samplerate: 44100 Hz
Channels: 2
Bits per sample: 16
Bitrate: 791 kbps
Codec: FLAC
================================================================================


Exact Audio Copy V1.1 from 23. June 2015

Отчёт EAC об извлечении, выполненном 29. марта 2016, 11:16

C.C.S. / Tap Turns on the Water

Дисковод: ASUS DRW-24B3ST Adapter: 0 ID: 0

Режим чтения : Достоверность
Использование точного потока : Да
Отключение кэша аудио : Да
Использование указателей C2 : Нет

Коррекция смещения при чтении : 6
Способность читать области Lead-in и Lead-out : Нет
Заполнение пропущенных сэмплов тишиной : Да
Удаление блоков с тишиной в начале и конце : Нет
При вычислениях CRC использовались нулевые сэмплы : Да
Интерфейс : Установленный внешний ASPI-интерфейс

Выходной формат : Пользовательский кодировщик
Выбранный битрейт : 1024 kBit/s
Качество : Высокий
Добавление ID3-тега : Нет
Утилита сжатия : C:\Program Files (x86)\Exact Audio Copy\FLAC\FLAC.EXE
Дополнительные параметры : -6 -V -T "ARTIST=%artist%" -T "TITLE=%title%" -T "ALBUM=%albumtitle%" -T "DATE=%year%" -T "TRACKNUMBER=%tracknr%" -T "GENRE=%genre%" -T "COMMENT=%comment%" -T "BAND=%albuminterpret%" -T "ALBUMARTIST=%albuminterpret%" -T "COMPOSER=%composer%" %haslyrics%–tag-from-file=LYRICS="%lyricsfile%"%haslyrics% -T "DISCNUMBER=%cdnumber%" -T "TOTALDISCS=%totalcds%" -T "TOTALTRACKS=%numtracks%" %hascover%–picture="%coverfile%"%hascover% %source% -o %dest%


TOC извлечённого CD

Трек | Старт | Длительность | Начальный сектор | Конечный сектор
––––––––––––––––––––––––––––––––––-
1 | 0:00.00 | 8:56.71 | 0 | 40270
2 | 8:56.71 | 3:53.47 | 40271 | 57792
3 | 12:50.43 | 2:47.27 | 57793 | 70344
4 | 15:37.70 | 3:42.68 | 70345 | 87062
5 | 19:20.63 | 3:37.36 | 87063 | 103373
6 | 22:58.24 | 1:40.14 | 103374 | 110887
7 | 24:38.38 | 4:10.24 | 110888 | 129661
8 | 28:48.62 | 2:58.09 | 129662 | 143020
9 | 31:46.71 | 3:50.01 | 143021 | 160271
10 | 35:36.72 | 4:00.51 | 160272 | 178322
11 | 39:37.48 | 3:35.74 | 178323 | 194521
12 | 43:13.47 | 3:15.37 | 194522 | 209183
13 | 46:29.09 | 3:50.18 | 209184 | 226451
14 | 50:19.27 | 3:09.10 | 226452 | 240636
15 | 53:28.37 | 3:41.29 | 240637 | 257240
16 | 57:09.66 | 3:40.22 | 257241 | 273762
17 | 60:50.13 | 2:23.02 | 273763 | 284489
18 | 63:13.15 | 3:35.70 | 284490 | 300684
19 | 66:49.10 | 4:00.32 | 300685 | 318716
20 | 70:49.42 | 3:14.65 | 318717 | 333331
21 | 74:04.32 | 3:13.40 | 333332 | 347846


Характеристики диапазона извлечения и сообщения об ошибках

Выбранный диапазон

Имя файла C:\Torrents - my\C.C.S. - 2013 - Tap Turns On The Water - The CCS Story\CD2\C.C.S. - Tap Turns on the Water.wav

Пиковый уровень 80.9 %
Скорость извлечения 9.8 X
Качество диапазона 100.0 %
CRC теста C7FA915D
CRC копии C7FA915D
Копирование… OK

Ошибок не произошло

Конец отчёта

==== Контрольная сумма отчёта 71ADFAA909306030F2032CC4645EC4C300E637DEF1FAE2B4B11395F17CC366EB ====

[CUETools log; Date: 30.03.2016 13:38:56; Version: 2.1.4]
[CTDB TOCID: 0BVoDmT2V0YwMnfhZq0wtzDa7EQ-] found.
Track | CTDB Status
1 | (7/7) Accurately ripped
2 | (7/7) Accurately ripped
3 | (7/7) Accurately ripped
4 | (7/7) Accurately ripped
5 | (7/7) Accurately ripped
6 | (7/7) Accurately ripped
7 | (7/7) Accurately ripped
8 | (7/7) Accurately ripped
9 | (7/7) Accurately ripped
10 | (7/7) Accurately ripped
11 | (7/7) Accurately ripped
12 | (7/7) Accurately ripped
13 | (7/7) Accurately ripped
14 | (7/7) Accurately ripped
15 | (7/7) Accurately ripped
16 | (7/7) Accurately ripped
17 | (7/7) Accurately ripped
18 | (7/7) Accurately ripped
19 | (7/7) Accurately ripped
20 | (7/7) Accurately ripped
21 | (6/7) Accurately ripped, or (1/7) differs in 4 samples @01:14:18,01:49:01
[AccurateRip ID: 003e122a-039e836e-26121d15] found.
Track [ CRC | V2 ] Status
01 [1e5388fe|9932be7d] (1+1/3) Accurately ripped
02 [3cf4f14e|832b53b5] (1+1/3) Accurately ripped
03 [cf457fa5|e87e1339] (1+1/3) Accurately ripped
04 [0241e1f1|09b4658a] (1+1/3) Accurately ripped
05 [f41270f4|73194ff7] (1+1/3) Accurately ripped
06 [9144e66b|2edcf43b] (1+1/3) Accurately ripped
07 [7024aa19|e9e9d523] (1+1/3) Accurately ripped
08 [2306acc0|6aeb9ec5] (1+1/3) Accurately ripped
09 [7b59f5a7|ab158d66] (1+1/3) Accurately ripped
10 [7652e72c|8a1630ae] (1+1/3) Accurately ripped
11 [f2e55331|c0a93e7b] (1+1/3) Accurately ripped
12 [a6d68581|66dedfff] (1+1/3) Accurately ripped
13 [470de846|ee45f36c] (1+1/3) Accurately ripped
14 [16a76535|5616112a] (1+1/3) Accurately ripped
15 [00593de1|ca0bcfce] (1+1/3) Accurately ripped
16 [11b17d8b|8b87a254] (1+1/3) Accurately ripped
17 [80962568|f10bf682] (1+1/3) Accurately ripped
18 [d74a07f8|f860cbb4] (1+1/3) Accurately ripped
19 [9a6a1bdb|628d2a48] (1+1/3) Accurately ripped
20 [bc29d087|0884f106] (1+1/3) Accurately ripped
21 [a0f17ba4|3a1b22b2] (1+1/3) Accurately ripped

Track Peak [ CRC32 ] [W/O NULL] [ LOG ]
– 80,9 [C7FA915D] [62E6EEF3] CRC32
01 80,9 [3DC77F90] [A6354C2B]
02 71,2 [D2CC5473] [559E9191]
03 77,6 [498B5B18] [92BF1902]
04 59,1 [2BE9BC8C] [2CD02238]
05 61,9 [31593628] [8AD853AB]
06 64,1 [D2898545] [3F646635]
07 77,9 [A3E23459] [68BB46CA]
08 77,9 [5F5A3D1E] [74049584]
09 78,1 [69BEC3E6] [8FE51361]
10 79,2 [0837EA20] [D6C889F4]
11 77,4 [EF7A39C5] [5E729EC2]
12 78,2 [B8157A3F] [45327D5A]
13 78,3 [24644306] [DC3BC0A7]
14 71,9 [0FCB640E] [A6053257]
15 70,4 [7802B61F] [4DF655F0]
16 77,5 [95411B0C] [18DA84C6]
17 79,5 [226984BF] [D1C9D369]
18 77,9 [2C69F371] [D58EC2DD]
19 78,7 [CD142219] [AC3040AF]
20 78,7 [35108F3F] [0D4E7C1F]
21 78,0 [ECBF3C97] [CE2AB2ED]

foobar2000 1.2 / Dynamic Range Meter 1.1.1
log date: 2016-03-30 13:25:50

––––––––––––––––––––––––––––––––––––––––
Analyzed: C.C.S. / Tap Turns on the Water
––––––––––––––––––––––––––––––––––––––––

DR Peak RMS Duration Track
––––––––––––––––––––––––––––––––––––––––
DR10 -1.84 dB -16.34 dB 8:57 01-Chaos / Can't We Ever Get it Back
DR9 -2.95 dB -16.23 dB 3:54 02-This is My Life
DR11 -2.20 dB -18.87 dB 2:47 03-Misunderstood
DR10 -4.55 dB -19.42 dB 3:43 04-Maggie's Song
DR11 -4.16 dB -19.02 dB 3:37 05-City
DR11 -3.86 dB -19.34 dB 1:40 06-If I Never Sing Another Song
DR11 -2.16 dB -16.25 dB 4:10 07-Mister, What You Can't Have I Can Get
DR11 -2.16 dB -16.01 dB 2:58 08-Sixteen Tons
DR9 -2.14 dB -12.94 dB 3:50 09-The Band Played the Boogie
DR9 -2.02 dB -13.37 dB 4:01 10-Wild Witch Lady
DR10 -2.22 dB -14.05 dB 3:36 11-Lola
DR9 -2.14 dB -13.03 dB 3:15 12-Primitive Love
DR10 -2.12 dB -14.44 dB 3:50 13-Hundred Highways
DR8 -2.86 dB -12.82 dB 3:09 14-Shakin' All Over
DR10 -3.04 dB -15.08 dB 3:41 15-Memphis
DR11 -2.21 dB -16.05 dB 3:40 16-Sunshine of Your Love
DR9 -1.98 dB -14.08 dB 2:23 17-Our Man in London
DR10 -2.17 dB -14.32 dB 3:36 18-Cannibal Sheep
DR10 -2.07 dB -13.44 dB 4:00 19-Hang it on Me
DR11 -2.08 dB -14.43 dB 3:15 20-Hurricane Coming
DR11 -2.16 dB -15.44 dB 3:14 21-Dragster
––––––––––––––––––––––––––––––––––––––––

Number of tracks: 21
Official DR value: DR10

Samplerate: 44100 Hz
Channels: 2
Bits per sample: 16
Bitrate: 802 kbps
Codec: FLAC
================================================================================

CCS (Collective Consciousness Society) - Tap Turns On The Water: The CCS Story (2013) 2CD

CCS (Collective Consciousness Society) - Tap Turns On The Water: The CCS Story (2013) 2CD