Tags
Language
Tags

Chain - Toward The Blues (1971) 30th Anniversary Edition, Remastered 2001

Posted By: Designol
Chain - Toward The Blues (1971) 30th Anniversary Edition, Remastered 2001

Chain - Toward The Blues (1971) 30th Anniversary Edition, Remastered 2001
EAC | FLAC | Tracks (Cue&Log) ~ 379 Mb | Mp3 (CBR320) ~ 181 Mb | Scans included
Blues-Rock, Electric Blues | Label: Infinity/Festival Mushroom | # 333972 | 00:53:05

Chain are an Australian blues band formed in 1968 with Phil Manning (guitars, vocals) and others. Chain were named after the classic soul track "Chain of Fools" by the band's early vocalist Wendy Saddington.

In late 1970 Matt Taylor was invited to join Chain and the band convened in Brisbane for their first rehearsal. This line-up is regarded as the classic Chain line-up of Phil Manning (guitars, vocals), Matt Taylor (harmonica, vocals), Barry 'Big Goose' Sullivan (bass) and Barry 'Little Goose' Harvey (drums). Out of that first rehearsal the song “Black and Blue” was born, and Michael Gudinski was appointed their manager, and they soon found a regular gig playing on a Saturday at the Village Green Hotel in Melbourne. Around this time the drinking age in Victoria was lowered from 21 to 18 and the age of pub rock was born.

"Black and Blue" was released by this line-up as a single in March 1971 on Festival's Infinity label, which peaked at #12 on the national singles charts in May. In Melbourne on the 3XY Rock Music Charts, “Black and Blue” replaced Spectrum’s “I’ll Be Gone” at the #1 spot and stayed there for 19 weeks before being replaced by Daddy Cool’s “Eagle Rock”. How is that for a trio of classic Aussie rock songs!

The second single, "Judgement" released in July 1971 reached the top 40 nationally and was followed in September by their debut studio album Toward the Blues, which reached #6 on the Australian national albums charts and continued to sell steadily over the next 20 years, eventually reaching Gold status.

This classic Chain line-up only lasted about 12 months and broke up in July 1971 before their debut album Toward The Blues was released!

Toward The Blues contained all original compositions by Chain except for Thirty Two Twenty Blues is a song written by Robert Johnson and Snatch It Back And Hold It was written by Junior Wells. In a unique Oz Blues twist, the song became known as “Grab a Snatch”, becoming a crowd favourite at their live shows.

This is the 30th Anniversary Edition reissue (September 2001) on CD with 3 bonus tracks, housed in a jewel case with booklet, pressed in Australia.

In October 2010, it was listed in the book, 100 Best Australian Albums.

Chain - Toward The Blues (1971) 30th Anniversary Edition, Remastered 2001



Tracklist:

01. Black And Blue (single version) (3:55)
02. Judgement (3:27)
03. Blow In D (5:56)
04. Thirty Two/Twenty Blues (4:12)
05. Snatch It Back And Hold It (adapted from the stage version) (5:05)
06. Boogie (10:46)
07. Booze Is Bad News Blues (7:47)
08. Albert Gooses Gonna Turn The Blues (7:07)
09. Black And Blue (Original Album version) (4:49)


Exact Audio Copy V1.1 from 23. June 2015

EAC extraction logfile from 6. March 2018, 16:58

Chain / Toward The Blues (2001 Remaster)

Used drive : TSSTcorpCDDVDW SH-222AB Adapter: 1 ID: 0

Read mode : Secure
Utilize accurate stream : Yes
Defeat audio cache : Yes
Make use of C2 pointers : No

Read offset correction : 6
Overread into Lead-In and Lead-Out : No
Fill up missing offset samples with silence : Yes
Delete leading and trailing silent blocks : No
Null samples used in CRC calculations : Yes
Used interface : Native Win32 interface for Win NT & 2000
Gap handling : Appended to previous track

Used output format : User Defined Encoder
Selected bitrate : 1024 kBit/s
Quality : High
Add ID3 tag : No
Command line compressor : C:\Program Files\Exact Audio Copy\Flac\flac.exe
Additional command line options : -8 -V -T "ARTIST=%artist%" -T "TITLE=%title%" -T "ALBUM=%albumtitle%" -T "DATE=%year%" -T "TRACKNUMBER=%tracknr%" -T "GENRE=%genre%" -T "PERFORMER=%albuminterpret%" -T "COMPOSER=%composer%" %haslyrics%–tag-from-file=LYRICS="%lyricsfile%"%haslyrics% -T "ALBUMARTIST=%albumartist%" -T "DISCNUMBER=%cdnumber%" -T "TOTALDISCS=%totalcds%" -T "TOTALTRACKS=%numtracks%" -T "COMMENT=EAC V1.0 beta 4, Secure Mode, Test & Copy, AccurateRip, FLAC -8" %source% -o %dest%


TOC of the extracted CD

Track | Start | Length | Start sector | End sector
––––––––––––––––––––––––––––-
1 | 0:00.00 | 3:55.10 | 0 | 17634
2 | 3:55.10 | 3:27.00 | 17635 | 33159
3 | 7:22.10 | 5:56.20 | 33160 | 59879
4 | 13:18.30 | 4:11.45 | 59880 | 78749
5 | 17:30.00 | 5:05.37 | 78750 | 101661
6 | 22:35.37 | 10:45.58 | 101662 | 150094
7 | 33:21.20 | 7:46.57 | 150095 | 185101
8 | 41:08.02 | 7:07.15 | 185102 | 217141
9 | 48:15.17 | 4:49.33 | 217142 | 238849


Track 1

Filename D:\Chain - Toward The Blues (2001 Remastered 30th. Anniversary Edition) [FLAC]\01 - Black And Blue (single version).wav

Pre-gap length 0:00:02.00

Peak level 100.0 %
Extraction speed 4.4 X
Track quality 100.0 %
Test CRC 4721EA54
Copy CRC 4721EA54
Accurately ripped (confidence 10) [9573DA79] (AR v2)
Copy OK

Track 2

Filename D:\Chain - Toward The Blues (2001 Remastered 30th. Anniversary Edition) [FLAC]\02 - Judgement.wav

Pre-gap length 0:00:02.57

Peak level 94.4 %
Extraction speed 4.8 X
Track quality 100.0 %
Test CRC 70884002
Copy CRC 70884002
Accurately ripped (confidence 10) [5E7E0342] (AR v2)
Copy OK

Track 3

Filename D:\Chain - Toward The Blues (2001 Remastered 30th. Anniversary Edition) [FLAC]\03 - Blow In D.wav

Pre-gap length 0:00:02.80

Peak level 94.4 %
Extraction speed 5.6 X
Track quality 100.0 %
Test CRC 44B7636B
Copy CRC 44B7636B
Accurately ripped (confidence 10) [B36C2890] (AR v2)
Copy OK

Track 4

Filename D:\Chain - Toward The Blues (2001 Remastered 30th. Anniversary Edition) [FLAC]\04 - Thirty Two,Twenty Blues.wav

Pre-gap length 0:00:02.57

Peak level 100.0 %
Extraction speed 6.0 X
Track quality 100.0 %
Test CRC C66C333F
Copy CRC C66C333F
Accurately ripped (confidence 10) [4D3B1C4E] (AR v2)
Copy OK

Track 5

Filename D:\Chain - Toward The Blues (2001 Remastered 30th. Anniversary Edition) [FLAC]\05 - Snatch It Back And Hold It (adapted from the stage version).wav

Pre-gap length 0:00:02.77

Peak level 100.0 %
Extraction speed 6.5 X
Track quality 100.0 %
Test CRC 888E6B84
Copy CRC 888E6B84
Accurately ripped (confidence 10) [FEB4CBF1] (AR v2)
Copy OK

Track 6

Filename D:\Chain - Toward The Blues (2001 Remastered 30th. Anniversary Edition) [FLAC]\06 - Boogie.wav

Pre-gap length 0:00:02.60

Peak level 95.5 %
Extraction speed 7.6 X
Track quality 100.0 %
Test CRC 2B5E6187
Copy CRC 2B5E6187
Accurately ripped (confidence 10) [47CBD03E] (AR v2)
Copy OK

Track 7

Filename D:\Chain - Toward The Blues (2001 Remastered 30th. Anniversary Edition) [FLAC]\07 - Booze Is Bad News Blues.wav

Pre-gap length 0:00:02.57

Peak level 100.0 %
Extraction speed 7.2 X
Track quality 99.9 %
Test CRC 177702C3
Copy CRC 177702C3
Accurately ripped (confidence 10) [49E9AAEA] (AR v2)
Copy OK

Track 8

Filename D:\Chain - Toward The Blues (2001 Remastered 30th. Anniversary Edition) [FLAC]\08 - Albert Gooses Gonna Turn The Blues.wav

Pre-gap length 0:00:02.69

Peak level 100.0 %
Extraction speed 8.6 X
Track quality 100.0 %
Test CRC 72D840C6
Copy CRC 72D840C6
Accurately ripped (confidence 10) [BC67DBBD] (AR v2)
Copy OK

Track 9

Filename D:\Chain - Toward The Blues (2001 Remastered 30th. Anniversary Edition) [FLAC]\09 - Black And Blue (Original Album version).wav

Pre-gap length 0:00:02.86

Peak level 99.9 %
Extraction speed 8.6 X
Track quality 100.0 %
Test CRC C82B54AD
Copy CRC C82B54AD
Accurately ripped (confidence 10) [2C0F6747] (AR v2)
Copy OK


All tracks accurately ripped

No errors occurred

End of status report

–– CUETools DB Plugin V2.1.6

[CTDB TOCID: K7_zX.bUfDneHQuobyvzwlnt1FI-] found
Submit result: K7_zX.bUfDneHQuobyvzwlnt1FI- has been confirmed
Track | CTDB Status
1 | (24/24) Accurately ripped
2 | (24/24) Accurately ripped
3 | (24/24) Accurately ripped
4 | (24/24) Accurately ripped
5 | (24/24) Accurately ripped
6 | (24/24) Accurately ripped
7 | (24/24) Accurately ripped
8 | (24/24) Accurately ripped
9 | (24/24) Accurately ripped


==== Log checksum B633AC2A7001D0B0642431FB69ED7D4732361893A2CB85BE8DC68F733F2F0C4F ====

[CUETools log; Date: 26.05.2018 23:17:04; Version: 2.1.4]
[CTDB TOCID: K7_zX.bUfDneHQuobyvzwlnt1FI-] found.
Track | CTDB Status
1 | (25/25) Accurately ripped
2 | (25/25) Accurately ripped
3 | (25/25) Accurately ripped
4 | (25/25) Accurately ripped
5 | (25/25) Accurately ripped
6 | (25/25) Accurately ripped
7 | (25/25) Accurately ripped
8 | (25/25) Accurately ripped
9 | (25/25) Accurately ripped
[AccurateRip ID: 001083a4-007deb5c-660c7009] found.
Track [ CRC | V2 ] Status
01 [b42c8c14|9573da79] (06+11/20) Accurately ripped
02 [d9f8c30c|5e7e0342] (06+11/20) Accurately ripped
03 [a3137bc7|b36c2890] (06+11/20) Accurately ripped
04 [6c6c2cc9|4d3b1c4e] (06+11/20) Accurately ripped
05 [51c31bf7|feb4cbf1] (06+11/20) Accurately ripped
06 [604468f1|47cbd03e] (06+11/20) Accurately ripped
07 [1d290a89|49e9aaea] (06+11/20) Accurately ripped
08 [ef7dbfa5|bc67dbbd] (06+11/20) Accurately ripped
09 [09a624dd|2c0f6747] (06+11/20) Accurately ripped
Offsetted by -30:
01 [1a207106] (00/20) No match (V2 was not tested)
02 [4cb7709e] (00/20) No match (V2 was not tested)
03 [5e9afbb1] (00/20) No match (V2 was not tested)
04 [6ca4329d] (00/20) No match (V2 was not tested)
05 [85669a71] (00/20) No match (V2 was not tested)
06 [d9fb52a5] (00/20) No match (V2 was not tested)
07 [e3e53993] (00/20) No match (V2 was not tested)
08 [2f9c6bbb] (00/20) No match (V2 was not tested)
09 [8a32e63b] (00/20) No match (V2 was not tested)

Track Peak [ CRC32 ] [W/O NULL] [ LOG ]
– 100,0 [2DFA77C3] [B6A04B5F]
01 100,0 [4721EA54] [A4C4716C] CRC32
02 94,4 [70884002] [A2448155] CRC32
03 94,4 [44B7636B] [F53BA362] CRC32
04 100,0 [C66C333F] [D6EE8C1C] CRC32
05 100,0 [888E6B84] [AA69C24B] CRC32
06 95,5 [2B5E6187] [8EEE59E7] CRC32
07 100,0 [177702C3] [DB50455E] CRC32
08 100,0 [72D840C6] [AC46BE6F] CRC32
09 99,9 [C82B54AD] [BDDD7174] CRC32

foobar2000 1.2 / Dynamic Range Meter 1.1.1
log date: 2018-05-26 23:08:57

––––––––––––––––––––––––––––––––––––––––
Analyzed: Chain / Toward The Blues (2001 Remaster)
––––––––––––––––––––––––––––––––––––––––

DR Peak RMS Duration Track
––––––––––––––––––––––––––––––––––––––––
DR12 0.00 dB -15.44 dB 3:55 01-Black And Blue (single version)
DR10 -0.50 dB -12.60 dB 3:27 02-Judgement
DR10 -0.50 dB -12.54 dB 5:56 03-Blow In D
DR12 0.00 dB -14.47 dB 4:12 04-Thirty Two/Twenty Blues
DR12 0.00 dB -13.58 dB 5:05 05-Snatch It Back And Hold It (adapted from the stage version)
DR12 -0.40 dB -14.82 dB 10:46 06-Boogie
DR12 0.00 dB -14.61 dB 7:47 07-Booze Is Bad News Blues
DR14 0.00 dB -17.45 dB 7:07 08-Albert Gooses Gonna Turn The Blues
DR13 0.00 dB -15.38 dB 4:49 09-Black And Blue (Original Album version)
––––––––––––––––––––––––––––––––––––––––

Number of tracks: 9
Official DR value: DR12

Samplerate: 44100 Hz
Channels: 2
Bits per sample: 16
Bitrate: 836 kbps
Codec: FLAC
================================================================================

Chain - Toward The Blues (1971) 30th Anniversary Edition, Remastered 2001

Chain - Toward The Blues (1971) 30th Anniversary Edition, Remastered 2001

All thanks to original releaser - Cozzo

More interesting music in My Blog