Tags
Language
Tags
June 2024
Su Mo Tu We Th Fr Sa
26 27 28 29 30 31 1
2 3 4 5 6 7 8
9 10 11 12 13 14 15
16 17 18 19 20 21 22
23 24 25 26 27 28 29
30 1 2 3 4 5 6

Montreal SO & Chorus, Pascal Roge, Charles Dutoit - Ravel: Orchestral Works; Piano Concertos, etc (2005) 4CD Box Set

Posted By: Designol
Montreal SO & Chorus, Pascal Roge, Charles Dutoit -  Ravel: Orchestral Works; Piano Concertos, etc (2005) 4CD Box Set

Maurice Ravel: Orchestral Works; Piano Concertos;
L'Enfant et les Sortilèges; Shéhérazade (2005) 4CD Box Set
Orchestre symphonique de Montréal & Chœurs; Charles Dutoit, conductor
Pascal Rogé, piano; John Zirbel, horn; Theodor Baskin, oboe;
Catherine Dubosc, soprano; Timothy Hutchins, flute

EAC | FLAC | Image (Cue&Log) ~ 1.14 Gb | Scans ~ 33 Mb
Genre: Classical | Label: Decca | # 475 6891 DC4 | Time: 05:03:53

For listeners who prefer their Ravel lushly textured, luminously colored, and luxuriantly impressionistic, this four-disc set of his orchestral music performed by Charles Dutoit and the Orchestre Symphonique de Montréal will be just the thing. Recorded between 1981 and 1995 in warmly opulent Decca sound and including all the canonical works plus the two piano concerts and the opera L'Enfant et les sortiléges, Dutoit's approach to Ravel is decidedly sensual, even tactile. One can feel the excitement in the closing "Dance générale" of Daphnis et Chloé, sense the energy in La Valse, smell the sea in Une barque sur l'océan, and touch the dancer's flushed skin in Boléro. This is not to say that details are lost in Dutoit's performances – with the superlative playing of the Montreal orchestra, one can assuredly hear everything in the scores. Nor is this to say that Dutoit neglects the music's clear shapes and lucid forms – with a decisive beat and a clean technique, Dutoit's interpretations are models of clarity. But it is assuredly to assert that, for sheer aural beauty, these recordings cannot be beat. With the very virtuosic and very French playing of Pascal Rogé in the two piano concertos plus very characterful singing in L'Enfant, this set will be mandatory listening for all those who love Ravel.

Review by James Leonard, Allmusic.com

Montreal SO & Chorus, Pascal Roge, Charles Dutoit -  Ravel: Orchestral Works; Piano Concertos, etc (2005) 4CD Box Set



Montreal SO & Chorus, Pascal Roge, Charles Dutoit -  Ravel: Orchestral Works; Piano Concertos, etc (2005) 4CD Box Set



Pascal Rogé, piano (CD2)
Chœurs de L'Orchestre Symphonique de Montréal (CD1)
Orchestre Symphonique De Montréal
Charles Dutoit, conductor

Tracklist:

CD1 (1:14:56)

Daphnis et Chloé, ballet for orchestra
1ere Partie
01. I. Introduction et Danse religieuse (8:15)
02. II. Danse generale (3:27)
03. III. Danse grotesque de Dorcon (1:55)
04. IV. Danse legere et gracieuse de Daphnis (3:37)
05. V. Danse de Lyceion (4:02)
06. VI. Danse lente et mysterieuse (5:07)
2eme Partie
07. I. Introduction (2:50)
08. II. Danse guerriere (4:24)
09. III. Danse suppliante de Chloe (5:47)
3eme Partie
10. I. Lever du jour (6:08)
11. II. Daphne et Chloe miment l'aventure de Pan et de Syrinx (6:58)
12. III. Danse generale (3:34)

13. Pavane pour une infante defunte (6:42)

14. La Valse (12:09)


CD2 (1:19:57)

Piano Concerto in G major
01. I. Allegramente (8:17)
02. II. Adagio assai (9:58)
03. III. Presto (4:03)

Le Tombeau de Couperin
04. I. Prelude (2:48)
05. II. Forlane (5:23)
06. III. Meniuet (4:31)
07. IV. Rgaudon (2:55)

Valses nobles et sentimentales
08. I. Modere - II. Assez lent (3:55)
09. III. Modere - IV. Assez anime (3:12)
10. V. Presque lent - VI. Assez vif (2:13)
11. VII. Moins vif - VIII. Epilogue (6:52)

12. Menuet antique (6:39)

13. Piano Concerto for the left hand (19:10)


CD3 (1:15:46)

01. Fanfare pour 'L'Eventail de Jeanne' (1:28)

02. Bolero (15:07)

03. Alborada del gracioso (7:23)

Ma mère l'oye, ballet for orchestra
04. Prelude (3:18)
05. 1er Tableau: Danse du rouet et Scene (3:28)
06. 2e Tableau: Pavane de la Belle au bois dormant (2:28)
07. 3e Tableau: Les Entretiens de la Belle et de la Bete (5:13)
08. 4e Tableau: Petit Poucet (4:24)
09. 5e Tableau: Laideronnette, Imperatrice des pagodes - Apotheose (9:24)

10. Une barque sur l'ocean (7:57)

11. Rapsodie espagnole - Prelude a la nuit - Malaguena - Habanera - Feria (15:35)


CD4 (1:13:14)

L' enfant et les sortilèges, opera-ballet in 2 parts
01. Act 1 - I. Introduction (4:22)
02. Act 1 - II. Votre serviteur humble, Bergere (5:43)
03. Act 1 - III. Oh! Ma belle tasse chinoise! (6:09)
04. Act 1 - IV. Ah! C'est Elle! C'est Elle! (6:25)
05. Act 1 - V. Deus robinets coulent dans un reservoir! (4:25)
06. Act 2 - I. Ah! Quelle joie de te retrouver, Jardin! (5:20)
07. Act 2 - II. Dans des rainettes (4:58)
08. Act 2 - III. Ah! C'est l'Enfant au couteau (6:06)

Shéhérazade, poems for soprano & orchestra
09. I. Asie (10:06)
10. II. La Flute enchantee (3:11)
11. III. L'Indifferent (3:51)
12. Shéhérazade–Fairy Overture, for orchestra (12:39)


Exact Audio Copy V1.0 beta 1 from 15. November 2010

EAC extraction logfile from 29. June 2012, 22:57

Maurice Ravel / Orchestral Works (CD1)

Used drive : Optiarc DVD RW AD-7203A Adapter: 4 ID: 1

Read mode : Secure
Utilize accurate stream : Yes
Defeat audio cache : Yes
Make use of C2 pointers : No

Read offset correction : 48
Overread into Lead-In and Lead-Out : No
Fill up missing offset samples with silence : Yes
Delete leading and trailing silent blocks : No
Null samples used in CRC calculations : Yes
Used interface : Native Win32 interface for Win NT & 2000

Used output format : User Defined Encoder
Selected bitrate : 128 kBit/s
Quality : High
Add ID3 tag : No
Command line compressor : C:\Program Files\FLAC\flac.exe
Additional command line options : -T "COMMENT=Ripped by GFox" -8 -V %s


TOC of the extracted CD

Track | Start | Length | Start sector | End sector
––––––––––––––––––––––––––––-
1 | 0:00.00 | 8:15.27 | 0 | 37151
2 | 8:15.27 | 3:27.05 | 37152 | 52681
3 | 11:42.32 | 1:54.73 | 52682 | 61304
4 | 13:37.30 | 3:36.62 | 61305 | 77566
5 | 17:14.17 | 4:01.38 | 77567 | 95679
6 | 21:15.55 | 5:07.12 | 95680 | 118716
7 | 26:22.67 | 2:49.45 | 118717 | 131436
8 | 29:12.37 | 4:24.10 | 131437 | 151246
9 | 33:36.47 | 5:47.28 | 151247 | 177299
10 | 39:24.00 | 6:08.15 | 177300 | 204914
11 | 45:32.15 | 6:58.35 | 204915 | 236299
12 | 52:30.50 | 3:34.25 | 236300 | 252374
13 | 56:05.00 | 6:41.67 | 252375 | 282516
14 | 62:46.67 | 12:09.03 | 282517 | 337194


Range status and errors

Selected range

Filename D:\EAC\Maurice Ravel - Orchestral Works (CD1).wav

Peak level 98.4 %
Extraction speed 0.5 X
Range quality 100.0 %
Test CRC 0DCC41A0
Copy CRC 0DCC41A0
Copy OK

No errors occurred


AccurateRip summary

Track 1 accurately ripped (confidence 5) [65677E1A]
Track 2 accurately ripped (confidence 5) [57295AC3]
Track 3 accurately ripped (confidence 5) [D9100AD6]
Track 4 accurately ripped (confidence 5) [404CAA11]
Track 5 accurately ripped (confidence 5) [AD0DB461]
Track 6 accurately ripped (confidence 5) [E2BBA353]
Track 7 accurately ripped (confidence 5) [1586E44A]
Track 8 accurately ripped (confidence 5) [F7158F1D]
Track 9 accurately ripped (confidence 5) [90773129]
Track 10 accurately ripped (confidence 5) [F4C8D2A0]
Track 11 accurately ripped (confidence 5) [315DF8DA]
Track 12 accurately ripped (confidence 5) [DD328658]
Track 13 accurately ripped (confidence 5) [58684383]
Track 14 accurately ripped (confidence 5) [EAE51180]

All tracks accurately ripped

End of status report

==== Log checksum CC9891E4F806443127E3293E10B2809B1F90E6399AE89A6C3BEF69D97FA270B2 ====

[CUETools log; Date: 30.12.2017 2:06:16; Version: 2.1.4]
[CTDB TOCID: RsIAIPRkXIPIzrF38eXBml8s6RM-] found.
Track | CTDB Status
1 | (105/106) Accurately ripped
2 | (105/106) Accurately ripped
3 | (106/106) Accurately ripped
4 | (105/106) Accurately ripped
5 | (105/106) Accurately ripped
6 | (106/106) Accurately ripped
7 | (105/106) Accurately ripped
8 | (106/106) Accurately ripped
9 | (105/106) Accurately ripped
10 | (105/106) Accurately ripped
11 | (105/106) Accurately ripped
12 | (106/106) Accurately ripped
13 | (106/106) Accurately ripped
14 | (104/106) Accurately ripped
[AccurateRip ID: 0021d1c5-016bc4b7-d3118f0e] found.
Track [ CRC | V2 ] Status
01 [65677e1a|7cc00c30] (005+040/100) Accurately ripped
02 [57295ac3|a3560b6b] (005+040/100) Accurately ripped
03 [d9100ad6|6bfb209e] (005+040/100) Accurately ripped
04 [404caa11|54373bc1] (005+040/100) Accurately ripped
05 [ad0db461|f8dcd3e5] (005+039/099) Accurately ripped
06 [e2bba353|b788181c] (005+040/100) Accurately ripped
07 [1586e44a|b317bc48] (005+038/097) Accurately ripped
08 [f7158f1d|4488536e] (005+039/098) Accurately ripped
09 [90773129|5e293186] (005+039/100) Accurately ripped
10 [f4c8d2a0|f35a8117] (005+039/100) Accurately ripped
11 [315df8da|93d1397f] (005+039/100) Accurately ripped
12 [dd328658|6756f0cb] (005+039/099) Accurately ripped
13 [58684383|d330a350] (005+038/097) Accurately ripped
14 [eae51180|aad0f652] (005+035/096) Accurately ripped
Offsetted by -359:
01 [8990f644] (009/100) Accurately ripped
02 [6e1076e9] (009/100) Accurately ripped
03 [d6b5941e] (009/100) Accurately ripped
04 [b6d58331] (009/100) Accurately ripped
05 [82f0f61d] (009/099) Accurately ripped
06 [0a5a3b7c] (009/100) Accurately ripped
07 [af37055d] (009/097) Accurately ripped
08 [c7ce0fb0] (008/098) Accurately ripped
09 [0f378fa0] (009/100) Accurately ripped
10 [158535fc] (009/100) Accurately ripped
11 [b58476ed] (009/100) Accurately ripped
12 [947119fd] (009/099) Accurately ripped
13 [786b033b] (009/097) Accurately ripped
14 [86938219] (009/096) Accurately ripped
Offsetted by -350:
01 [4d1e91aa] (002/100) Accurately ripped
02 [12f47a1c] (002/100) Accurately ripped
03 [16ce3e16] (002/100) Accurately ripped
04 [3b2259db] (002/100) Accurately ripped
05 [216d00e5] (002/099) Accurately ripped
06 [64851189] (002/100) Accurately ripped
07 [c0283513] (002/097) Accurately ripped
08 [72854081] (002/098) Accurately ripped
09 [bd1a2184] (003/100) Accurately ripped
10 [6b762582] (003/100) Accurately ripped
11 [286ade3c] (003/100) Accurately ripped
12 [1cde6ae5] (003/099) Accurately ripped
13 [fc9166c7] (003/097) Accurately ripped
14 [3770a1b2] (003/096) Accurately ripped
Offsetted by 664:
01 [5048bf95] (016/100) Accurately ripped
02 [b812ad99] (016/100) Accurately ripped
03 [15df4f5a] (016/100) Accurately ripped
04 [8ce968dc] (016/100) Accurately ripped
05 [aa644db5] (016/099) Accurately ripped
06 [43154403] (016/100) Accurately ripped
07 [bf4d4d74] (015/097) Accurately ripped
08 [f9686995] (016/098) Accurately ripped
09 [e69d7ca5] (016/100) Accurately ripped
10 [328e2c94] (016/100) Accurately ripped
11 [374f7d92] (016/100) Accurately ripped
12 [9ea4920a] (016/099) Accurately ripped
13 [f12b153b] (015/097) Accurately ripped
14 [7a90b6ad] (016/096) Accurately ripped

Track Peak [ CRC32 ] [W/O NULL] [ LOG ]
– 98,4 [0DCC41A0] [67F65430] CRC32
01 98,3 [B3EEB7A0] [3D09467F]
02 74,8 [E044754D] [9D36D0D9]
03 93,1 [73A2CD53] [C7D31043]
04 52,8 [7CCB2D30] [67A5E79E]
05 93,0 [8C29A4A7] [B8E4B0C0]
06 34,6 [0EC32D23] [A6B71A7D]
07 58,2 [185BDE3E] [722B4F79]
08 97,4 [EA2585E1] [3D7E1772]
09 84,3 [2653DCA0] [99F716B8]
10 96,1 [98A8F8F5] [C061EA86]
11 95,9 [B1F7EDEF] [53FD2554]
12 98,4 [9B93D576] [BDEB511B]
13 37,3 [3BE0C2D1] [DEDD6D9D]
14 98,3 [1A6A7CB1] [9DBF986C]

foobar2000 1.2 / Dynamic Range Meter 1.1.1
log date: 2017-12-30 01:53:46

––––––––––––––––––––––––––––––––––––––––
Analyzed: Montreal Symphony Orchestra & Chorus, Charles Dutoit / Maurice Ravel: Orchestral Works, Concertos, etc (CD1) (1-12)
Montreal Symphony Orchestra, Charles Dutoit, John Zirbel / Maurice Ravel: Orchestral Works, Concertos, etc (CD1) (13)
Montreal Symphony Orchestra, Charles Dutoit / Maurice Ravel: Orchestral Works, Concertos, etc (CD1) (14)
––––––––––––––––––––––––––––––––––––––––

DR Peak RMS Duration Track
––––––––––––––––––––––––––––––––––––––––
DR13 -0.15 dB -20.11 dB 8:15 01-Daphnis et Chloe - 1ere Partie - I. Introduction et Danse religieuse
DR14 -2.52 dB -23.29 dB 3:27 02-Daphnis et Chloe - 1ere Partie - II. Danse generale
DR13 -0.62 dB -21.25 dB 1:55 03-Daphnis et Chloe - 1ere Partie - III. Danse grotesque de Dorcon
DR13 -5.53 dB -25.85 dB 3:37 04-Daphnis et Chloe - 1ere Partie - IV. Danse legere et gracieuse de Daphnis
DR13 -0.62 dB -23.74 dB 4:02 05-Daphnis et Chloe - 1ere Partie - V. Danse de Lyceion
DR14 -9.20 dB -30.63 dB 5:07 06-Daphnis et Chloe - 1ere Partie - VI. Danse lente et mysterieuse
DR14 -4.86 dB -29.70 dB 2:50 07-Daphnis et Chloe - 2eme Partie - I. Introduction
DR14 -0.22 dB -19.15 dB 4:24 08-Daphnis et Chloe - 2eme Partie - II. Danse guerriere
DR13 -1.48 dB -21.94 dB 5:47 09-Daphnis et Chloe - 2eme Partie - III. Danse suppliante de Chloe
DR14 -0.34 dB -20.87 dB 6:08 10-Daphnis et Chloe - 3eme Partie - I. Lever du jour
DR16 -0.36 dB -23.85 dB 6:58 11-Daphnis et Chloe - 3eme Partie - II. Daphne et Chloe miment l'aventure de Pan et de Syrinx
DR12 -0.14 dB -16.95 dB 3:34 12-Daphnis et Chloe - 3eme Partie - III. Danse generale
DR15 -8.55 dB -29.38 dB 6:42 13-Pavane pour une infante defunte
DR14 -0.14 dB -19.34 dB 12:09 14-La Valse
––––––––––––––––––––––––––––––––––––––––

Number of tracks: 14
Official DR value: DR14

Samplerate: 44100 Hz
Channels: 2
Bits per sample: 16
Bitrate: 568 kbps
Codec: FLAC
================================================================================


Exact Audio Copy V1.0 beta 1 from 15. November 2010

EAC extraction logfile from 29. June 2012, 23:45

Maurice Ravel / Orchestral Works (CD2)

Used drive : Optiarc DVD RW AD-7203A Adapter: 4 ID: 1

Read mode : Secure
Utilize accurate stream : Yes
Defeat audio cache : Yes
Make use of C2 pointers : No

Read offset correction : 48
Overread into Lead-In and Lead-Out : No
Fill up missing offset samples with silence : Yes
Delete leading and trailing silent blocks : No
Null samples used in CRC calculations : Yes
Used interface : Native Win32 interface for Win NT & 2000

Used output format : User Defined Encoder
Selected bitrate : 128 kBit/s
Quality : High
Add ID3 tag : No
Command line compressor : C:\Program Files\FLAC\flac.exe
Additional command line options : -T "COMMENT=Ripped by GFox" -8 -V %s


TOC of the extracted CD

Track | Start | Length | Start sector | End sector
––––––––––––––––––––––––––––-
1 | 0:00.00 | 8:17.35 | 0 | 37309
2 | 8:17.35 | 9:57.49 | 37310 | 82133
3 | 18:15.09 | 4:03.24 | 82134 | 100382
4 | 22:18.33 | 2:47.69 | 100383 | 112976
5 | 25:06.27 | 5:22.50 | 112977 | 137176
6 | 30:29.02 | 4:31.27 | 137177 | 157528
7 | 35:00.29 | 2:55.06 | 157529 | 170659
8 | 37:55.35 | 3:55.04 | 170660 | 188288
9 | 41:50.39 | 3:12.08 | 188289 | 202696
10 | 45:02.47 | 2:13.37 | 202697 | 212708
11 | 47:16.09 | 6:52.09 | 212709 | 243617
12 | 54:08.18 | 6:38.66 | 243618 | 273533
13 | 60:47.09 | 19:09.53 | 273534 | 359761


Range status and errors

Selected range

Filename D:\EAC\Maurice Ravel - Orchestral Works (CD2).wav

Peak level 98.4 %
Extraction speed 0.8 X
Range quality 100.0 %
Test CRC F7DCB65E
Copy CRC F7DCB65E
Copy OK

No errors occurred


AccurateRip summary

Track 1 accurately ripped (confidence 4) [ABB2CC75]
Track 2 accurately ripped (confidence 4) [54841AD9]
Track 3 accurately ripped (confidence 4) [5B3F30ED]
Track 4 accurately ripped (confidence 4) [6966AB73]
Track 5 accurately ripped (confidence 4) [0E7259A7]
Track 6 accurately ripped (confidence 4) [199BBCC1]
Track 7 accurately ripped (confidence 4) [30084675]
Track 8 accurately ripped (confidence 4) [90DF4D8E]
Track 9 accurately ripped (confidence 4) [7945B7E2]
Track 10 accurately ripped (confidence 4) [C9B52E1A]
Track 11 accurately ripped (confidence 4) [948ACB40]
Track 12 accurately ripped (confidence 4) [780F5CE7]
Track 13 accurately ripped (confidence 4) [2E15C00D]

All tracks accurately ripped

End of status report

==== Log checksum DD85DB39DC443B96FD55E7DA75F2912F5375ADE4CC669191B2E18FE6A77D96EF ====

[CUETools log; Date: 30.12.2017 2:07:08; Version: 2.1.4]
[CTDB TOCID: eQ53y3jJyYBbBfsTNwOCSh5Xdjs-] found.
Track | CTDB Status
1 | (25/25) Accurately ripped
2 | (24/25) Accurately ripped
3 | (25/25) Accurately ripped
4 | (25/25) Accurately ripped
5 | (25/25) Accurately ripped
6 | (25/25) Accurately ripped
7 | (25/25) Accurately ripped
8 | (25/25) Accurately ripped
9 | (25/25) Accurately ripped
10 | (24/25) Accurately ripped
11 | (25/25) Accurately ripped
12 | (24/25) Accurately ripped
13 | (21/25) Accurately ripped
[AccurateRip ID: 0022c57b-01521269-af12bc0d] found.
Track [ CRC | V2 ] Status
01 [abb2cc75|d2b647eb] (05+13/18) Accurately ripped
02 [54841ad9|3b9f173a] (05+13/18) Accurately ripped
03 [5b3f30ed|7b34715c] (05+13/18) Accurately ripped
04 [6966ab73|d91d4732] (05+12/17) Accurately ripped
05 [0e7259a7|e7a51648] (05+12/17) Accurately ripped
06 [199bbcc1|39157a01] (05+12/17) Accurately ripped
07 [30084675|15c20709] (05+12/17) Accurately ripped
08 [90df4d8e|0dbe2600] (05+12/17) Accurately ripped
09 [7945b7e2|0fbf106a] (05+12/17) Accurately ripped
10 [c9b52e1a|d54cddba] (05+12/17) Accurately ripped
11 [948acb40|a281fabe] (05+12/17) Accurately ripped
12 [780f5ce7|a107441f] (05+12/17) Accurately ripped
13 [2e15c00d|038f99a5] (05+11/16) Accurately ripped

Track Peak [ CRC32 ] [W/O NULL] [ LOG ]
– 98,4 [F7DCB65E] [C074FC4E] CRC32
01 97,7 [50ADCFEF] [AB54E49D]
02 35,2 [C4763E6D] [C3DFCE8A]
03 83,0 [61179466] [FB3A7C29]
04 52,6 [F22BFE19] [D5CA7CC5]
05 25,0 [A9A5F502] [0631605A]
06 49,6 [7452FEAD] [39E8CFCF]
07 57,8 [4250BA1C] [03B588E4]
08 80,5 [43BF810F] [554E8BC5]
09 27,6 [CFED8A28] [A13246C0]
10 45,6 [5ED92B91] [AA85F55D]
11 92,3 [AF1F88CE] [4BF1853C]
12 85,4 [0DC9C684] [06B5833E]
13 98,4 [04D8CAB5] [6F67D8CA]

foobar2000 1.2 / Dynamic Range Meter 1.1.1
log date: 2017-12-30 01:54:40

––––––––––––––––––––––––––––––––––––––––
Analyzed: Pascal Roge, Montreal Symphony Orchestra, Charles Dutoit / Maurice Ravel: Orchestral Works, Concertos, etc (CD2)
––––––––––––––––––––––––––––––––––––––––

DR Peak RMS Duration Track
––––––––––––––––––––––––––––––––––––––––
DR19 -0.20 dB -25.26 dB 8:17 01-Piano Concerto in G major - I. Allegramente
DR17 -9.05 dB -33.60 dB 9:58 02-Piano Concerto in G major - II. Adagio assai
DR16 -1.61 dB -24.79 dB 4:03 03-Piano Concerto in G major - III. Presto
DR13 -5.57 dB -27.00 dB 2:48 04-Le Tombeau de Couperin - I. Prelude
DR14 -12.03 dB -31.40 dB 5:23 05-Le Tombeau de Couperin - II. Forlane
DR15 -6.08 dB -28.90 dB 4:31 06-Le Tombeau de Couperin - III. Meniuet
DR15 -4.75 dB -26.31 dB 2:55 07-Le Tombeau de Couperin - IV. Rgaudon
DR14 -1.88 dB -24.20 dB 3:55 08-Valses nobles et sentimentales - I. Modere - II. Assez lent
DR12 -11.17 dB -29.13 dB 3:12 09-Valses nobles et sentimentales - III. Modere - IV. Assez anime
DR15 -6.82 dB -28.78 dB 2:13 10-Valses nobles et sentimentales - V. Presque lent - VI. Assez vif
DR17 -0.69 dB -24.84 dB 6:52 11-Valses nobles et sentimentales - VII. Moins vif - VIII. Epilogue
DR14 -1.36 dB -23.15 dB 6:39 12-Menuet antique
DR16 -0.14 dB -23.47 dB 19:10 13-Piano Concerto for the left hand
––––––––––––––––––––––––––––––––––––––––

Number of tracks: 13
Official DR value: DR15

Samplerate: 44100 Hz
Channels: 2
Bits per sample: 16
Bitrate: 485 kbps
Codec: FLAC
================================================================================


Exact Audio Copy V1.0 beta 1 from 15. November 2010

EAC extraction logfile from 30. June 2012, 0:33

Maurice Ravel / Orchestral Works (CD3)

Used drive : Optiarc DVD RW AD-7203A Adapter: 4 ID: 1

Read mode : Secure
Utilize accurate stream : Yes
Defeat audio cache : Yes
Make use of C2 pointers : No

Read offset correction : 48
Overread into Lead-In and Lead-Out : No
Fill up missing offset samples with silence : Yes
Delete leading and trailing silent blocks : No
Null samples used in CRC calculations : Yes
Used interface : Native Win32 interface for Win NT & 2000

Used output format : User Defined Encoder
Selected bitrate : 128 kBit/s
Quality : High
Add ID3 tag : No
Command line compressor : C:\Program Files\FLAC\flac.exe
Additional command line options : -T "COMMENT=Ripped by GFox" -8 -V %s


TOC of the extracted CD

Track | Start | Length | Start sector | End sector
––––––––––––––––––––––––––––-
1 | 0:00.00 | 1:28.18 | 0 | 6617
2 | 1:28.18 | 15:07.30 | 6618 | 74672
3 | 16:35.48 | 7:23.00 | 74673 | 107897
4 | 23:58.48 | 3:18.31 | 107898 | 122778
5 | 27:17.04 | 3:28.30 | 122779 | 138408
6 | 30:45.34 | 2:27.65 | 138409 | 149498
7 | 33:13.24 | 5:13.27 | 149499 | 173000
8 | 38:26.51 | 4:23.43 | 173001 | 192768
9 | 42:50.19 | 9:23.54 | 192769 | 235047
10 | 52:13.73 | 7:56.73 | 235048 | 270820
11 | 60:10.71 | 15:34.53 | 270821 | 340923


Range status and errors

Selected range

Filename D:\EAC\Maurice Ravel - Orchestral Works (CD3).wav

Peak level 98.6 %
Extraction speed 0.7 X
Range quality 99.9 %
Test CRC 49B04268
Copy CRC 49B04268
Copy OK

No errors occurred


AccurateRip summary

Track 1 accurately ripped (confidence 4) [94F1E9F4]
Track 2 accurately ripped (confidence 4) [97809F7F]
Track 3 accurately ripped (confidence 4) [AEB9893D]
Track 4 accurately ripped (confidence 4) [B12DF4BF]
Track 5 accurately ripped (confidence 4) [06FE924F]
Track 6 accurately ripped (confidence 4) [FE82D78C]
Track 7 accurately ripped (confidence 4) [B3F1C826]
Track 8 accurately ripped (confidence 4) [EDFD997A]
Track 9 accurately ripped (confidence 4) [222F5742]
Track 10 accurately ripped (confidence 4) [3CAB86C9]
Track 11 accurately ripped (confidence 4) [68F42446]

All tracks accurately ripped

End of status report

==== Log checksum 20A84DD58D261A8E29F9CB43F4C588651370C6604266271ACD3651211788A836 ====

[CUETools log; Date: 30.12.2017 2:07:42; Version: 2.1.4]
[CTDB TOCID: XP3dPt0oo0x1CvKBcOJCjnVHrkQ-] found.
Track | CTDB Status
1 | (65/65) Accurately ripped
2 | (64/65) Accurately ripped
3 | (64/65) Accurately ripped
4 | (65/65) Accurately ripped
5 | (65/65) Accurately ripped
6 | (65/65) Accurately ripped
7 | (65/65) Accurately ripped
8 | (65/65) Accurately ripped
9 | (65/65) Accurately ripped
10 | (65/65) Accurately ripped
11 | (64/65) Accurately ripped
[AccurateRip ID: 001ba7d7-00ef8d12-a111c10b] found.
Track [ CRC | V2 ] Status
01 [94f1e9f4|e4d7a5b7] (05+37/42) Accurately ripped
02 [97809f7f|d4a4c533] (05+37/42) Accurately ripped
03 [aeb9893d|c5227889] (05+38/43) Accurately ripped
04 [b12df4bf|ba4841d1] (05+38/43) Accurately ripped
05 [06fe924f|4ddba78f] (05+38/43) Accurately ripped
06 [fe82d78c|d0b89e0d] (05+38/43) Accurately ripped
07 [b3f1c826|a4109b59] (05+38/43) Accurately ripped
08 [edfd997a|6f1758d7] (05+38/43) Accurately ripped
09 [222f5742|5e79ca98] (05+38/43) Accurately ripped
10 [3cab86c9|81f56f04] (05+38/43) Accurately ripped
11 [68f42446|d75cc92e] (05+35/40) Accurately ripped

Track Peak [ CRC32 ] [W/O NULL] [ LOG ]
– 98,6 [49B04268] [2F0DB6F4] CRC32
01 32,3 [EC7013D0] [7BF7C8C7]
02 97,6 [A3B845E9] [780F5AD4]
03 98,4 [5D8CD0A9] [0C47A0CE]
04 42,5 [5318DE0E] [9A42168E]
05 58,6 [2FC7A974] [4D0B323F]
06 20,7 [2BD1968D] [60C8C50D]
07 58,8 [E0EC5B00] [8E8175EA]
08 25,4 [B2297B02] [4BEC6267]
09 84,2 [D1CA6B50] [2ADD5816]
10 89,5 [0AAA1304] [33261983]
11 98,6 [74F11300] [38C4BE05]

foobar2000 1.2 / Dynamic Range Meter 1.1.1
log date: 2017-12-30 01:55:14

––––––––––––––––––––––––––––––––––––––––
Analyzed: Montreal Symphony Orchestra, Charles Dutoit / Maurice Ravel: Orchestral Works, Concertos, etc (CD3)
––––––––––––––––––––––––––––––––––––––––

DR Peak RMS Duration Track
––––––––––––––––––––––––––––––––––––––––
DR12 -9.79 dB -29.56 dB 1:28 01-Fanfare pour 'L'Eventail de Jeanne'
DR15 -0.20 dB -20.48 dB 15:07 02-Bolero
DR15 -0.14 dB -21.81 dB 7:23 03-Alborada del gracioso
DR14 -7.42 dB -29.72 dB 3:18 04-Ma Mere L'Oye - Prelude
DR14 -4.64 dB -29.82 dB 3:28 05-Ma Mere L'Oye - 1er Tableau: Danse du rouet et Scene
DR14 -13.64 dB -36.16 dB 2:28 06-Ma Mere L'Oye - 2e Tableau: Pavane de la Belle au bois dormant
DR16 -4.60 dB -30.65 dB 5:13 07-Ma Mere L'Oye - 3e Tableau: Les Entretiens de la Belle et de la Bete
DR14 -11.89 dB -33.79 dB 4:24 08-Ma Mere L'Oye - 4e Tableau: Petit Poucet
DR15 -1.49 dB -27.02 dB 9:24 09-Ma Mere L'Oye - 5e Tableau: Laideronnette, Imperatrice des pagodes - Apotheose
DR15 -0.96 dB -24.34 dB 7:57 10-Une barque sur l'ocean
DR17 -0.12 dB -23.29 dB 15:35 11-Rapsodie espagnole - Prelude a la nuit - Malaguena - Habanera - Feria
––––––––––––––––––––––––––––––––––––––––

Number of tracks: 11
Official DR value: DR15

Samplerate: 44100 Hz
Channels: 2
Bits per sample: 16
Bitrate: 531 kbps
Codec: FLAC
================================================================================


Exact Audio Copy V1.0 beta 1 from 15. November 2010

EAC extraction logfile from 30. June 2012, 1:45

Maurice Ravel / Orchestral Works (CD4)

Used drive : Optiarc DVD RW AD-7203A Adapter: 4 ID: 1

Read mode : Secure
Utilize accurate stream : Yes
Defeat audio cache : Yes
Make use of C2 pointers : No

Read offset correction : 48
Overread into Lead-In and Lead-Out : No
Fill up missing offset samples with silence : Yes
Delete leading and trailing silent blocks : No
Null samples used in CRC calculations : Yes
Used interface : Native Win32 interface for Win NT & 2000

Used output format : User Defined Encoder
Selected bitrate : 128 kBit/s
Quality : High
Add ID3 tag : No
Command line compressor : C:\Program Files\FLAC\flac.exe
Additional command line options : -T "COMMENT=Ripped by GFox" -8 -V %s


TOC of the extracted CD

Track | Start | Length | Start sector | End sector
––––––––––––––––––––––––––––-
1 | 0:00.33 | 4:21.50 | 33 | 19657
2 | 4:22.08 | 5:42.72 | 19658 | 45379
3 | 10:05.05 | 6:09.08 | 45380 | 73062
4 | 16:14.13 | 6:24.42 | 73063 | 101904
5 | 22:38.55 | 4:24.40 | 101905 | 121744
6 | 27:03.20 | 5:20.13 | 121745 | 145757
7 | 32:23.33 | 4:58.37 | 145758 | 168144
8 | 37:21.70 | 6:06.00 | 168145 | 195594
9 | 43:27.70 | 10:06.25 | 195595 | 241069
10 | 53:34.20 | 3:11.00 | 241070 | 255394
11 | 56:45.20 | 3:50.50 | 255395 | 272694
12 | 60:35.70 | 12:38.50 | 272695 | 329594


Range status and errors

Selected range

Filename D:\EAC\Maurice Ravel - Orchestral Works (CD4).wav

Peak level 100.0 %
Extraction speed 0.5 X
Range quality 100.0 %
Test CRC 90DC936D
Copy CRC 90DC936D
Copy OK

No errors occurred


AccurateRip summary

Track 1 accurately ripped (confidence 4) [2212F49E]
Track 2 accurately ripped (confidence 4) [F5E8BB25]
Track 3 accurately ripped (confidence 4) [FC1F7873]
Track 4 accurately ripped (confidence 4) [A33B1C2C]
Track 5 accurately ripped (confidence 4) [6BEA6F49]
Track 6 accurately ripped (confidence 4) [A7AEDF94]
Track 7 accurately ripped (confidence 4) [21B43FC0]
Track 8 accurately ripped (confidence 4) [5C25132A]
Track 9 accurately ripped (confidence 4) [67D4DECB]
Track 10 accurately ripped (confidence 4) [B5C2AF0B]
Track 11 accurately ripped (confidence 4) [5014FD4D]
Track 12 accurately ripped (confidence 4) [F7035766]

All tracks accurately ripped

End of status report

==== Log checksum E5CD2783BEB4D22AEB7DE05F89593F27A383C45BAD6B94954D5D904510D52D1A ====

[CUETools log; Date: 30.12.2017 2:08:30; Version: 2.1.4]
Pregap length 00:00:33.
[CTDB TOCID: o.R76LNAZIH9FCLDPSIhi5LOwO8-] found.
Track | CTDB Status
1 | (15/15) Accurately ripped
2 | (15/15) Accurately ripped
3 | (15/15) Accurately ripped
4 | (15/15) Accurately ripped
5 | (15/15) Accurately ripped
6 | (15/15) Accurately ripped
7 | (15/15) Accurately ripped
8 | (15/15) Accurately ripped
9 | (15/15) Accurately ripped
10 | (15/15) Accurately ripped
11 | (15/15) Accurately ripped
12 | (14/15) Accurately ripped
[AccurateRip ID: 001e0f75-011bf9f5-a5112a0c] found.
Track [ CRC | V2 ] Status
01 [2212f49e|4887798d] (05+11/16) Accurately ripped
02 [f5e8bb25|d3405f80] (05+11/16) Accurately ripped
03 [fc1f7873|ab427868] (05+11/16) Accurately ripped
04 [a33b1c2c|3d1dfce2] (05+11/16) Accurately ripped
05 [6bea6f49|b95d900f] (05+11/16) Accurately ripped
06 [a7aedf94|5b5e5871] (05+11/16) Accurately ripped
07 [21b43fc0|f08fe6cd] (05+11/16) Accurately ripped
08 [5c25132a|dabecc7d] (05+11/16) Accurately ripped
09 [67d4decb|a59449c4] (05+11/16) Accurately ripped
10 [b5c2af0b|34ae55f6] (05+11/16) Accurately ripped
11 [5014fd4d|cbc4c9d2] (05+11/16) Accurately ripped
12 [f7035766|810437a4] (05+10/15) Accurately ripped

Track Peak [ CRC32 ] [W/O NULL] [ LOG ]
– 100,0 [90DC936D] [B6BF1754] CRC32
01 80,4 [0BC20997] [6E2E4B81]
02 94,4 [FA27CF06] [7329FB1D]
03 70,3 [68407F1A] [6C80D3FB]
04 56,9 [248976FC] [264D220E]
05 93,1 [AD3DC656] [DD7311AE]
06 56,0 [7BA75428] [5DD2B2F9]
07 72,5 [B0C57D5E] [93A36352]
08 100,0 [5465735D] [6E39BB13]
09 98,4 [D28E3BFD] [CF74ADB1]
10 38,1 [239D65FF] [D9906EB5]
11 30,4 [B2584DA8] [538136F1]
12 99,9 [E58AB639] [D1753EC9]

foobar2000 1.2 / Dynamic Range Meter 1.1.1
log date: 2017-12-30 01:55:21

––––––––––––––––––––––––––––––––––––––––
Analyzed: Montreal Symphony Orchestra, Charles Dutoit, Catherine Dubosc / Maurice Ravel: Orchestral Works, Concertos, etc (CD4)
––––––––––––––––––––––––––––––––––––––––

DR Peak RMS Duration Track
––––––––––––––––––––––––––––––––––––––––
DR17 -0.14 dB -26.22 dB 10:06 09-Sheherazade - I. Asie
DR12 -8.38 dB -30.31 dB 3:11 10-Sheherazade - II. La Flute enchantee
DR15 -10.34 dB -34.10 dB 3:51 11-Sheherazade - III. L'Indifferent
––––––––––––––––––––––––––––––––––––––––

Number of tracks: 3
Official DR value: DR15

Samplerate: 44100 Hz
Channels: 2
Bits per sample: 16
Bitrate: 557 kbps
Codec: FLAC
================================================================================

––––––––––––––––––––––––––––––––––––––––
Analyzed: Montreal Symphony Orchestra, Charles Dutoit / Maurice Ravel: Orchestral Works, Concertos, etc (CD4)
––––––––––––––––––––––––––––––––––––––––

DR Peak RMS Duration Track
––––––––––––––––––––––––––––––––––––––––
DR15 -1.89 dB -25.98 dB 4:22 01-L'Enfant et les Sortileges - Act 1 I. Introduction
DR17 -0.50 dB -24.23 dB 5:43 02-L'Enfant et les Sortileges - Act 1 II. Votre serviteur humble, Bergere
DR16 -3.06 dB -27.10 dB 6:09 03-L'Enfant et les Sortileges - Act 1 - III. Oh! Ma belle tasse chinoise!
DR15 -4.88 dB -27.63 dB 6:25 04-L'Enfant et les Sortileges - Act 1 - IV. Ah! C'est Elle! C'est Elle!
DR16 -0.62 dB -23.25 dB 4:25 05-L'Enfant et les Sortileges - Act 1 - V. Deus robinets coulent dans un reservoir!
DR16 -5.02 dB -27.54 dB 5:20 06-L'Enfant et les Sortileges - Act 2 - I. Ah! Quelle joie de te retrouver, Jardin!
DR17 -2.79 dB -27.76 dB 4:58 07-L'Enfant et les Sortileges - Act 2 - II. Dans des rainettes
DR17 0.00 dB -24.53 dB 6:06 08-L'Enfant et les Sortileges - Act 2 - III. Ah! C'est l'Enfant au couteau
DR17 0.00 dB -23.79 dB 12:39 12-Sheherazade - Ouverture de feerie
––––––––––––––––––––––––––––––––––––––––

Number of tracks: 9
Official DR value: DR16

Samplerate: 44100 Hz
Channels: 2
Bits per sample: 16
Bitrate: 557 kbps
Codec: FLAC
================================================================================

Montreal SO & Chorus, Pascal Roge, Charles Dutoit -  Ravel: Orchestral Works; Piano Concertos, etc (2005) 4CD Box Set

All thanks to original releaser - GFox

More interesting music in My Blog