Tags
Language
Tags

Charlie Musselwhite Blues Band - Tennessee Woman (1969)

Posted By: Designol
Charlie Musselwhite Blues Band - Tennessee Woman (1969)

Charlie Musselwhite Blues Band - Tennessee Woman (1969)
EAC | FLAC | Image (Cue&Log) ~ 218 Mb | Mp3 (CBR320) ~ 108 Mb | Scans included
Electric Chicago Blues, Harmonica Blues | Label: Vanguard | # VMD 6528-2 | Time: 00:42:06

The addition of jazz pianist Skip Rose gave a new dimension to the ensemble sound, and provided a perfect foil to Charlie's own soloing – especially on the re-take of "Cristo Redentor," extended to 11 minutes, shifting to double-time in spots. Rose's instrumental, "A Nice Day for Something," is a welcome change of pace, and Musselwhite's "Blue Feeling Today" compares favorably to fine covers of Little Walter and Fenton Robinson tunes.

Review by Dan Forte, Allmusic.com

Charlie Musselwhite Blues Band - Tennessee Woman (1969)

Charlie Musselwhite Blues Band - Tennessee Woman (1969)



Tracklist:

01. Tennessee Woman (03:46)
02. Blue Feeling Today (05:03)
03. A Nice Day For Something (06:40)
04. Everybody Needs Somebody (03:24)
05. I Don't Play, I'll Be Your Man Some Day (03:19)
06. Christo Redemptor (11:49)
07. Little By Little (02:48)
08. I'm A Stranger (05:16)


Exact Audio Copy V0.99 prebeta 4 from 23. January 2008

Отчёт EAC об извлечении, выполненном 13. марта 2009, 18:15

Charlie Musselwhite / Tennessee Woman

Дисковод: HL-DT-STRW/DVD GCC-4522B Adapter: 1 ID: 1

Режим чтения : Достоверность
Использование точного потока : Да
Отключение кэша аудио : Да
Использование указателей C2 : Нет

Коррекция смещения при чтении : 6
Способность читать области Lead-in и Lead-out : Нет
Заполнение пропущенных сэмплов тишиной : Да
Удаление блоков с тишиной в начале и конце : Нет
При вычислениях CRC использовались нулевые сэмплы : Да
Интерфейс : Установленный внешний ASPI-интерфейс

Выходной формат : Пользовательский кодировщик
Выбранный битрейт : 1024 kBit/s
Качество : Высокий
Добавление ID3-тэга : Нет
Утилита сжатия : C:\Program Files\FLAC\flac.exe
Дополнительные параметры : -V -8 -T "artist=%a" -T "title=%t" -T "album=%g" -T "date=%y" -T "tracknumber=%n" -T "genre=%m" %s


TOC извлечённого CD

Трек | Старт | Длительность | Начальный сектор | Конечный сектор
––––––––––––––––––––––––––––––––––-
1 | 0:00.37 | 3:46.13 | 37 | 16999
2 | 3:46.50 | 5:03.00 | 17000 | 39724
3 | 8:49.50 | 6:40.00 | 39725 | 69724
4 | 15:29.50 | 3:24.00 | 69725 | 85024
5 | 18:53.50 | 3:19.00 | 85025 | 99949
6 | 22:12.50 | 11:49.00 | 99950 | 153124
7 | 34:01.50 | 2:49.00 | 153125 | 165799
8 | 36:50.50 | 5:16.25 | 165800 | 189524


Характеристики диапазона извлечения и сообщения об ошибках

Выбранный диапазон

Имя файла J:\Новая папка\Rip\Charlie Musselwhite - Tennessee Woman.wav

Пиковый уровень 100.0 %
Качество диапазона 99.9 %
CRC теста E6DD831D
CRC копии E6DD831D
Копирование… OK

Ошибок не произошло


AccurateRip: сводка

Трек 1 точное извлечение (доверие 1) [8BB7A6B9]
Трек 2 точное извлечение (доверие 1) [DEDEA522]
Трек 3 точное извлечение (доверие 1) [63D6B6D7]
Трек 4 точное извлечение (доверие 1) [7C19E245]
Трек 5 точное извлечение (доверие 1) [304A4A96]
Трек 6 точное извлечение (доверие 1) [1A498CA9]
Трек 7 точное извлечение (доверие 1) [3A88A30C]
Трек 8 точное извлечение (доверие 1) [527166BF]

Все треки извлечены точно

Конец отчёта

[CUETools log; Date: 23.10.2015 21:23:52; Version: 2.1.4]
Pregap length 00:00:37.
[CTDB TOCID: au_codTVf2T1owkmmgymUv7hZx4-] found.
Track | CTDB Status
1 | (6/6) Accurately ripped
2 | (6/6) Accurately ripped
3 | (6/6) Accurately ripped
4 | (6/6) Accurately ripped
5 | (6/6) Accurately ripped
6 | (6/6) Accurately ripped
7 | (6/6) Accurately ripped
8 | (6/6) Accurately ripped
[AccurateRip ID: 000c82c8-0054da69-4909df08] found.
Track [ CRC | V2 ] Status
01 [8bb7a6b9|4c9b0fdf] (04+06/16) Accurately ripped
02 [dedea522|fd76f3e9] (04+06/16) Accurately ripped
03 [63d6b6d7|95f03998] (04+06/16) Accurately ripped
04 [7c19e245|b9d9f88d] (04+06/16) Accurately ripped
05 [304a4a96|84232fe5] (04+06/16) Accurately ripped
06 [1a498ca9|99b337bd] (04+06/16) Accurately ripped
07 [3a88a30c|9124afc3] (04+06/16) Accurately ripped
08 [527166bf|ca9f6a78] (04+06/16) Accurately ripped
Offsetted by 653:
01 [27dbf6d5] (03/16) Accurately ripped
02 [948366bb] (03/16) Accurately ripped
03 [45e3df9e] (03/16) Accurately ripped
04 [d3fcd5d0] (03/16) Accurately ripped
05 [a3e936a9] (03/16) Accurately ripped
06 [58175085] (03/16) Accurately ripped
07 [a2028830] (03/16) Accurately ripped
08 [081783c6] (03/16) Accurately ripped
Offsetted by -328:
01 [3f3f7b59] (00/16) No match (V2 was not tested)
02 [441ee6fa] (00/16) No match (V2 was not tested)
03 [db8e3dff] (00/16) No match (V2 was not tested)
04 [6b01a9cd] (00/16) No match (V2 was not tested)
05 [0b625ade] (00/16) No match (V2 was not tested)
06 [95505b49] (00/16) No match (V2 was not tested)
07 [2bcd2c6c] (00/16) No match (V2 was not tested)
08 [97efb3e7] (00/16) No match (V2 was not tested)

Track Peak [ CRC32 ] [W/O NULL] [ LOG ]
– 100,0 [E6DD831D] [4E835583] CRC32
01 100,0 [F1CF17BC] [9EA58316]
02 84,6 [3E1542F8] [02F447BF]
03 96,9 [C4E7FE85] [E673D32F]
04 67,2 [A0250E15] [F32FF648]
05 85,0 [19882229] [FF5AF82F]
06 88,3 [81224C8E] [BB94C0A6]
07 61,0 [E41DB837] [02B6CA85]
08 64,8 [BC238BFE] [267E85AE]

foobar2000 1.2 / Dynamic Range Meter 1.1.1
log date: 2015-10-23 20:36:40

––––––––––––––––––––––––––––––––––––––––
Analyzed: Charlie Musselwhite / Tennessee Woman
––––––––––––––––––––––––––––––––––––––––

DR Peak RMS Duration Track
––––––––––––––––––––––––––––––––––––––––
DR12 0.00 dB -15.82 dB 3:46 01-Tennessee Woman
DR11 -1.45 dB -15.40 dB 5:03 02-Blue Feeling Today
DR12 -0.27 dB -18.64 dB 6:40 03-A Nice Day For Something
DR11 -3.44 dB -17.29 dB 3:24 04-Everybody Needs Somebody
DR12 -1.41 dB -16.48 dB 3:19 05-I Don't Play, I'll Be Your Man Some Day
DR14 -1.08 dB -19.30 dB 11:49 06-Christo Redemptor
DR12 -4.29 dB -19.84 dB 2:49 07-Little By Little
DR11 -3.76 dB -19.37 dB 5:16 08-I'm A Stranger
––––––––––––––––––––––––––––––––––––––––

Number of tracks: 8
Official DR value: DR12

Samplerate: 44100 Hz
Channels: 2
Bits per sample: 16
Bitrate: 683 kbps
Codec: FLAC
================================================================================

Charlie Musselwhite Blues Band - Tennessee Woman (1969)

Charlie Musselwhite Blues Band - Tennessee Woman (1969)

All thanks to original releaser

More interesting music in My Blog