Tags
Language
Tags
May 2024
Su Mo Tu We Th Fr Sa
28 29 30 1 2 3 4
5 6 7 8 9 10 11
12 13 14 15 16 17 18
19 20 21 22 23 24 25
26 27 28 29 30 31 1

Cheryl Lynn - In Love (1979) [2013, Remastered & Expanded Edition]

Posted By: BlondStyle
Cheryl Lynn - In Love (1979) [2013, Remastered & Expanded Edition]

Cheryl Lynn - In Love (1979) [2013, Remastered & Expanded Edition]
R&B, Soul/Funk, Disco | EAC Rip | FLAC, Img+CUE+LOG+Scans (PNG) | 57:04 | 425,63 Mb
Label: Funkytowngrooves (UK) | Cat.# FTGUK-014 | Released: 2013-04-25 (1979-12-26)

When Columbia Records released Cheryl Lynn's second album, "In Love", in 1979, the Los Angeles native had a lot to live up to. Her 1978 smash "Got to Be Real" had become one of the definitive anthems of the Disco Era, reaching #1 on Billboard s R&B singles chart and #12 on Billboard s pop singles chart. On top of that, "Star Love" (another single from Lynn's self-titled debut album of 1978) was a #16 R&B hit in Billboard. So Columbia had high hopes for "In Love". The album was a huge success and made it to #5 on Billboard's R&B albums chart and sold more than one million copies in the United States alone.
Cheryl Lynn - In Love (1979) [2013, Remastered & Expanded Edition]

Cheryl Lynn - In Love (1979) [2013, Remastered & Expanded Edition]




Release of the album: 1979, December, 26 [LP Columbia Records, Cat.# JC 36145, USA]
Release of this CD: 2013, April, 25 [CD Funkytowngrooves (UK), Cat.# FTGUK-014 / UPC: 5060196469840]
℗ 1979 Columbia Records.
All tracks licensed courtesy of Sony Music Entertainment UK Ltd.
This compilation © 2013 Funkytowngrooves.
Marketed and Distributed by Funkytowngrooves Ltd.
Made in the E.C.


Notes: Remastered from the Original Master Tapes with 3 Bonus Tracks.

Credits:

Arranged By [Horns] – Jerry Hey
Arranged By [Rhythm Tracks] – Barry Blue, Brian Becvar (tracks: 3), Cheryl Lynn, Jean Roussell (tracks: 2)
Arranged By [Strings] – John Cameron
Arranged By [Woodwinds] – Jerry Hey, John Cameron
Backing Vocals – Cheryl Lynn, Delbert Langston, Sharon Jack
Engineer [Mixing] – Brad Davis
Engineer [Recording] [Additional] [C T S Studios] – Richard Goldblatt
Engineer [Recording] [Additional] [Nova Suite] – Steve Allen
Engineer [Recording] [Additional] [Record Plant, Cherokee Studios] – Mike Linett
Engineer [Recording] [Additional] [Sunset Sound] – Humberto Gatica
Engineer [Recording] [Assistant] [Criteria Studios] – Mike Guerra, Sam Taylor
Engineer [Recording] [Criteria Studios] – Jerry Masters
Executive-Producer – Delbert Langston
Management [& Direction] – Eric Kronfeld
Percussion – Chris Karan, Morris Pert
Photography By – Richard Avedon
Producer, Mixed By – Barry Blue

Design [Reissue Package] – Wallace Create
Liner Notes – Alex Henderson
Production Manager [Reissue] – Matt Murphy
Reissue Producer – Tony Calvert
Remastered By – Sean Brennan


Tracklist:

01. I've Got Faith In You (04:48)
(Bobby Caldwell)
02. Hide It Away (04:41)
(Greg Phillinganes, Michael Sembello, Nathan Watts, Raymond Pounds)
03. Feel It (05:12)
(Brian Becvar)
04. In Love (06:00)
(David Cohen, Leslie Ruchala)
05. Keep It Hot (05:29)
(Cheryl Lynn, George Bryant)
06. I've Got Just What You Need (03:37)
(John Footman, Judy Weider)
07. Love Bomb (04:15)
(Barry Blue, Lynsey de Paul)
08. Chances (04:14)
(Cheryl Lynn)
09. Don't Let It Fade Away (05:16)
(Rod Bowkett)
Bonus Tracks:
10. In Love (7" Version) (03:48)
(David Cohen, Leslie Ruchala)
11. Keep It Hot (Special Version) (05:29)
(Cheryl Lynn, George Bryant)
12. Feel It (7" Version) (03:56)
(Brian Becvar)

Exact Audio Copy V1.0 beta 3 from 29. August 2011

EAC extraction logfile from 28. April 2013, 14:44

Cheryl Lynn / In Love [Expanded Edition]

Used drive : Memorex 52MAXX 3252AJ1 Adapter: 1 ID: 0

Read mode : Secure
Utilize accurate stream : Yes
Defeat audio cache : Yes
Make use of C2 pointers : No

Read offset correction : 6
Overread into Lead-In and Lead-Out : No
Fill up missing offset samples with silence : Yes
Delete leading and trailing silent blocks : No
Null samples used in CRC calculations : Yes
Used interface : Native Win32 interface for Win NT & 2000

Used output format : User Defined Encoder
Selected bitrate : 1024 kBit/s
Quality : High
Add ID3 tag : No
Command line compressor : C:\Program Files (x86)\Exact Audio Copy\Flac\flac.exe
Additional command line options : %ishigh%-V -p -l 12 -b 4096 -m -e -r 8%ishigh%%islow%-5%islow% –replay-gain -T "ARTIST=%artist%" -T "ALBUM=%albumtitle%" -T "TITLE=%title%" -T "DATE=%year%" -T "TRACKNUMBER=%tracknr%" -T "GENRE=%genre%" -T "ENSEMBLE=%albuminterpret%" -T "ALBUMARTIST=%albumartist%" -T "COMPOSER=%albumcomposer%" -T "DISCNUMBER=%cdnumber%" -T "TOTALDISCS=%totalcds%" -T "TOTALTRACKS=%numtracks%" -T "SOURCEMEDIA=CD" -T "COMMENT=%comment%" %hascover%-T "PICTURE=%coverfile%"%hascover% %source%


TOC of the extracted CD

Track | Start | Length | Start sector | End sector
––––––––––––––––––––––––––––-
1 | 0:00.00 | 4:48.19 | 0 | 21618
2 | 4:48.19 | 4:40.41 | 21619 | 42659
3 | 9:28.60 | 5:11.41 | 42660 | 66025
4 | 14:40.26 | 5:59.62 | 66026 | 93012
5 | 20:40.13 | 5:29.18 | 93013 | 117705
6 | 26:09.31 | 3:56.43 | 117706 | 135448
7 | 30:05.74 | 4:15.08 | 135449 | 154581
8 | 34:21.07 | 4:14.26 | 154582 | 173657
9 | 38:35.33 | 5:15.55 | 173658 | 197337
10 | 43:51.13 | 3:48.02 | 197338 | 214439
11 | 47:39.15 | 5:29.28 | 214440 | 239142
12 | 53:08.43 | 3:55.67 | 239143 | 256834


Range status and errors

Selected range

Filename C:\Users\M@ce\Music\Archives\Rips\Cheryl Lynn - In Love [Expanded Edition].wav

Peak level 99.0 %
Extraction speed 9.1 X
Range quality 100.0 %
Test CRC 5063647A
Copy CRC 5063647A
Copy OK

No errors occurred


AccurateRip summary

Track 1 not present in database
Track 2 not present in database
Track 3 not present in database
Track 4 not present in database
Track 5 not present in database
Track 6 not present in database
Track 7 not present in database
Track 8 not present in database
Track 9 not present in database
Track 10 not present in database
Track 11 not present in database
Track 12 not present in database

None of the tracks are present in the AccurateRip database

End of status report

–– CUETools DB Plugin V2.1.4

[CTDB TOCID: I1Sl0rAEO3Phd7GtfZguimi7mrs-] found
Submit result: already submitted
Track | CTDB Status
1 | (1/1) Accurately ripped
2 | (1/1) Accurately ripped
3 | (1/1) Accurately ripped
4 | (1/1) Accurately ripped
5 | (1/1) Accurately ripped
6 | (1/1) Accurately ripped
7 | (1/1) Accurately ripped
8 | (1/1) Accurately ripped
9 | (1/1) Accurately ripped
10 | (1/1) Accurately ripped
11 | (1/1) Accurately ripped
12 | (1/1) Accurately ripped


==== Log checksum 83665476B544241BB78B73EE35B77F763303E438DD5C8A6CA9FFF271D782E95F ====

––––––––––––––––––––––––––––––––––––––––
Analyzed: Cheryl Lynn / In Love [Expanded Edition]
––––––––––––––––––––––––––––––––––––––––

DR Peak RMS Duration Track
––––––––––––––––––––––––––––––––––––––––
DR13 -0.24 dB -15.34 dB 4:48 01-I've Got Faith In You
DR14 -0.09 dB -15.72 dB 4:41 02-Hide It Away
DR13 -0.19 dB -15.09 dB 5:12 03-Feel It
DR13 -0.21 dB -17.84 dB 6:00 04-In Love
DR13 -0.16 dB -15.14 dB 5:29 05-Keep It Hot
DR14 -0.09 dB -15.74 dB 3:57 06-I've Got Just What you Need
DR14 -0.19 dB -16.20 dB 4:15 07-Love Bomb
DR14 -0.21 dB -16.48 dB 4:14 08-Chances
DR13 -0.21 dB -15.42 dB 5:16 09-Don't Let It Fade Away
DR11 -1.21 dB -15.70 dB 3:48 10-In Love [7' Version]
DR13 -0.34 dB -15.14 dB 5:29 11-Keep It Hot [Special Version]
DR13 -0.17 dB -14.78 dB 3:56 12-Feel It [7' Version]
––––––––––––––––––––––––––––––––––––––––

Number of tracks: 12
Official DR value: DR13

Samplerate: 44100 Hz
Channels: 2
Bits per sample: 16
Bitrate: 918 kbps
Codec: FLAC
================================================================================

Thanks to my friend, M@ce

♫~Welcome To My Blog~♫

password: BlondStyle