Tags
Language
Tags
June 2024
Su Mo Tu We Th Fr Sa
26 27 28 29 30 31 1
2 3 4 5 6 7 8
9 10 11 12 13 14 15
16 17 18 19 20 21 22
23 24 25 26 27 28 29
30 1 2 3 4 5 6

Chet Atkins With Tommy Emmanuel - The Day Finger Pickers Took Over The World (1997) {HDCD}

Posted By: popsakov
Chet Atkins With Tommy Emmanuel - The Day Finger Pickers Took Over The World (1997) {HDCD}

Chet Atkins With Tommy Emmanuel - The Day Finger Pickers Took Over The World (1997) {HDCD}
EAC Rip | WavPack (Img) + Cue + Log ~ 245 Mb | MP3 CBR320 ~ 91 Mb
Full Scans ~ 123 Mb | 00:36:20 | RAR 5% Recovery
Country, Bluegrass | Columbia #CK 67915 | US

At 73, with hundreds of albums and countless sessions to his credit, Chet Atkins still had another great recording in him – this splendid duo session with the young Australian guitarist/composer Tommy Emmanuel. Here, Atkins leaves all of the smooth jazz experiments from the previous decade and a half behind him, choosing superior material for their acoustic guitars, with the rhythm section laying down swinging country-pie tracks underneath. Emmanuel's fingerpicking style isn't quite as tied to the rhythm as Atkins'; it's a little sharper in attack, fleeter in technique and a bit flashier in temperament, yet remarkably well-matched to that of the east Tennessee master, almost an alter ego. Indeed Atkins' tune "Tip Toe Through the Bluegrass" plays the two styles off each other quite revealingly. Emmanuel turns out to be a top-notch tunesmith in his own right, too. His "Dixie McGuire," a disarmingly affectionate mid-tempo tune that won't let you go, inspires a performance that is one of the high points of Atkins' Columbia period – or for that matter, equal to anything from his long RCA period, too, in sheer emotional effect. The title track, which Atkins adapted from a lyric that dealt with bass players (as opposed to fingerpickers), finds the two reciting and singing a mock-horror flick tale – and "Ode to Mel Bay" good-naturedly mocks beginning string players everywhere. As a tribute to the visitor from Down Under, there is also a slyly countrified "Waltzing Matilda." This would be Atkins' last album of new material released during the 20th century – leaving it, glory be, on a very high note.

~ Richard S. Ginell, All Music
Chet Atkins With Tommy Emmanuel - The Day Finger Pickers Took Over The World (1997) {HDCD}


***************

Chet Atkins With Tommy Emmanuel - The Day Finger Pickers Took Over The World (1997) {HDCD}

Track List:

01. Borsalino [3:11]
02. To 'B' Or Not To 'B' [3:21]
03. The Day Finger Pickers Took Over The World [3:41]
04. Tip Toe Through The Bluegrass [3:09]
05. News From The Outback [3:09]
06. Ode To Mel Bay [2:58]
07. Dixie McGuire [3:52]
08. Saltwater [3:34]
09. Mr. Guitar [2:54]
10. Road to Gundaghi / Waltzing Matilda [3:03]
11. Smokey Mountain Lullaby [3:29]

Personnel:
Chet Atkins – guitar
Tommy Emmanuel – guitar, bass, brushes
Randy Goodrum – keyboards (on 11,9,8,7,2,1)
Johnny Gimble – bad fiddle (on 6), good fiddle (on 3,4,5,6)
Paul Yandell – guitar (on 5)
Terry McMillan – conga, harmonica, Jew's harp (on 1,2,3,5,6)
Clark Hagen – guitar (on 6)
Giles Reeves – drums, acoustic bass (on 11)

Exact Audio Copy V1.0 beta 3 from 29. August 2011

EAC extraction logfile from 25. July 2014, 20:17

Chet Atkins & Tommy Emmanuel / The Day Finger Pickers Took Over the World

Used drive : Optiarc DVD RW AD-7280S Adapter: 0 ID: 0

Read mode : Secure
Utilize accurate stream : Yes
Defeat audio cache : Yes
Make use of C2 pointers : No

Read offset correction : 48
Overread into Lead-In and Lead-Out : No
Fill up missing offset samples with silence : Yes
Delete leading and trailing silent blocks : No
Null samples used in CRC calculations : Yes
Used interface : Installed external ASPI interface

Used output format : User Defined Encoder
Selected bitrate : 768 kBit/s
Quality : High
Add ID3 tag : No
Command line compressor : E:\Exact Audio Copy\wavpack\wavpack.exe
Additional command line options : -hm -w "Year=%year%" -w "Genre=%genre%" %source% %dest%


TOC of the extracted CD

Track | Start | Length | Start sector | End sector
––––––––––––––––––––––––––––-
1 | 0:00.00 | 3:11.07 | 0 | 14331
2 | 3:11.07 | 3:21.15 | 14332 | 29421
3 | 6:32.22 | 3:40.48 | 29422 | 45969
4 | 10:12.70 | 3:08.57 | 45970 | 60126
5 | 13:21.52 | 3:08.45 | 60127 | 74271
6 | 16:30.22 | 2:57.53 | 74272 | 87599
7 | 19:28.00 | 3:52.15 | 87600 | 105014
8 | 23:20.15 | 3:34.00 | 105015 | 121064
9 | 26:54.15 | 2:53.50 | 121065 | 134089
10 | 29:47.65 | 3:03.17 | 134090 | 147831
11 | 32:51.07 | 3:28.53 | 147832 | 163484


Range status and errors

Selected range

Filename D:\temp\Chet Atkins & Tommy Emmanuel - The Day Finger Pickers Took Over the World.wav

Peak level 96.6 %
Extraction speed 3.8 X
Range quality 100.0 %
Test CRC C98D82A1
Copy CRC C98D82A1
Copy OK

No errors occurred


AccurateRip summary

Track 1 accurately ripped (confidence 14) [8B2BE250] (AR v2)
Track 2 accurately ripped (confidence 14) [7AEDF7CD] (AR v2)
Track 3 accurately ripped (confidence 14) [398F020C] (AR v2)
Track 4 accurately ripped (confidence 14) [2D4C48C7] (AR v2)
Track 5 accurately ripped (confidence 14) [CEA44E2B] (AR v2)
Track 6 accurately ripped (confidence 14) [F592E742] (AR v2)
Track 7 accurately ripped (confidence 14) [179F9B9B] (AR v2)
Track 8 accurately ripped (confidence 14) [31025415] (AR v2)
Track 9 accurately ripped (confidence 14) [530B1D16] (AR v2)
Track 10 accurately ripped (confidence 14) [2B83E85A] (AR v2)
Track 11 accurately ripped (confidence 14) [A4120AAE] (AR v2)

All tracks accurately ripped

End of status report

–– CUETools DB Plugin V2.1.3

[CTDB TOCID: pIy3aIc8cfYXPkmH3.O8V3OquY4-] found, Submit result: pIy3aIc8cfYXPkmH3.O8V3OquY4- has been confirmed
[e6dce221] (53/54) Accurately ripped
[f07809bd] (01/54) No match

[CUETools log; Date: 12.07.2017 19:30:19; Version: 2.1.5]
HDCD: peak extend: yes, transient filter: none, gain: -4,0dB..0,0dB
[CTDB TOCID: pIy3aIc8cfYXPkmH3.O8V3OquY4-] found.
Track | CTDB Status
1 | (48/51) Accurately ripped
2 | (48/51) Accurately ripped
3 | (49/51) Accurately ripped
4 | (50/51) Accurately ripped
5 | (49/51) Accurately ripped
6 | (50/51) Accurately ripped
7 | (50/51) Accurately ripped
8 | (50/51) Accurately ripped
9 | (50/51) Accurately ripped
10 | (50/51) Accurately ripped
11 | (51/51) Accurately ripped
[AccurateRip ID: 000f00aa-0081fcc7-9408830b] found.
Track [ CRC | V2 ] Status
01 [44feb59e|8b2be250] (09+21/80) Accurately ripped
02 [cf122cc0|7aedf7cd] (09+21/80) Accurately ripped
03 [71b0848d|398f020c] (09+22/81) Accurately ripped
04 [9578ec03|2d4c48c7] (09+22/80) Accurately ripped
05 [8827ea48|cea44e2b] (09+22/81) Accurately ripped
06 [623dc425|f592e742] (09+22/81) Accurately ripped
07 [b83369ab|179f9b9b] (09+22/81) Accurately ripped
08 [b5abc60d|31025415] (09+22/82) Accurately ripped
09 [9f058c74|530b1d16] (09+22/81) Accurately ripped
10 [6bbebf84|2b83e85a] (09+22/82) Accurately ripped
11 [885fe2ca|a4120aae] (09+22/81) Accurately ripped
Offsetted by -3:
01 [3c998a79] (17/80) Accurately ripped
02 [abc218da] (17/80) Accurately ripped
03 [0d3c6a31] (17/81) Accurately ripped
04 [a7a33a8a] (17/80) Accurately ripped
05 [16c2f267] (17/81) Accurately ripped
06 [c6d6db03] (17/81) Accurately ripped
07 [5b0cbbcc] (17/81) Accurately ripped
08 [a15dcea7] (17/82) Accurately ripped
09 [c91b0e8a] (17/81) Accurately ripped
10 [f4c1af03] (17/82) Accurately ripped
11 [0977b84f] (17/81) Accurately ripped
Offsetted by 391:
01 [97b06f57] (11/80) Accurately ripped
02 [1f0acc90] (11/80) Accurately ripped
03 [4d0b70f9] (11/81) Accurately ripped
04 [ea5c934b] (11/80) Accurately ripped
05 [58a43045] (11/81) Accurately ripped
06 [3dba446c] (11/81) Accurately ripped
07 [a17055bf] (11/81) Accurately ripped
08 [f9a2ba00] (12/82) Accurately ripped
09 [325dc539] (11/81) Accurately ripped
10 [62da7c7a] (12/82) Accurately ripped
11 [8645de1d] (11/81) Accurately ripped
Offsetted by 395:
01 [1bb39af8] (05/80) Accurately ripped
02 [e12bb743] (05/80) Accurately ripped
03 [c4f3f948] (05/81) Accurately ripped
04 [792dc383] (04/80) Accurately ripped
05 [550006f6] (05/81) Accurately ripped
06 [3a9e9cd2] (05/81) Accurately ripped
07 [1e38684e] (05/81) Accurately ripped
08 [6af203d0] (05/82) Accurately ripped
09 [ea557399] (05/81) Accurately ripped
10 [48a8a5d0] (05/82) Accurately ripped
11 [31796c12] (05/81) Accurately ripped
Offsetted by 398:
01 [ba55f3c4] (04/80) Accurately ripped
02 [92e30373] (04/80) Accurately ripped
03 [a39b7dac] (04/81) Accurately ripped
04 [7094750d] (04/80) Accurately ripped
05 [dda0e7fa] (04/81) Accurately ripped
06 [ad181acc] (04/81) Accurately ripped
07 [3a849607] (04/81) Accurately ripped
08 [7df0fc06] (04/82) Accurately ripped
09 [07a0ab2e] (04/81) Accurately ripped
10 [0b81b652] (04/82) Accurately ripped
11 [b1e69686] (04/81) Accurately ripped
Offsetted by -5:
01 [ade2a944] (00/80) No match (V2 was not tested)
02 [98d2a37e] (00/80) No match (V2 was not tested)
03 [23b4625d] (00/81) No match (V2 was not tested)
04 [5e7429c3] (00/80) No match (V2 was not tested)
05 [01681da5] (00/81) No match (V2 was not tested)
06 [dcf9e482] (00/81) No match (V2 was not tested)
07 [dd44729c] (00/81) No match (V2 was not tested)
08 [e97429b7] (00/82) No match (V2 was not tested)
09 [db8db767] (00/81) No match (V2 was not tested)
10 [27564ead] (00/82) No match (V2 was not tested)
11 [b4def153] (00/81) No match (V2 was not tested)

Track Peak [ CRC32 ] [W/O NULL] [ LOG ]
– 96,6 [C98D82A1] [B776B19A] CRC32
01 96,6 [57D56EE0] [4413BFDA]
02 96,6 [ADF92158] [6D546ED7]
03 96,6 [C8D84889] [A87DBF1C]
04 96,6 [311175F0] [35F5A7A9]
05 96,5 [24158451] [92C11AFF]
06 96,6 [8ED96A35] [4372C13B]
07 96,6 [02465745] [BA976754]
08 96,6 [6B8CA1C8] [2A2A8933]
09 96,6 [4917592C] [CAF6F04C]
10 96,6 [B6BBABCA] [E20888C3]
11 96,6 [1AD828CF] [03C934BA]

Chet Atkins With Tommy Emmanuel - The Day Finger Pickers Took Over The World (1997) {HDCD}


All thanks go to spiderc@t

>>> Chet Atkins in my Blog <<<

DOWNLOAD: