Subcategories

Chris Spheeris - Eros (1997)

Posted By: L@ter
Chris Spheeris - Eros (1997)

Chris Spheeris - Eros (1997)
EAC Rip | FLAC, IMG+CUE, LOG | 307 MB | 48,21 min. | Full Covers
Label: Essence Records / Instrumental, New Age, Ethnic Fusion | RAR 3% Rec.

New age composer/multi-instrumentalist Chris Spheeris began writing songs on his guitar as a teenager. Inspired by the sacred and folk music of his Greek heritage and other world music, classical music, and pop, Spheeris fused these elements together into his own unique musical style. The folk aspects of his music were prominent early in his career as part of a duo with guitarist/composer Paul Voudouris in the '70s and early '80s. After they disbanded, Spheeris began to create a more complex, keyboard-based sound, which he documented on self-produced demo tapes. One of these demos found its way to the AR department at Columbia Records, with whom Spheeris signed a deal in 1985. The label released his debut album, Desires of the Heart, and Pathways to Surrender before he left in the early '90s to form his own label, Essence, which released most of his solo output and two reunions with Voudouris: Enchantment and Nothing but the Truth. Along with his solo albums, Spheeris has also composed scores for cable and public television documentaries. He released his Higher Octave Records debut, Dancing With the Muse, in early 2000.
Exact Audio Copy V0.99 prebeta 5 from 4. May 2009

EAC extraction logfile from 9. June 2009, 23:05

Chris Spheeris / Eros

Used drive : TSSTcorpCDDVDW SH-S223Q Adapter: 1 ID: 0

Read mode : Secure
Utilize accurate stream : Yes
Defeat audio cache : Yes
Make use of C2 pointers : No

Read offset correction : 6
Overread into Lead-In and Lead-Out : No
Fill up missing offset samples with silence : Yes
Delete leading and trailing silent blocks : No
Null samples used in CRC calculations : Yes
Used interface : Native Win32 interface for Win NT & 2000

Used output format : User Defined Encoder
Selected bitrate : 768 kBit/s
Quality : High
Add ID3 tag : No
Command line compressor : C:\Program Files\Exact Audio Copy\FLAC\FLAC.EXE
Additional command line options : -6 -V -T "ARTIST=%a" -T "TITLE=%t" -T "ALBUM=%g" -T "DATE=%y" -T "TRACKNUMBER=%n" -T "GENRE=%m" -T "COMMENT=%e" %s -o %d


TOC of the extracted CD

Track | Start | Length | Start sector | End sector
––––––––––––––––––––––––––––-
1 | 0:00.00 | 5:22.09 | 0 | 24158
2 | 5:22.09 | 5:33.36 | 24159 | 49169
3 | 10:55.45 | 4:10.59 | 49170 | 67978
4 | 15:06.29 | 4:50.25 | 67979 | 89753
5 | 19:56.54 | 5:09.61 | 89754 | 112989
6 | 25:06.40 | 4:31.64 | 112990 | 133378
7 | 29:38.29 | 5:34.61 | 133379 | 158489
8 | 35:13.15 | 4:31.18 | 158490 | 178832
9 | 39:44.33 | 3:03.53 | 178833 | 192610
10 | 42:48.11 | 5:33.04 | 192611 | 217589


Range status and errors

Selected range

Filename C:\Chris Spheeris - Eros.wav

Peak level 100.0 %
Range quality 100.0 %
Copy CRC C254D10C
Copy OK

No errors occurred

End of status report


Tracklist

01. The Arrow
02. Alegria
03. Carino
04. Psyche
05. Quiver
06. Slow Dance
07. Mediterraneo
08. Juliette - Laurie Burke, Luis Peralta, Chris Spheeris
09. Always
10. Eros - Laurie Burke, Luis Peralta, Chris Spheeris