Subcategories

Christophe Goze - A Day In Ibiza (2009)

Posted By: gribovar
Christophe Goze - A Day In Ibiza (2009)

Christophe Goze - A Day In Ibiza (2009)
EAC Rip | FLAC (tracks+.cue+log) - 520 MB | MP3 CBR 320 kbps (LAME 3.93) - 187 MB | Covers - 47 MB
Genre: Chillout, Downtempo, Lounge | RAR 3% Rec. | Label: TME/World Club Music (ПРЗ CD26646)

Christophe Goze is a familiar name in the circles of chilled global beats. Considered by music columnists as the creator of the "Arabiant" style, his fusion grooves have graced hundreds of compilations around the world, collectively selling over 2 million copies worldwide. He has collaborated with Le Cirque du Soleil, Yves St Laurent, Dannii Minogue, Melanie C, Cafe Del Mar, Buddha Bar, and wrote music for BBC, MTV, Channel 4, ZDF, National Geographic, France 3 and more. In the UK he received a prestigious TV advert best music nomination. Christophe is Known for his brilliant ability to blend world music with jazz and downtempo. His music has been inspired from his travels & love for the oriental & takes listeners on an exotic journey of thoughts and emotions. Christophe strong Mediterranean roots allow him to be able to mix both east & west worlds with quite a unique sound.
Tracklist:
01. About Us
02. Manana
03. Something Like This
04. Dream
05. She Said
06. Barcelona
07. Show Me The Way
08. Little Boy
09. Missing You
10. Au Bord De Toi
11. So Beautiful
12. Littlу Boy (Kidstone Remix)
13. Manana (Afterlife Mix)
14. She Said (Al-pha-x Remix)

Total time: 01:19:41

Exact Audio Copy V1.0 beta 1 from 15. November 2010

EAC extraction logfile from 6. July 2013, 0:19

Chrisophe Goze / A Day In Ibiza

Used drive : ASUS DRW-24B3ST Adapter: 1 ID: 2

Read mode : Secure
Utilize accurate stream : Yes
Defeat audio cache : Yes
Make use of C2 pointers : No

Read offset correction : 6
Overread into Lead-In and Lead-Out : No
Fill up missing offset samples with silence : Yes
Delete leading and trailing silent blocks : No
Null samples used in CRC calculations : Yes
Used interface : Native Win32 interface for Win NT & 2000
Gap handling : Appended to previous track

Used output format : User Defined Encoder
Selected bitrate : 896 kBit/s
Quality : High
Add ID3 tag : No
Command line compressor : C:\Program Files (x86)\Exact Audio Copy\Flac\flac.exe
Additional command line options : -8 -V -T "ARTIST=%a" -T "TITLE=%t" -T "ALBUM=%g" -T "DATE=%y" -T "TRACKNUMBER=%n" -T "GENRE=%m" -T "COMMENT=ripped by Oleandris" %s


TOC of the extracted CD

Track | Start | Length | Start sector | End sector
––––––––––––––––––––––––––––-
1 | 0:00.00 | 6:19.27 | 0 | 28451
2 | 6:19.27 | 6:14.03 | 28452 | 56504
3 | 12:33.30 | 5:57.64 | 56505 | 83343
4 | 18:31.19 | 5:39.20 | 83344 | 108788
5 | 24:10.39 | 5:27.17 | 108789 | 133330
6 | 29:37.56 | 7:05.60 | 133331 | 165265
7 | 36:43.41 | 5:53.06 | 165266 | 191746
8 | 42:36.47 | 5:22.28 | 191747 | 215924
9 | 47:59.00 | 4:33.54 | 215925 | 236453
10 | 52:32.54 | 4:57.53 | 236454 | 258781
11 | 57:30.32 | 4:06.11 | 258782 | 277242
12 | 61:36.43 | 5:48.35 | 277243 | 303377
13 | 67:25.03 | 6:16.61 | 303378 | 331638
14 | 73:41.64 | 5:58.70 | 331639 | 358558


Track 1

Filename F:\AUDIO - I\ Ambient - Chill Out - Lounge - Easy Listening - Electronic\ Christophe Goze - A Day In Ibiza (2009)\01. About Us.wav

Pre-gap length 0:00:02.00

Peak level 82.6 %
Extraction speed 4.2 X
Track quality 100.0 %
Test CRC BF4BCD64
Copy CRC BF4BCD64
Accurately ripped (confidence 1) [777664DE]
Copy OK

Track 2

Filename F:\AUDIO - I\ Ambient - Chill Out - Lounge - Easy Listening - Electronic\ Christophe Goze - A Day In Ibiza (2009)\02. Manana.wav

Peak level 100.0 %
Extraction speed 4.8 X
Track quality 100.0 %
Test CRC D05EC85E
Copy CRC D05EC85E
Accurately ripped (confidence 1) [36A51D62]
Copy OK

Track 3

Filename F:\AUDIO - I\ Ambient - Chill Out - Lounge - Easy Listening - Electronic\ Christophe Goze - A Day In Ibiza (2009)\03. Somthing Like This.wav

Peak level 98.8 %
Extraction speed 5.2 X
Track quality 100.0 %
Test CRC CC2A1823
Copy CRC CC2A1823
Accurately ripped (confidence 1) [10D3CA33]
Copy OK

Track 4

Filename F:\AUDIO - I\ Ambient - Chill Out - Lounge - Easy Listening - Electronic\ Christophe Goze - A Day In Ibiza (2009)\04. Dream.wav

Peak level 100.0 %
Extraction speed 5.6 X
Track quality 100.0 %
Test CRC 6E2EDCAB
Copy CRC 6E2EDCAB
Accurately ripped (confidence 1) [E9945B7C]
Copy OK

Track 5

Filename F:\AUDIO - I\ Ambient - Chill Out - Lounge - Easy Listening - Electronic\ Christophe Goze - A Day In Ibiza (2009)\05. She Said.wav

Peak level 65.3 %
Extraction speed 5.9 X
Track quality 100.0 %
Test CRC 1F3D5F5F
Copy CRC 1F3D5F5F
Accurately ripped (confidence 1) [45C1CE4D]
Copy OK

Track 6

Filename F:\AUDIO - I\ Ambient - Chill Out - Lounge - Easy Listening - Electronic\ Christophe Goze - A Day In Ibiza (2009)\06. Barcelona.wav

Peak level 100.0 %
Extraction speed 6.4 X
Track quality 100.0 %
Test CRC 8C874E14
Copy CRC 8C874E14
Accurately ripped (confidence 1) [0FCCD37E]
Copy OK

Track 7

Filename F:\AUDIO - I\ Ambient - Chill Out - Lounge - Easy Listening - Electronic\ Christophe Goze - A Day In Ibiza (2009)\07. Show Me The Way.wav

Peak level 98.6 %
Extraction speed 6.7 X
Track quality 100.0 %
Test CRC A7593198
Copy CRC A7593198
Accurately ripped (confidence 1) [6DD869C4]
Copy OK

Track 8

Filename F:\AUDIO - I\ Ambient - Chill Out - Lounge - Easy Listening - Electronic\ Christophe Goze - A Day In Ibiza (2009)\08. Little Boy.wav

Peak level 92.2 %
Extraction speed 6.9 X
Track quality 100.0 %
Test CRC 487585FD
Copy CRC 487585FD
Accurately ripped (confidence 1) [4C738C04]
Copy OK

Track 9

Filename F:\AUDIO - I\ Ambient - Chill Out - Lounge - Easy Listening - Electronic\ Christophe Goze - A Day In Ibiza (2009)\09. Missing You.wav

Peak level 100.0 %
Extraction speed 7.0 X
Track quality 100.0 %
Test CRC F786DEA5
Copy CRC F786DEA5
Accurately ripped (confidence 1) [7A109921]
Copy OK

Track 10

Filename F:\AUDIO - I\ Ambient - Chill Out - Lounge - Easy Listening - Electronic\ Christophe Goze - A Day In Ibiza (2009)\10. Au Bord De Toi.wav

Peak level 97.7 %
Extraction speed 7.4 X
Track quality 100.0 %
Test CRC FAB471D0
Copy CRC FAB471D0
Accurately ripped (confidence 1) [793E6545]
Copy OK

Track 11

Filename F:\AUDIO - I\ Ambient - Chill Out - Lounge - Easy Listening - Electronic\ Christophe Goze - A Day In Ibiza (2009)\11. So Beautiful.wav

Peak level 86.0 %
Extraction speed 7.4 X
Track quality 100.0 %
Test CRC 95371EA5
Copy CRC 95371EA5
Accurately ripped (confidence 1) [5FFDC186]
Copy OK

Track 12

Filename F:\AUDIO - I\ Ambient - Chill Out - Lounge - Easy Listening - Electronic\ Christophe Goze - A Day In Ibiza (2009)\12. Littlу Boy (Kidstone Remix).wav

Peak level 72.4 %
Extraction speed 8.0 X
Track quality 100.0 %
Test CRC 0F81E9D2
Copy CRC 0F81E9D2
Accurately ripped (confidence 1) [8FBA1543]
Copy OK

Track 13

Filename F:\AUDIO - I\ Ambient - Chill Out - Lounge - Easy Listening - Electronic\ Christophe Goze - A Day In Ibiza (2009)\13. Manana (Afterlife Mix).wav

Peak level 66.0 %
Extraction speed 8.3 X
Track quality 100.0 %
Test CRC 32811C25
Copy CRC 32811C25
Accurately ripped (confidence 1) [332E5DB0]
Copy OK

Track 14

Filename F:\AUDIO - I\ Ambient - Chill Out - Lounge - Easy Listening - Electronic\ Christophe Goze - A Day In Ibiza (2009)\14. She Saiв (Al-pha-x Remix).wav

Peak level 79.4 %
Extraction speed 8.5 X
Track quality 100.0 %
Test CRC 12C21FBD
Copy CRC 12C21FBD
Accurately ripped (confidence 1) [9C22CBE9]
Copy OK


All tracks accurately ripped

No errors occurred

End of status report

==== Log checksum 16088D22209BE92AE695EB1FB9B72B663B2FEDF79B33B2389992A60C0DC51AA4 ====

[CUETools log; Date: 06.04.2020 13:14:21; Version: 2.1.4]
[CTDB TOCID: FwO8ATBddtgN4ayh9HJEqKgrJOg-] found.
Track | CTDB Status
1 | (1/1) Accurately ripped
2 | (1/1) Accurately ripped
3 | (1/1) Accurately ripped
4 | (1/1) Accurately ripped
5 | (1/1) Accurately ripped
6 | (1/1) Accurately ripped
7 | (1/1) Accurately ripped
8 | (1/1) Accurately ripped
9 | (1/1) Accurately ripped
10 | (1/1) Accurately ripped
11 | (1/1) Accurately ripped
12 | (1/1) Accurately ripped
13 | (1/1) Accurately ripped
14 | (1/1) Accurately ripped
[AccurateRip ID: 0029f3e6-01bb2229-ca12ac0e] found.
Track [ CRC | V2 ] Status
01 [777664de|a9b3e75d] (1+1/2) Accurately ripped
02 [36a51d62|a4c75749] (1+1/2) Accurately ripped
03 [10d3ca33|4f63a739] (1+1/2) Accurately ripped
04 [e9945b7c|fb771c1b] (1+1/2) Accurately ripped
05 [45c1ce4d|099a8624] (1+1/2) Accurately ripped
06 [0fccd37e|a3aa0329] (1+1/2) Accurately ripped
07 [6dd869c4|b95a991a] (1+1/2) Accurately ripped
08 [4c738c04|8f009ee7] (1+1/2) Accurately ripped
09 [7a109921|9b997be9] (1+1/2) Accurately ripped
10 [793e6545|e70d2062] (1+1/2) Accurately ripped
11 [5ffdc186|915a63eb] (1+1/2) Accurately ripped
12 [8fba1543|b2974413] (1+1/2) Accurately ripped
13 [332e5db0|74066bc9] (1+1/2) Accurately ripped
14 [9c22cbe9|811944e2] (1+1/2) Accurately ripped

Track Peak [ CRC32 ] [W/O NULL] [ LOG ]
– 100,0 [A9E985D6] [C66909F3]
01 82,6 [BF4BCD64] [44FD561C] CRC32
02 100,0 [D05EC85E] [639375F8] CRC32
03 98,8 [CC2A1823] [A6042BE7] CRC32
04 100,0 [6E2EDCAB] [C0571CF3] CRC32
05 65,3 [1F3D5F5F] [7913A984] CRC32
06 100,0 [8C874E14] [8CA1FB05] CRC32
07 98,6 [A7593198] [02BC5E41] CRC32
08 92,2 [487585FD] [EE275292] CRC32
09 100,0 [F786DEA5] [BA654DD6] CRC32
10 97,7 [FAB471D0] [9E280ACF] CRC32
11 86,0 [95371EA5] [F1741524] CRC32
12 72,4 [0F81E9D2] [A1FE3269] CRC32
13 66,0 [32811C25] [A2F07A12] CRC32
14 79,4 [12C21FBD] [DBBDDE6D] CRC32

Thanks to oleandris