Subcategories

Chthonic - Battlefields Of Asura (2018) [Japanese Ed.]

Posted By: Andi_Deris
Chthonic - Battlefields Of Asura (2018) [Japanese Ed.]

Chthonic - Battlefields Of Asura (2018) [Japanese Ed.]
EAC Rip | FLAC: Image+Cue+Log | MP3 CBR 320 kbps | Scans
330 Mb | 104 Mb | 63 Mb | Time: 44:43
Howling Bull Inc. | HWCY-1355
Melodic Black/Death/Folk Metal

The Tawainese extreme metal band Chthonic released their first new album in five years with "Battlefields of Asura". The band was inspired by Black Metal (especially Cradle Of Filth), which they enrich with melodies, choirs and traditional Asian instruments. On the new recordings were u.a. Randy Blythe (Lamb Of God) and singer Denise Ho from Hong Kong. "Battlefields of Asura" is a worthy successor to their previous album Bú-Tik as Chthonic masterfully combines the sounds of old and new into a an excellent symphonic/melodic death metal album. The album highlights the band’s East Asian folk influences with strong melodies that add character, emotion, and personality. Fans of the band, both new and old, should find enjoyment with this album as it may be their best album yet. SUPER !!! BEST ALBUM !!!

Chthonic - Battlefields Of Asura (2018) [Japanese Ed.]




Track Listing

01. Drawing Omnipotence Nigh (02:07)
02. The Silent One's Torch (04:03)
03. Flames Upon The Weeping Winds (03:10)
04. A Crimson Sky's Command (03:31)
05. Souls Of The Revolution (04:39)
06. Taste The Black Tears (04:49)
07. One Thousand Eyes (05:16)
08. Masked Faith (02:19)
09. Carved In Bloodstone (02:57)
10. Millennia's Faith Undone (05:06)
11. Autopoiesis (02:08)
12. Takao (Live) (Bonus track for Japan) (04:37)

Produced by Chthonic Rickard Bengtson

The Band

• Freddy Lim - Vocals
• Jesse Liu - Guitars
• CJ Kao - Keyboards
• Doris Yeh - Bass
• Dani Wang - Drums

Notes

Track 12 is a bonus track only present on the Japanese edition. It's a live techno-remix of the song Takao performed at MEGAPORT FESTIVAL 2015, featuring Sonia (although not credited).

Exact Audio Copy V1.3 from 2. September 2016

EAC extraction logfile from 29. October 2018, 11:37

Chthonic / Battlefields Of Asura (Japan)

Used drive : ATAPI iHAS122 W Adapter: 2 ID: 0

Read mode : Secure
Utilize accurate stream : Yes
Defeat audio cache : Yes
Make use of C2 pointers : No

Read offset correction : 48
Overread into Lead-In and Lead-Out : No
Fill up missing offset samples with silence : Yes
Delete leading and trailing silent blocks : No
Null samples used in CRC calculations : Yes
Used interface : Installed external ASPI interface

Used output format : User Defined Encoder
Selected bitrate : 1024 kBit/s
Quality : High
Add ID3 tag : No
Command line compressor : C:\Program Files\FLAC\flac.exe
Additional command line options : -V -8 -T "Date=%year%" -T "Genre=%genre%" -T"COMMENT=Ripped by Ilijan" -8 -V %source%


TOC of the extracted CD

Track | Start | Length | Start sector | End sector
––––––––––––––––––––––––––––-
1 | 0:00.00 | 2:07.22 | 0 | 9546
2 | 2:07.22 | 4:02.74 | 9547 | 27770
3 | 6:10.21 | 3:10.08 | 27771 | 42028
4 | 9:20.29 | 3:31.23 | 42029 | 57876
5 | 12:51.52 | 4:39.17 | 57877 | 78818
6 | 17:30.69 | 4:49.24 | 78819 | 100517
7 | 22:20.18 | 5:15.54 | 100518 | 124196
8 | 27:35.72 | 2:18.50 | 124197 | 134596
9 | 29:54.47 | 2:57.12 | 134597 | 147883
10 | 32:51.59 | 5:05.41 | 147884 | 170799
11 | 37:57.25 | 2:07.73 | 170800 | 180397
12 | 40:05.23 | 4:36.61 | 180398 | 201158


Range status and errors

Selected range

Filename D:\Chthonic - Battlefields Of Asura (Japan).wav

Peak level 100.0 %
Extraction speed 3.7 X
Range quality 100.0 %
Test CRC DFA5D3E0
Copy CRC DFA5D3E0
Copy OK

No errors occurred


AccurateRip summary

Track 1 not present in database
Track 2 not present in database
Track 3 not present in database
Track 4 not present in database
Track 5 not present in database
Track 6 not present in database
Track 7 not present in database
Track 8 not present in database
Track 9 not present in database
Track 10 not present in database
Track 11 not present in database
Track 12 not present in database

None of the tracks are present in the AccurateRip database

End of status report

–– CUETools DB Plugin V2.1.6

[CTDB TOCID: .KRqVurA43abpc0mwk74CCgm6VQ-] found
Submit result: .KRqVurA43abpc0mwk74CCgm6VQ- has been confirmed
Track | CTDB Status
1 | (5/5) Accurately ripped
2 | (5/5) Accurately ripped
3 | (5/5) Accurately ripped
4 | (5/5) Accurately ripped
5 | (5/5) Accurately ripped
6 | (5/5) Accurately ripped
7 | (5/5) Accurately ripped
8 | (5/5) Accurately ripped
9 | (5/5) Accurately ripped
10 | (5/5) Accurately ripped
11 | (5/5) Accurately ripped
12 | (5/5) Accurately ripped


==== Log checksum 941C7E276F425BF24A623353FCE0679ABD602627CB672B46C688B248EB42F871 ====


Many thanks to the original uploader: Ilijan



Password: pass