Tags
Language
Tags

Cindy Bradley - Unscripted (2011)

Posted By:
Cindy Bradley - Unscripted (2011)

Cindy Bradley - Unscripted (2011)
EAC 1.0b1 | FLAC tracks level 8 | Cue+Log+M3U+MD5 | Full Scans 300dpi | 353MB + 5% Recovery
MP3 CBR 320 Kbps | 144MB + 5% Recovery
Genre: Smooth Jazz

From one of the most nominated, most in demand artists and winner of 'Best New Artist' 2010 American Contemporary Jazz Awards, comes this revealing portrait of a young lady that has captured the attention and imaginations of fans and critics alike. With three nods, Best New Artist, Best Female Artist, Best Brass Player at this year's Contemporary Jazz Awards the accolades continue. Painted with a broad musical brush, Unscripted'doesn t play by the rules and captures the essence of the deep connection she has with her instrument as she delivers a scintillating palate of moods and flavors worthy a feast for the ears, yet one which will move the heart.
Track List
01. Prelude 1:42
02. Massive Transit 5:53
03. Interlude 0:39
04. Footprints 7:27
05. You Don't Know What Love Is 6:59
06. Lifted 4:54
07. A New Day 4:53
08. Interlude 0:26
09. Deja Blue 4:16
10. Pink Slip 6:36
11. Inevitable 5:30
12. Interlude 0:41
13. One Moment More 5:52

musicians
Cindy Bradley - trumpet, flugelhorn, trombone
Michael Broening - keyboards, programming, MIDI bass
Mel Brown - bass
Freddie Fox - guitar
Paul David - guitar
Ernie Donadelle - bass
Tim Veeder - sax
Thano Sahnas - guitar
Mario Mendivil - bass
Jake Hertzog - guitar

Produced by Michael Broening


Exact Audio Copy V1.0 beta 1 from 15. November 2010

EAC extraction logfile from 9. April 2012, 11:11

Cindy Bradley / Unscripted

Used drive : HL-DT-STDVDRAM GH20NS10 Adapter: 2 ID: 1

Read mode : Secure
Utilize accurate stream : Yes
Defeat audio cache : Yes
Make use of C2 pointers : No

Read offset correction : 667
Overread into Lead-In and Lead-Out : No
Fill up missing offset samples with silence : Yes
Delete leading and trailing silent blocks : No
Null samples used in CRC calculations : Yes
Used interface : Native Win32 interface for Win NT & 2000
Gap handling : Appended to previous track

Used output format : User Defined Encoder
Selected bitrate : 1024 kBit/s
Quality : High
Add ID3 tag : No
Command line compressor : C:\Program Files\Exact Audio Copy\Flac\flac.exe
Additional command line options : -8 -V -T "ARTIST=%a" -T "TITLE=%t" -T "ALBUM=%g" -T "DATE=%y" -T "TRACKNUMBER=%n" -T "TOTALTRACKS=%x" -T "GENRE=%m" -T "ALBUMARTIST=%v" -T "ALBUM ARTIST=%v" -T "COMMENT=EAC Secure Mode, Test & Copy, AccurateRip, FLAC -8" %s


TOC of the extracted CD

Track | Start | Length | Start sector | End sector
––––––––––––––––––––––––––––-
1 | 0:00.00 | 1:42.69 | 0 | 7718
2 | 1:42.69 | 5:53.01 | 7719 | 34194
3 | 7:35.70 | 0:39.41 | 34195 | 37160
4 | 8:15.36 | 7:28.47 | 37161 | 70807
5 | 15:44.08 | 7:00.35 | 70808 | 102342
6 | 22:44.43 | 4:54.62 | 102343 | 124454
7 | 27:39.30 | 4:54.06 | 124455 | 146510
8 | 32:33.36 | 0:20.25 | 146511 | 148035
9 | 32:53.61 | 4:17.26 | 148036 | 167336
10 | 37:11.12 | 6:37.33 | 167337 | 197144
11 | 43:48.45 | 5:30.54 | 197145 | 221948
12 | 49:19.24 | 0:41.42 | 221949 | 225065
13 | 50:00.66 | 5:52.05 | 225066 | 251470


Track 1

Filename D:\Cindy Bradley - Unscripted (2011) [FLAC]\01 - Prelude.wav

Pre-gap length 0:00:02.00

Peak level 100.0 %
Extraction speed 2.6 X
Track quality 99.8 %
Test CRC D4D32B25
Copy CRC D4D32B25
Cannot be verified as accurate (confidence 2) [C7DD5064], AccurateRip returned [75BD5EF2]
Copy OK

Track 2

Filename D:\Cindy Bradley - Unscripted (2011) [FLAC]\02 - Massive Transit.wav

Peak level 100.0 %
Extraction speed 5.2 X
Track quality 100.0 %
Test CRC 236E4BDD
Copy CRC 236E4BDD
Cannot be verified as accurate (confidence 2) [9E422CE6], AccurateRip returned [2E66A1AA]
Copy OK

Track 3

Filename D:\Cindy Bradley - Unscripted (2011) [FLAC]\03 - Interlude.wav

Peak level 88.1 %
Extraction speed 3.0 X
Track quality 100.0 %
Test CRC DBACBD8D
Copy CRC DBACBD8D
Cannot be verified as accurate (confidence 2) [A77FB542], AccurateRip returned [F204D51E]
Copy OK

Track 4

Filename D:\Cindy Bradley - Unscripted (2011) [FLAC]\04 - Footprints.wav

Peak level 100.0 %
Extraction speed 5.7 X
Track quality 99.9 %
Test CRC F2B9046F
Copy CRC F2B9046F
Cannot be verified as accurate (confidence 2) [BA3CEE89], AccurateRip returned [197A579C]
Copy OK

Track 5

Filename D:\Cindy Bradley - Unscripted (2011) [FLAC]\05 - You Don't Know What Love Is.wav

Pre-gap length 0:00:01.35

Peak level 100.0 %
Extraction speed 7.1 X
Track quality 100.0 %
Test CRC 6816650F
Copy CRC 6816650F
Cannot be verified as accurate (confidence 2) [7136E408], AccurateRip returned [6D20A1F2]
Copy OK

Track 6

Filename D:\Cindy Bradley - Unscripted (2011) [FLAC]\06 - Lifted.wav

Pre-gap length 0:00:00.73

Peak level 100.0 %
Extraction speed 6.6 X
Track quality 100.0 %
Test CRC 3C014B13
Copy CRC 3C014B13
Cannot be verified as accurate (confidence 2) [9BB8D5A6], AccurateRip returned [08BB44AD]
Copy OK

Track 7

Filename D:\Cindy Bradley - Unscripted (2011) [FLAC]\07 - A New Day.wav

Pre-gap length 0:00:00.54

Peak level 100.0 %
Extraction speed 7.6 X
Track quality 100.0 %
Test CRC 3B6659D7
Copy CRC 3B6659D7
Cannot be verified as accurate (confidence 2) [2257938D], AccurateRip returned [2B305688]
Copy OK

Track 8

Filename D:\Cindy Bradley - Unscripted (2011) [FLAC]\08 - Interlude.wav

Pre-gap length 0:00:00.54

Peak level 89.1 %
Extraction speed 3.0 X
Track quality 100.0 %
Test CRC 65E879C7
Copy CRC 65E879C7
Cannot be verified as accurate (confidence 2) [1E443FDF], AccurateRip returned [7FC79B6B]
Copy OK

Track 9

Filename D:\Cindy Bradley - Unscripted (2011) [FLAC]\09 - Deja Blue.wav

Peak level 100.0 %
Extraction speed 5.2 X
Track quality 99.9 %
Test CRC 614319DE
Copy CRC 614319DE
Cannot be verified as accurate (confidence 2) [0C72DD0B], AccurateRip returned [307504EA]
Copy OK

Track 10

Filename D:\Cindy Bradley - Unscripted (2011) [FLAC]\10 - Pink Slip.wav

Pre-gap length 0:00:00.45

Peak level 100.0 %
Extraction speed 7.0 X
Track quality 100.0 %
Test CRC 0370246A
Copy CRC 0370246A
Cannot be verified as accurate (confidence 2) [61AFB5D3], AccurateRip returned [94EE02D7]
Copy OK

Track 11

Filename D:\Cindy Bradley - Unscripted (2011) [FLAC]\11 - Inevitable.wav

Pre-gap length 0:00:01.01

Peak level 100.0 %
Extraction speed 6.2 X
Track quality 99.9 %
Test CRC C497DA8C
Copy CRC C497DA8C
Cannot be verified as accurate (confidence 2) [1980E5A4], AccurateRip returned [964314AD]
Copy OK

Track 12

Filename D:\Cindy Bradley - Unscripted (2011) [FLAC]\12 - Interlude.wav

Peak level 64.4 %
Extraction speed 3.8 X
Track quality 100.0 %
Test CRC 5826BC5F
Copy CRC 5826BC5F
Cannot be verified as accurate (confidence 2) [074E3B08], AccurateRip returned [BABD0CCA]
Copy OK

Track 13

Filename D:\Cindy Bradley - Unscripted (2011) [FLAC]\13 - One Moment More.wav

Pre-gap length 0:00:00.20

Peak level 100.0 %
Extraction speed 5.7 X
Track quality 100.0 %
Test CRC 03D0DBC6
Copy CRC 03D0DBC6
Cannot be verified as accurate (confidence 2) [DB22D04D], AccurateRip returned [5519443C]
Copy OK


No tracks could be verified as accurate
You may have a different pressing from the one(s) in the database

No errors occurred

End of status report

==== Log checksum 9FDB971AF893E4496FC4A815E04A18F370C92B6C932DABE77899A8562B3FF8F8 ====


––––––––––––––––––––––––––––––––––––––––
Analyzed: Cindy Bradley / Unscripted
––––––––––––––––––––––––––––––––––––––––

DR Peak RMS Duration Track
––––––––––––––––––––––––––––––––––––––––
DR7 0.00 dB -10.32 dB 1:43 01-Prelude
DR9 0.00 dB -10.15 dB 5:53 02-Massive Transit
DR13 -1.09 dB -18.23 dB 0:40 03-Interlude
DR8 0.00 dB -9.92 dB 7:29 04-Footprints
DR8 0.00 dB -10.15 dB 7:00 05-You Don't Know What Love Is
DR7 0.00 dB -9.24 dB 4:55 06-Lifted
DR9 0.00 dB -10.70 dB 4:54 07-A New Day
DR14 -1.00 dB -20.84 dB 0:20 08-Interlude
DR9 0.00 dB -11.23 dB 4:17 09-Deja Blue
DR8 0.00 dB -9.81 dB 6:37 10-Pink Slip
DR10 0.00 dB -12.49 dB 5:31 11-Inevitable
DR12 -3.82 dB -23.92 dB 0:42 12-Interlude
DR8 0.00 dB -12.55 dB 5:52 13-One Moment More
––––––––––––––––––––––––––––––––––––––––

Number of tracks: 13
Official DR value: DR9

Samplerate: 44100 Hz
Channels: 2
Bits per sample: 16
Bitrate: 555 kbps
Codec: FLAC
================================================================================

Cindy Bradley - Unscripted (2011)
Cindy Bradley - Unscripted (2011)
Cindy Bradley - Unscripted (2011)