Subcategories

Clarence 'Gatemouth' Brown - One More Mile (1983) [Re-Up]

Posted By: Designol
Clarence 'Gatemouth' Brown - One More Mile (1983) [Re-Up]

Clarence 'Gatemouth' Brown - One More Mile (1983)
EAC | FLAC | Image (Cue&Log) ~ 284 Mb | Mp3 (CBR320) ~ 110 Mb | Scans included | 00:39:48
Modern Electric Texas Blues, Jazz-Blues, Cajun | Label: Rounder | # CD 2034

For his second Rounder album, Clarence "Gatemouth" Brown offers his "World Music Texas Style" - a compelling synthesis of blues, jazz, Cajun music and even a touch of country. With horn arrangements by Bill Samuel and Homer Brown, the album is a showcase for Gate's virtuoso abilities as a guitarist and violinist, which always tap his blues roots while offering constant musical surprises. 1983 Grammy Award finalist.

Considerably more varied than its predecessor, with nods toward the Louisiana swamp ("Sunrise Cajun Style," complete with pedal steel guitar), sentimental ballads (Cecil Gant's "I Wonder"), and jazz ("Big Yard"). Blues purists will perk up for revivals of Junior Parker's "Stranded" and Roy Milton's "Information Blues."

Review by Bill Dahl, Allmusic.com

Clarence 'Gatemouth' Brown at Allmusic
Clarence 'Gatemouth' Brown at Wiki

Tracklist:

01. Information Blues (3:27)
02. Song For Renee (5:29)
03. Stranded (3:58)
04. Sunrise Cajun Style (3:57)
05. Big Yard (3:04)
06. Ain't That Dandy (3:25)
07. One More Mile (4:19)
08. I Wonder (4:46)
09. Flippin' Out (3:09)
10. Near Baku (4:14)


Exact Audio Copy V1.0 beta 3 from 29. August 2011

Отчёт EAC об извлечении, выполненном 27. июня 2013, 19:00

Clarence 'Gatemouth' Brown / One More Mile

Дисковод: SONY CD-RW CRX230ED Adapter: 0 ID: 1

Режим чтения : Достоверность
Использование точного потока : Да
Отключение кэша аудио : Да
Использование указателей C2 : Нет

Коррекция смещения при чтении : 6
Способность читать области Lead-in и Lead-out : Нет
Заполнение пропущенных сэмплов тишиной : Да
Удаление блоков с тишиной в начале и конце : Нет
При вычислениях CRC использовались нулевые сэмплы : Да
Интерфейс : Установленный внешний ASPI-интерфейс

Выходной формат : Внутренние WAV-операции
Формат сэмплов : 44.100 Гц; 16 бит; стерео


TOC извлечённого CD

Трек | Старт | Длительность | Начальный сектор | Конечный сектор
––––––––––––––––––––––––––––––––––-
1 | 0:00.37 | 3:26.38 | 37 | 15524
2 | 3:27.00 | 5:29.37 | 15525 | 40236
3 | 8:56.37 | 3:58.00 | 40237 | 58086
4 | 12:54.37 | 3:57.00 | 58087 | 75861
5 | 16:51.37 | 3:04.00 | 75862 | 89661
6 | 19:55.37 | 3:25.00 | 89662 | 105036
7 | 23:20.37 | 4:18.38 | 105037 | 124424
8 | 27:39.00 | 4:46.37 | 124425 | 145911
9 | 32:25.37 | 3:09.00 | 145912 | 160086
10 | 35:34.37 | 4:13.73 | 160087 | 179134


Характеристики диапазона извлечения и сообщения об ошибках

Выбранный диапазон

Имя файла E:\MusicCD\Torrent\Clarence 'Gatemouth' Brown - One More Mile\Clarence 'Gatemouth' Brown - One More Mile.wav

Пиковый уровень 100.0 %
Скорость извлечения 7.8 X
Качество диапазона 100.0 %
CRC теста 113DC6C9
CRC копии 113DC6C9
Копирование… OK

Ошибок не произошло


AccurateRip: сводка

Трек 1 : извлечено точно (доверие 2) [764F0A29] (AR v1)
Трек 2 : извлечено точно (доверие 2) [50F35E77] (AR v1)
Трек 3 : извлечено точно (доверие 2) [0B04B3AA] (AR v1)
Трек 4 : извлечено точно (доверие 2) [AF60F22F] (AR v1)
Трек 5 : извлечено точно (доверие 2) [1970662D] (AR v1)
Трек 6 : извлечено точно (доверие 2) [39EAE9B8] (AR v1)
Трек 7 : извлечено точно (доверие 2) [970E78B3] (AR v1)
Трек 8 : извлечено точно (доверие 2) [1BCECC2B] (AR v1)
Трек 9 : извлечено точно (доверие 2) [1115A614] (AR v1)
Трек 10 : извлечено точно (доверие 2) [AA21000D] (AR v1)

Все треки извлечены точно

Конец отчёта

==== Контрольная сумма отчёта 2A1DBC3751E3E8085AB1F3AF94FF626FC7693828B2B0283B3CB3D3365ECCE925 ====

[CUETools log; Date: 03.11.2017 19:33:45; Version: 2.1.4]
Pregap length 00:00:37.
[CTDB TOCID: ptLktZyvelgXWGc_YpSKuIMt6Lc-] found.
Track | CTDB Status
1 | (5/5) Accurately ripped
2 | (4/5) Accurately ripped
3 | (5/5) Accurately ripped
4 | (5/5) Accurately ripped
5 | (5/5) Accurately ripped
6 | (5/5) Accurately ripped
7 | (5/5) Accurately ripped
8 | (5/5) Accurately ripped
9 | (5/5) Accurately ripped
10 | (5/5) Accurately ripped
[AccurateRip ID: 000f2ad6-0078cc6a-7e09540a] found.
Track [ CRC | V2 ] Status
01 [764f0a29|53835729] (2+0/7) Accurately ripped
02 [50f35e77|c0d09437] (2+0/7) Accurately ripped
03 [0b04b3aa|e9286e56] (2+0/7) Accurately ripped
04 [af60f22f|e63f4da9] (2+0/7) Accurately ripped
05 [1970662d|63bb6f97] (2+0/7) Accurately ripped
06 [39eae9b8|17fe90da] (2+0/7) Accurately ripped
07 [970e78b3|6a1c73c7] (2+0/7) Accurately ripped
08 [1bcecc2b|1d4061b5] (2+0/7) Accurately ripped
09 [1115a614|bf834a1c] (2+0/7) Accurately ripped
10 [aa21000d|e2a020ff] (2+0/7) Accurately ripped
Offsetted by 714:
01 [361a91bd] (3/7) Accurately ripped
02 [7f38aae9] (3/7) Accurately ripped
03 [5e22fad0] (3/7) Accurately ripped
04 [9513a5b7] (3/7) Accurately ripped
05 [14ff90c5] (3/7) Accurately ripped
06 [89de24c6] (3/7) Accurately ripped
07 [6a65fa33] (3/7) Accurately ripped
08 [99e7d229] (3/7) Accurately ripped
09 [d439a5fe] (3/7) Accurately ripped
10 [6632d4ff] (3/7) Accurately ripped

Track Peak [ CRC32 ] [W/O NULL] [ LOG ]
– 100,0 [113DC6C9] [6603243D] CRC32
01 99,7 [A1C9AAA9] [06AD59D9]
02 97,9 [5C1785C7] [2F7FC369]
03 98,8 [54ED5E6C] [53104941]
04 100,0 [EF711CE6] [79F3C628]
05 99,9 [69C954D7] [EA17BBA6]
06 100,0 [31DA8E6E] [05774E60]
07 99,1 [11EB7414] [46AD4254]
08 76,6 [5301E2B9] [DB9EF35F]
09 100,0 [CF58BFB2] [5981CE93]
10 99,6 [75E163AC] [2726E5B8]

foobar2000 1.2 / Dynamic Range Meter 1.1.1
log date: 2017-11-03 19:27:36

––––––––––––––––––––––––––––––––––––––––
Analyzed: Clarence 'Gatemouth' Brown / One More Mile
––––––––––––––––––––––––––––––––––––––––

DR Peak RMS Duration Track
––––––––––––––––––––––––––––––––––––––––
DR12 -0.02 dB -14.66 dB 3:27 01-Information Blues
DR13 -0.18 dB -17.32 dB 5:29 02-Song For Renee
DR12 -0.10 dB -14.47 dB 3:58 03-Stranded
DR12 0.00 dB -14.71 dB 3:57 04-Sunrise Cajun Style
DR13 -0.01 dB -16.86 dB 3:04 05-Big Yard
DR13 0.00 dB -14.85 dB 3:25 06-Ain't That Dandy
DR14 -0.08 dB -16.15 dB 4:19 07-One More Mile
DR13 -2.31 dB -17.48 dB 4:46 08-I Wonder
DR12 0.00 dB -14.50 dB 3:09 09-Flippin' Out
DR14 -0.03 dB -17.15 dB 4:14 10-Near Baku
––––––––––––––––––––––––––––––––––––––––

Number of tracks: 10
Official DR value: DR13

Samplerate: 44100 Hz
Channels: 2
Bits per sample: 16
Bitrate: 932 kbps
Codec: FLAC
================================================================================

Clarence 'Gatemouth' Brown - One More Mile (1983) [Re-Up]

Clarence 'Gatemouth' Brown - One More Mile (1983) [Re-Up]

All thanks to original releaser - squirr

More interesting music in My Blog