Subcategories

Clarence 'Gatemouth' Brown - Pressure Cooker (1985) [Re-Up]

Posted By: Designol
Clarence 'Gatemouth' Brown - Pressure Cooker (1985) [Re-Up]

Clarence 'Gatemouth' Brown - Pressure Cooker (1985)
EAC | FLAC | Image (Cue&Log) ~ 243 Mb | Mp3 (CBR320) ~ 116 Mb | Scans included
Modern Electric Texas Blues | Label: Alligator | # ALCD 4745 | 00:41:31

Before Gate was able to rebuild a following stateside, he frequently toured Europe. He recorded the contents of this inexorably swinging set in France in 1973 with all-star backing by keyboardists Milt Buckner and Jay McShann, saxists Arnett Cobb and Hal Singer, among others. Brown indulges his passion for Louis Jordan by ripping through "Ain't That Just like a Woman" and "Ain't Nobody Here but Us Chickens" and exhibits his immaculate fretwork on the torrid title item.

Review by Bill Dahl, Allmusic.com

Taken from several 1970s sessions in France, Pressure Cooker has a relaxed feel that belies its name, a loose vibe that's never sloppy, combining the best of blues and swing. While not as tightly wound as some of Clarence "Gatemouth" Brown's classic recordings–The Original Peacock Recordings and Texas Swing, for example–Pressure Cooker has its own strengths. "She Winked Her Eye" has some especially strong guitar work, and a hilarious monologue in the middle as a bonus, while the slow tempos of "My Time Is Expensive" and "Deep, Deep Water" allow Gate to stretch out (the latter also includes an excellent Jay McShann piano solo). Add to that the humorous touches on "Ain't Nobody Here But Us Chickens" and the thoroughly un-politically correct "Ain't That Just Like a Woman," and what you have is a strong CD that makes up in entertainment what it lacks in intensity.

Review by Genevieve Williams, Allmusic.com

Clarence 'Gatemouth' Brown at Allmusic
Clarence 'Gatemouth' Brown at Wiki

Tracklist:

01. She Winked Her Eye (5:18)
02. Slow Down (4:00)
03. Just Lippin' (3:11)
04. My Time Is Expensive (4:30)
05. Ain't Nobody Here But Us Chickens (4:30)
06. Pressure Cooker (2:55)
07. Ain't That Just Like A Woman (5:29)
08. Deep, Deep Water (6:44)
09. Cold Strings (4:56)


Exact Audio Copy V1.0 beta 3 from 29. August 2011

Отчёт EAC об извлечении, выполненном 4. ноября 2014, 16:19

Clarence 'Gatemouth' Brown / Pressure Cooker

Дисковод: SONY CD-RW CRX230ED Adapter: 0 ID: 1

Режим чтения : Достоверность
Использование точного потока : Да
Отключение кэша аудио : Да
Использование указателей C2 : Нет

Коррекция смещения при чтении : 6
Способность читать области Lead-in и Lead-out : Нет
Заполнение пропущенных сэмплов тишиной : Да
Удаление блоков с тишиной в начале и конце : Нет
При вычислениях CRC использовались нулевые сэмплы : Да
Интерфейс : Встроенный Win32-интерфейс для Win NT/2000

Выходной формат : Внутренние WAV-операции
Формат сэмплов : 44.100 Гц; 16 бит; стерео


TOC извлечённого CD

Трек | Старт | Длительность | Начальный сектор | Конечный сектор
––––––––––––––––––––––––––––––––––-
1 | 0:00.00 | 5:17.40 | 0 | 23814
2 | 5:17.40 | 3:59.55 | 23815 | 41794
3 | 9:17.20 | 3:10.55 | 41795 | 56099
4 | 12:28.00 | 4:30.32 | 56100 | 76381
5 | 16:58.32 | 4:29.50 | 76382 | 96606
6 | 21:28.07 | 2:54.68 | 96607 | 109724
7 | 24:23.00 | 5:28.45 | 109725 | 134369
8 | 29:51.45 | 6:44.02 | 134370 | 164671
9 | 36:35.47 | 4:55.50 | 164672 | 186846


Характеристики диапазона извлечения и сообщения об ошибках

Выбранный диапазон

Имя файла F:\MusicCD\Torrent\Clarence 'Gatemouth' Brown - Pressure Cooker\Clarence 'Gatemouth' Brown - Pressure Cooker.wav

Пиковый уровень 100.0 %
Скорость извлечения 7.2 X
Качество диапазона 99.9 %
CRC теста 1862DE3A
CRC копии 1862DE3A
Копирование… OK

Ошибок не произошло


AccurateRip: сводка

Трек 1 : извлечено точно (доверие 3) [C56E51E9] (AR v1)
Трек 2 : извлечено точно (доверие 3) [90E2E97E] (AR v1)
Трек 3 : извлечено точно (доверие 2) [93E90C7A] (AR v1)
Трек 4 : извлечено точно (доверие 3) [2E192CBF] (AR v1)
Трек 5 : извлечено точно (доверие 2) [4D4427E4] (AR v1)
Трек 6 : извлечено точно (доверие 3) [9590FF30] (AR v1)
Трек 7 : извлечено точно (доверие 3) [EE333B9A] (AR v1)
Трек 8 : извлечено точно (доверие 3) [2595DA1A] (AR v1)
Трек 9 : извлечено точно (доверие 3) [AD0200FE] (AR v1)

Все треки извлечены точно

Конец отчёта

==== Контрольная сумма отчёта 13D3FBD1DC694E756A3EAF0CC9199F3818B1954D53DBFD60FAB515D18CC060E7 ====

foobar2000 1.2 / Dynamic Range Meter 1.1.1
log date: 2017-11-14 19:13:19

––––––––––––––––––––––––––––––––––––––––
Analyzed: Clarence 'Gatemouth' Brown / Pressure Cooker
––––––––––––––––––––––––––––––––––––––––

DR Peak RMS Duration Track
––––––––––––––––––––––––––––––––––––––––
DR14 -0.92 dB -18.29 dB 5:18 01-She Winked Her Eye
DR15 -0.36 dB -19.43 dB 4:00 02-Slow Down
DR14 -1.63 dB -18.10 dB 3:11 03-Just Lippin'
DR14 -3.04 dB -21.58 dB 4:30 04-My Time Is Expensive
DR12 -4.28 dB -19.04 dB 4:30 05-Ain't Nobody Here But Us Chickens
DR13 -2.83 dB -19.13 dB 2:55 06-Pressure Cooker
DR13 -0.88 dB -16.13 dB 5:29 07-Ain't That Just Like A Woman
DR16 -0.01 dB -22.18 dB 6:44 08-Deep, Deep Water
DR13 0.00 dB -16.25 dB 4:56 09-Cold Strings
––––––––––––––––––––––––––––––––––––––––

Number of tracks: 9
Official DR value: DR14

Samplerate: 44100 Hz
Channels: 2
Bits per sample: 16
Bitrate: 748 kbps
Codec: FLAC
================================================================================

Clarence 'Gatemouth' Brown - Pressure Cooker (1985) [Re-Up]

Clarence 'Gatemouth' Brown - Pressure Cooker (1985) [Re-Up]

All thanks to original releaser - squirr

More interesting music in My Blog