Tags
Language
Tags

Claudio Arrau, Staatskapelle Dresden, Sir Colin Davis - Beethoven: Piano Concerto No. 4 (1986)

Posted By: tirexiss
Claudio Arrau, Staatskapelle Dresden, Sir Colin Davis - Beethoven: Piano Concerto No. 4 (1986)

Claudio Arrau, Staatskapelle Dresden, Sir Colin Davis - Beethoven: Piano Concerto No. 4 (1986)
EAC | FLAC (image+.cue, log) | Covers Included | 49:45 | 196 MB
Genre: Classical | Label: Philips | Catalog: 4116 144-2

”… However, not only is Davis more in sympathy with Arrau's majestic approach, he's got the incomparable Staatskapelle Dresden backing him up. The result is a Fourth Concerto for the ages: just listen to Arrau's silky-toned opening, the soft hush of the violin section's entrance leading up to the thrilling subsequent crescendo. And the slow movement! Words can't do it justice, nor can they capture the finale's wonderful sense of vigor within repose.”

Claudio Arrau, Staatskapelle Dresden, Sir Colin Davis - Beethoven: Piano Concerto No. 4 (1986)

Track List:

Piano Concerto No.4 in G major, op.58
01. I. Allegro moderato [0:20:55.00]
02. II. Andante con moto [0:06:09.82]
03. III. Rondo (Vivacae) [0:10:42.17]
04. 32 Variationen über ein eigenes Thema c-moll [0:12:17.00]

Performers:
Claudio Arrau - piano
Staatskapelle Dresden
Sir Colin Davis - conductor

Exact Audio Copy V1.0 beta 3 from 29. August 2011

Journal d'extraction EAC depuis 27. Octobre 2012, 15:07

Claudio Arrau / Beethoven - Piano Concerto No. 4

Lecteur utilisé : HL-DT-STDVD-RW_GSA-H11N Adapter: 0 ID: 0

Mode lecture : : Vérouiller
Utiliser flux précis : Oui
Vider le cache audio : Non
Utiliser les pointeurs C2 : Oui

Correction offset écriture : : 667
Lecture étendue en lead-in et lead-out : Non
Remplacer les samples manquants par du silence : Oui
Effacer les blocs silencieux situés en début et fin : Non
Échantillons null utilisés dans les calculs CRC : Oui
Interface utilisée : Interface native Win32 pour Win NT & 2000

Format de sortie utilisé : : Encodeur défini par l'utilisateur
Débit choisi : 768 kBit/s
Qualité : Haut
Ajouter ID3 tag : Non
Ligne de commande du compresseur : C:\Program Files\Exact Audio Copy\FLAC\FLAC.EXE
Options de commande additionnelle : : -6 -V -T "ARTIST=%artist%" -T "TITLE=%title%" -T "ALBUM=%albumtitle%" -T "DATE=%year%" -T "TRACKNUMBER=%tracknr%" -T "GENRE=%genre%" -T "COMMENT=%comment%" -T "BAND=%albuminterpret%" -T "ALBUMARTIST=%albuminterpret%" -T "COMPOSER=%composer%" %haslyrics%–tag-from-file=LYRICS="%lyricsfile%"%haslyrics% -T "DISCNUMBER=%cdnumber%" -T "TOTALDISCS=%totalcds%" -T "TOTALTRACKS=%numtracks%" %hascover%–picture="%coverfile%"%hascover% %source% -o %dest%


TOC du CD extrait

Track | Démarrer | Longueur | Secteur de début | Secteur de fin
––––––––––––––––––––––––––––––––-
1 | 0:00.33 | 20:55.00 | 33 | 94157
2 | 20:55.33 | 6:09.62 | 94158 | 121894
3 | 27:05.20 | 10:42.13 | 121895 | 170057
4 | 37:47.33 | 12:17.00 | 170058 | 225332


Propriétés États et Erreurs

Gammes sélectionnées

Nom fichier G:\MUSIQUE S 2\ZZZ-MES_RIPS\Claudio Arrau - Beethoven - Piano Concerto No. 4.wav

Niveau max 97.7 %
Vitesse d'extraction 21.5 X
qualité intervalle 100.0 %
Copie CRC DEE16A2C
Copie Ok

Pas d'erreur apparue


Résumé AccurateRip

Piste 1 extrait avec exactitude (confiance 3) [FDA838EA] (AR v2)
Piste 2 extrait avec exactitude (confiance 3) [B83ABFB3] (AR v2)
Piste 3 extrait avec exactitude (confiance 3) [1FD76D04] (AR v2)
Piste 4 extrait avec exactitude (confiance 3) [BE5C6648] (AR v2)

Toutes pistes extraites exactement

Fin du rapport d'état

Thanks to the Original ripper (unknown)!

Welcome to my blog!

Download: