Tags
Language
Tags

Claudio Arrau, Staatskapelle Dresden, Sir Colin Davis - Beethoven: Piano Concertos Nos.1 & 2 (1999)

Posted By:
Claudio Arrau, Staatskapelle Dresden, Sir Colin Davis - Beethoven: Piano Concertos Nos.1 & 2 (1999)

Claudio Arrau, Staatskapelle Dresden, Sir Colin Davis - Beethoven: Piano Concertos Nos.1 & 2 (1999)
EAC | FLAC (image+.cue, log) | Covers Included | 01:10:32 | 297 MB
Genre: Classical | Label: Philips | Catalog: 422 066-2PH

Though it`s hardly uncommon for a musician to be performing and recording at age 85, it`s difficult to think of many octogenarian performers who continue to explore new paths. Arrau is the wonderful exception, as his current Beethoven cycle for Philips has indicated time and again.
This recording of the first two piano concertos offers further proof, for here Arrau turns in performances that force us to reconsider these works. We may be accustomed to hearing the First Concerto played with lightness and Mozartean elegance, but Arrau goes well beyond this cliche. His account of the first movement has a depth and mystery it is rarely accorded. The slow tempo and hushed dynamics that he and Davis bring to the middle movement again cast the piece in a fascinating light that foreshadows later Beethoven.
The recording of the Second Concerto is no less a revelation, particularly for the long, unbroken line of thought that Arrau carries throughout.

Claudio Arrau, Staatskapelle Dresden, Sir Colin Davis - Beethoven: Piano Concertos Nos.1 & 2 (1999)

Track List:

01. No.1 in C, Op.15, 1. Allegro con brio [0:17:47.00]
02. No.1 in C, Op.15, 2. Largo [0:11:07.00]
03. No.1 in C, Op.15, 3. Rondo, Allegro scherzando [0:09:52.00]
04. No.2 in Bb, Op.19, 1. Allegro con brio [0:15:14.00]
05. No.2 in Bb, Op.19, 2. Adagio [0:09:26.66]
06. No.2 in Bb, Op.19, 3. Rondo, Molto allegro [0:07:06.33]

Performers:
Claudio Arrau - piano
Staatskapelle Dresden
Sir Colin Davis - conductor

Exact Audio Copy V1.0 beta 3 from 29. August 2011

Journal d'extraction EAC depuis 24. Octobre 2012, 20:34

Beethoven / Piano Concertos Nos. 1 & 2 (Claudio Arrau, Piano)

Lecteur utilisé : HL-DT-STDVD-RW_GSA-H11N Adapter: 0 ID: 0

Mode lecture : : Vérouiller
Utiliser flux précis : Oui
Vider le cache audio : Non
Utiliser les pointeurs C2 : Oui

Correction offset écriture : : 667
Lecture étendue en lead-in et lead-out : Non
Remplacer les samples manquants par du silence : Oui
Effacer les blocs silencieux situés en début et fin : Non
Échantillons null utilisés dans les calculs CRC : Oui
Interface utilisée : Interface native Win32 pour Win NT & 2000

Format de sortie utilisé : : Encodeur défini par l'utilisateur
Débit choisi : 768 kBit/s
Qualité : Haut
Ajouter ID3 tag : Non
Ligne de commande du compresseur : C:\Program Files\Exact Audio Copy\FLAC\FLAC.EXE
Options de commande additionnelle : : -6 -V -T "ARTIST=%artist%" -T "TITLE=%title%" -T "ALBUM=%albumtitle%" -T "DATE=%year%" -T "TRACKNUMBER=%tracknr%" -T "GENRE=%genre%" -T "COMMENT=%comment%" -T "BAND=%albuminterpret%" -T "ALBUMARTIST=%albuminterpret%" -T "COMPOSER=%composer%" %haslyrics%–tag-from-file=LYRICS="%lyricsfile%"%haslyrics% -T "DISCNUMBER=%cdnumber%" -T "TOTALDISCS=%totalcds%" -T "TOTALTRACKS=%numtracks%" %hascover%–picture="%coverfile%"%hascover% %source% -o %dest%


TOC du CD extrait

Track | Démarrer | Longueur | Secteur de début | Secteur de fin
––––––––––––––––––––––––––––––––-
1 | 0:00.33 | 17:47.00 | 33 | 80057
2 | 17:47.33 | 11:07.00 | 80058 | 130082
3 | 28:54.33 | 9:52.00 | 130083 | 174482
4 | 38:46.33 | 15:14.00 | 174483 | 243032
5 | 54:00.33 | 9:26.50 | 243033 | 285532
6 | 63:27.08 | 7:06.25 | 285533 | 317507


Propriétés États et Erreurs

Gammes sélectionnées

Nom fichier G:\MUSIQUE S 2\ZZZ-MES_RIPS\Beethoven - Piano Concertos Nos. 1 & 2 (Claudio Arrau, Piano).wav

Niveau max 94.4 %
Vitesse d'extraction 7.1 X
qualité intervalle 100.0 %
Copie CRC 42191274
Copie Ok

Pas d'erreur apparue


Résumé AccurateRip

Piste 1 extrait avec exactitude (confiance 6) [FEE35BF1] (AR v2)
Piste 2 extrait avec exactitude (confiance 6) [39C03397] (AR v2)
Piste 3 extrait avec exactitude (confiance 6) [8DF517CD] (AR v2)
Piste 4 extrait avec exactitude (confiance 6) [CFDCBC1E] (AR v2)
Piste 5 extrait avec exactitude (confiance 5) [6DEA2F49] (AR v2)
Piste 6 extrait avec exactitude (confiance 5) [39A2C583] (AR v2)

Toutes pistes extraites exactement

Fin du rapport d'état

Thanks to the Original ripper (unknown)!

Welcome to my blog!

Download: