Subcategories
Tags
Language
Tags

Coil - ANS [3CD Box Set] (2004)

Posted By: gribovar
Coil - ANS [3CD Box Set] (2004)

Coil - ANS [3CD Box Set] (2004)
EAC Rip | FLAC (image+.cue+log) - 832 MB | MP3 CBR 320 kbps (LAME 3.93) - 453 MB | Covers - 14 MB
Genre: Ambient, Minimal, Experimental | RAR 3% Rec. | Label: Threshold House (THRESHOLD1)

ANS is a box set by Coil. The album uses a strange and esoteric photoelectric synthesizer known as the ANS synthesizer. It was built around half a century ago and still to this day sits where it was originally conceived; in the Moscow State University.
CD 1 Tracklist:
01. Untitled
02. Untitled
03. Untitled

Total time: 01:16:12

CD 2 Tracklist:
01. Untitled
02. Untitled

Total time: 56:40

CD 3 Tracklist:
01. Untitled
02. Untitled

Total time: 01:00:10

Exact Audio Copy V0.99 prebeta 4 from 23. January 2008

EAC extraction logfile from 31. March 2011, 18:21

Coil / Ans

Used drive : _NEC DVD_RW ND-4570A Adapter: 1 ID: 0

Read mode : Secure
Utilize accurate stream : Yes
Defeat audio cache : Yes
Make use of C2 pointers : No

Read offset correction : 48
Overread into Lead-In and Lead-Out : No
Fill up missing offset samples with silence : Yes
Delete leading and trailing silent blocks : No
Null samples used in CRC calculations : Yes
Used interface : Native Win32 interface for Win NT & 2000

Used output format : User Defined Encoder
Selected bitrate : 1024 kBit/s
Quality : High
Add ID3 tag : No
Command line compressor : D:\Program Files\Exact Audio Copy\FLAC\FLAC.EXE
Additional command line options : -6 -V -T "ARTIST=%a" -T "TITLE=%t" -T "ALBUM=%g" -T "DATE=%y" -T "TRACKNUMBER=%n" -T "GENRE=%m" -T "COMMENT=%e" %s -o %d


TOC of the extracted CD

Track | Start | Length | Start sector | End sector
––––––––––––––––––––––––––––-
1 | 0:00.00 | 20:54.72 | 0 | 94121
2 | 20:54.72 | 25:38.00 | 94122 | 209471
3 | 46:32.72 | 29:39.03 | 209472 | 342899


Range status and errors

Selected range

Filename E:\ANS\CD 1\Coil - Ans.wav

Peak level 100.0 %
Range quality 100.0 %
Test CRC 376B386A
Copy CRC 376B386A
Copy OK

No errors occurred


AccurateRip summary

Track 1 accurately ripped (confidence 7) [725CB77C]
Track 2 accurately ripped (confidence 7) [27A2AC2C]
Track 3 accurately ripped (confidence 7) [0E1364E3]

All tracks accurately ripped

End of status report

[CUETools log; Date: 22.07.2021 0:44:04; Version: 2.1.4]
[CTDB TOCID: GLnb4VpCiImcPSNGoUAMt3Atq98-] found.
Track | CTDB Status
1 | (12/12) Accurately ripped
2 | (12/12) Accurately ripped
3 | (12/12) Accurately ripped
[AccurateRip ID: 0009dd5e-002163e5-2611dc03] found.
Track [ CRC | V2 ] Status
01 [725cb77c|93966e44] (07+04/25) Accurately ripped
02 [27a2ac2c|a2eb7571] (07+04/22) Accurately ripped
03 [0e1364e3|8ee6e51c] (07+04/24) Accurately ripped
Offsetted by -664:
01 [b5886d6b] (04/25) Accurately ripped
02 [0c286684] (04/22) Accurately ripped
03 [b62a8ef7] (03/24) Accurately ripped
Offsetted by -17:
01 [1b5e89fe] (02/25) Accurately ripped
02 [83d8fce5] (00/22) No match (V2 was not tested)
03 [096170b1] (02/24) Accurately ripped

Track Peak [ CRC32 ] [W/O NULL] [ LOG ]
– 100,0 [376B386A] [262EE17C] CRC32
01 100,0 [54AE5D06] [05EE6645]
02 100,0 [D2C918B7] [E900E635]
03 100,0 [65382AA4] [924A2485]

Exact Audio Copy V0.99 prebeta 4 from 23. January 2008

EAC extraction logfile from 31. March 2011, 18:39

Coil / COILANS CD-B

Used drive : _NEC DVD_RW ND-4570A Adapter: 1 ID: 0

Read mode : Secure
Utilize accurate stream : Yes
Defeat audio cache : Yes
Make use of C2 pointers : No

Read offset correction : 48
Overread into Lead-In and Lead-Out : No
Fill up missing offset samples with silence : Yes
Delete leading and trailing silent blocks : No
Null samples used in CRC calculations : Yes
Used interface : Native Win32 interface for Win NT & 2000

Used output format : User Defined Encoder
Selected bitrate : 1024 kBit/s
Quality : High
Add ID3 tag : No
Command line compressor : D:\Program Files\Exact Audio Copy\FLAC\FLAC.EXE
Additional command line options : -6 -V -T "ARTIST=%a" -T "TITLE=%t" -T "ALBUM=%g" -T "DATE=%y" -T "TRACKNUMBER=%n" -T "GENRE=%m" -T "COMMENT=%e" %s -o %d


TOC of the extracted CD

Track | Start | Length | Start sector | End sector
––––––––––––––––––––––––––––-
1 | 0:00.00 | 26:22.00 | 0 | 118649
2 | 26:22.00 | 30:18.00 | 118650 | 254999


Range status and errors

Selected range

Filename E:\ANS\CD 2\Coil - COILANS CD-B.wav

Peak level 94.4 %
Range quality 99.9 %
Test CRC 053F7DD6
Copy CRC 053F7DD6
Copy OK

No errors occurred


AccurateRip summary

Track 1 accurately ripped (confidence 7) [34C873AA]
Track 2 accurately ripped (confidence 7) [EA9211BF]

All tracks accurately ripped

End of status report

[CUETools log; Date: 22.07.2021 0:45:39; Version: 2.1.4]
[CTDB TOCID: 8rtyvuhaZD9uHrKJLb1gZl2VFT0-] found.
Track | CTDB Status
1 | (12/13) Accurately ripped
2 | (12/13) Accurately ripped
[AccurateRip ID: 0005b392-000f4b3d-140d4802] found.
Track [ CRC | V2 ] Status
01 [34c873aa|c54377a4] (07+04/17) Accurately ripped
02 [ea9211bf|0f65a9b3] (07+04/17) Accurately ripped
Offsetted by -664:
01 [58ea556a] (03/17) Accurately ripped
02 [e272b437] (03/17) Accurately ripped

Track Peak [ CRC32 ] [W/O NULL] [ LOG ]
– 94,4 [053F7DD6] [6EB0CB0D] CRC32
01 94,4 [4BA39BC7] [4E27DBFD]
02 94,4 [74D46F3E] [32FF707B]

Exact Audio Copy V0.99 prebeta 4 from 23. January 2008

EAC extraction logfile from 31. March 2011, 18:57

Coil / COILANS CD-C

Used drive : _NEC DVD_RW ND-4570A Adapter: 1 ID: 0

Read mode : Secure
Utilize accurate stream : Yes
Defeat audio cache : Yes
Make use of C2 pointers : No

Read offset correction : 48
Overread into Lead-In and Lead-Out : No
Fill up missing offset samples with silence : Yes
Delete leading and trailing silent blocks : No
Null samples used in CRC calculations : Yes
Used interface : Native Win32 interface for Win NT & 2000

Used output format : User Defined Encoder
Selected bitrate : 1024 kBit/s
Quality : High
Add ID3 tag : No
Command line compressor : D:\Program Files\Exact Audio Copy\FLAC\FLAC.EXE
Additional command line options : -6 -V -T "ARTIST=%a" -T "TITLE=%t" -T "ALBUM=%g" -T "DATE=%y" -T "TRACKNUMBER=%n" -T "GENRE=%m" -T "COMMENT=%e" %s -o %d


TOC of the extracted CD

Track | Start | Length | Start sector | End sector
––––––––––––––––––––––––––––-
1 | 0:00.00 | 28:04.00 | 0 | 126299
2 | 28:04.00 | 32:06.00 | 126300 | 270749


Range status and errors

Selected range

Filename E:\ANS\CD 3\Coil - COILANS CD-C.wav

Peak level 94.4 %
Range quality 100.0 %
Test CRC 0D29B881
Copy CRC 0D29B881
Copy OK

No errors occurred


AccurateRip summary

Track 1 accurately ripped (confidence 7) [1E1E7361]
Track 2 accurately ripped (confidence 7) [BE866828]

All tracks accurately ripped

End of status report

[CUETools log; Date: 22.07.2021 0:47:02; Version: 2.1.4]
[CTDB TOCID: bP15jas94jfiMvrASc04O5RouhA-] found.
Track | CTDB Status
1 | (12/12) Accurately ripped
2 | (11/12) Accurately ripped
[AccurateRip ID: 00060efa-00103f93-170e1a02] found.
Track [ CRC | V2 ] Status
01 [1e1e7361|91dc7b6b] (07+04/18) Accurately ripped
02 [be866828|18202e96] (07+04/18) Accurately ripped
Offsetted by -796:
01 [8a611189] (04/18) Accurately ripped
02 [1a3eebb4] (04/18) Accurately ripped

Track Peak [ CRC32 ] [W/O NULL] [ LOG ]
– 94,4 [0D29B881] [DE8793E2] CRC32
01 94,4 [F390C24E] [23380924]
02 94,4 [60D1C817] [E30CFAFF]

Thanks to unbalance

See also:
Coil - Musick to Play in the Dark Vol. 1-2 (1999-2000)
Coil - The Remote Viewer (2002) [2CD Reissue 2006]
Coil - Moon's Milk (In Four Phases) (2002)
Coil - The New Backwards (2008)