Subcategories
Tags
Language
Tags

Commodores - Nightshift (1985) {Motown}

Posted By: tiburon
Commodores - Nightshift (1985) {Motown}

Commodores - Nightshift (1985) {Motown}
EAC 0.99pb5 | FLAC tracks level 8 | Cue+Log+M3U | Full Scans 300dpi | 270MB + 5% Recovery
MP3 CBR 320 Kbps | 103MB + 5% Recovery
Genre: Funk, Soul

The Commodores made one final stab at regaining R&B glory when Lionel Richie and producer/arranger James Anthony Carmichael both left in the mid-'80s. J.D. Nicholas became their lead singer, and Dennis Lambert assumed production duties. They rebounded temporarily, when "Nightshift" leaped out of an otherwise ordinary album to become a Grammy-winning R&B and pop smash. It stayed atop the R&B charts for a month, and peaked at #3 on the pop chart. Unfortunately, it was also the end for Thomas McClary, who left the group once the album had run its course. It was their next-to-last hit, and basically the end for the band, although they continued for a couple more years.
Track List
01. Animal Instinct (4:49)
02. Nightshift (5:03)
03. I Keep Running (4:11)
04. Lay Back (5:02)
05. Slip Of The Tongue (3:53)
06. Play This Record Twice (4:26)
07. Janet (3:42)
08. The Woman In My Life (3:39)
09. Lightin' Up The Night (4:05)

musicians
Backing Vocals – Ambrose Price, Darryl Phinnessee, David Swanson, Dennis Lambert, Doris Garrett, Gregory Alexander, Patricia Hamlin, Phillip Ingram, Sheldon Reynolds, Siedah Garrett, Tracee Augcomfar
Bass – "Ready" Freddie Washington*, Neil Stubenhaus
Bass, Backing Vocals – Ronald LaPread
Drums – John Robinson (2), Vinnie Coliuta
Drums, Lead Vocals, Backing Vocals – Walter "Clyde" Orange
Guitar – Peter Maunu
Guitar, Synthesizer, Programmed By [Bass, Drums] – Paul M. Jackson Jr.
Keyboards – Milan Williams
Keyboards, Backing Vocals – William "Wak" King
Keyboards, Synthesizer, Programmed By [Bass, Drums] – Peter Wolf (3)
Lead Vocals, Backing Vocals – J.D. Nicholas
Percussion – Paulinho da Costa
Producer, Synthesizer, Percussion, Arranged By [Backing Vocals] – Dennis Lambert
Saxophone – Gary Herbig, Larry Williams
Synthesizer – Harold Hudson
Synthesizer, Programmed By [Bass, Drums] – Jeff Lorber, Paul Fox
Trumpet, Flugelhorn – Gary Grant, Jerry Hey

Produced by Dennis Lambert


Exact Audio Copy V0.99 prebeta 5 from 4. May 2009

EAC extraction logfile from 27. November 2009, 11:04

Commodores / Nightshift

Used drive : TSSTcorpCDDVDW SH-S223F Adapter: 0 ID: 1

Read mode : Secure
Utilize accurate stream : Yes
Defeat audio cache : Yes
Make use of C2 pointers : No

Read offset correction : 6
Overread into Lead-In and Lead-Out : No
Fill up missing offset samples with silence : Yes
Delete leading and trailing silent blocks : No
Null samples used in CRC calculations : Yes
Used interface : Native Win32 interface for Win NT & 2000
Gap handling : Appended to previous track

Used output format : Internal WAV Routines
Sample format : 44.100 Hz; 16 Bit; Stereo


TOC of the extracted CD

Track | Start | Length | Start sector | End sector
––––––––––––––––––––––––––––-
1 | 0:00.00 | 4:49.45 | 0 | 21719
2 | 4:49.45 | 5:06.42 | 21720 | 44711
3 | 9:56.12 | 4:12.61 | 44712 | 63672
4 | 14:08.73 | 5:02.54 | 63673 | 86376
5 | 19:11.52 | 3:53.60 | 86377 | 103911
6 | 23:05.37 | 4:26.35 | 103912 | 123896
7 | 27:31.72 | 3:42.50 | 123897 | 140596
8 | 31:14.47 | 3:38.67 | 140597 | 157013
9 | 34:53.39 | 4:05.33 | 157014 | 175421


Track 1

Filename H:\Eac Ripps\01. Animal Instinct.wav

Pre-gap length 0:00:02.00

Peak level 98.8 %
Track quality 100.0 %
Test CRC 1215A464
Copy CRC 1215A464
Track not present in AccurateRip database
Copy OK

Track 2

Filename H:\Eac Ripps\02. Nighshift.wav

Peak level 98.8 %
Track quality 100.0 %
Test CRC AA225A49
Copy CRC AA225A49
Track not present in AccurateRip database
Copy OK

Track 3

Filename H:\Eac Ripps\03. I Keep Running.wav

Peak level 98.8 %
Track quality 100.0 %
Test CRC 56CD0D90
Copy CRC 56CD0D90
Track not present in AccurateRip database
Copy OK

Track 4

Filename H:\Eac Ripps\04. Lay Back.wav

Peak level 98.8 %
Track quality 100.0 %
Test CRC 38D9AFD3
Copy CRC 38D9AFD3
Track not present in AccurateRip database
Copy OK

Track 5

Filename H:\Eac Ripps\05. Slip Of The Tongue.wav

Peak level 98.8 %
Track quality 100.0 %
Test CRC 2499C155
Copy CRC 2499C155
Track not present in AccurateRip database
Copy OK

Track 6

Filename H:\Eac Ripps\06. Play This Record Twice.wav

Peak level 98.8 %
Track quality 100.0 %
Test CRC D859BEFC
Copy CRC D859BEFC
Track not present in AccurateRip database
Copy OK

Track 7

Filename H:\Eac Ripps\07. Janet.wav

Peak level 98.8 %
Track quality 100.0 %
Test CRC 14131463
Copy CRC 14131463
Track not present in AccurateRip database
Copy OK

Track 8

Filename H:\Eac Ripps\08. The Woman In My Life.wav

Peak level 98.8 %
Track quality 100.0 %
Test CRC 77E3EAE6
Copy CRC 77E3EAE6
Track not present in AccurateRip database
Copy OK

Track 9

Filename H:\Eac Ripps\09. Lightin' Up The Night.wav

Peak level 98.8 %
Track quality 100.0 %
Test CRC 1A2EF966
Copy CRC 1A2EF966
Track not present in AccurateRip database
Copy OK


None of the tracks are present in the AccurateRip database

No errors occurred

End of status report

Commodores - Nightshift (1985) {Motown}
Commodores - Nightshift (1985) {Motown}


Thanks to the original ripper