Tags
Language
Tags

Connie Hawkins And The Blueswreckers - Wired Up And Fired Up (2013)

Posted By: popsakov
Connie Hawkins And The Blueswreckers - Wired Up And Fired Up (2013)

Connie Hawkins And The Blueswreckers - Wired Up And Fired Up (2013)
EAC Rip | FLAC (Img) + Cue + Log ~ 387 Mb | MP3 CBR320 ~ 148 Mb
Scans Included | RAR 5% Recovery
Electric Blues | Steve Hawkins / Connie Hawkins And The Blueswreckers #884501906500

Connie Hawkins and the BluesWreckers have been a Kansas City staple for the last seventeen years… the current lineup may be the best yet.. all very experienced "old school" musicians of a unique blend and energy… a fiery Red-Head on vocals with some of the very top Kansas City players… we're not just Blues we're hi-energy Red-Headed Rhythm and Blues with table dancing original music along with great Blues covers…
Connie Hawkins And The Blueswreckers - Wired Up And Fired Up (2013)

Track List:

01. Narrow Road [05:34]
02. Mad At You Baby [04:15]
03. Too Cool For The Room [02:46]
04. Bad Intentions [05:26]
05. Blues In My Life [05:26]
06. Short Loving Man [05:07]
07. Not Trustworthy [04:02]
08. Don't Miss The Water [04:24]
09. Some Things Have Got To Change [03:19]
10. Who's Loving You [04:50]

Exact Audio Copy V1.0 beta 3 from 29. August 2011

Отчёт EAC об извлечении, выполненном 24. августа 2013, 7:44

Connie Hawkins and the BluesWreckers / Wired Up And Fired Up

Дисковод: PLEXTOR DVDR PX-880SA Adapter: 1 ID: 0

Режим чтения : Достоверность
Использование точного потока : Да
Отключение кэша аудио : Да
Использование указателей C2 : Нет

Коррекция смещения при чтении : 6
Способность читать области Lead-in и Lead-out : Нет
Заполнение пропущенных сэмплов тишиной : Да
Удаление блоков с тишиной в начале и конце : Нет
При вычислениях CRC использовались нулевые сэмплы : Да
Интерфейс : Установленный внешний ASPI-интерфейс

Выходной формат : Пользовательский кодировщик
Выбранный битрейт : 1024 kBit/s
Качество : Высокий
Добавление ID3-тега : Нет
Утилита сжатия : C:\Program Files\Exact Audio Copy\FLAC\FLAC.EXE
Дополнительные параметры : -10 -V -T "ARTIST=%artist%" -T "TITLE=%title%" -T "ALBUM=%albumtitle%" -T "DATE=%year%" -T "TRACKNUMBER=%tracknr%" -T "GENRE=%genre%" -T "COMMENT=%comment%" -T "BAND=%albuminterpret%" -T "ALBUMARTIST=%albuminterpret%" -T "COMPOSER=%composer%" %haslyrics%–tag-from-file=LYRICS="%lyricsfile%"%haslyrics% -T "DISCNUMBER=%cdnumber%" -T "TOTALDISCS=%totalcds%" -T "TOTALTRACKS=%numtracks%" %hascover%–picture="%coverfile%"%hascover% %source% -o %dest%


TOC извлечённого CD

Трек | Старт | Длительность | Начальный сектор | Конечный сектор
––––––––––––––––––––––––––––––––––-
1 | 0:00.00 | 5:35.22 | 0 | 25146
2 | 5:35.22 | 4:14.64 | 25147 | 44260
3 | 9:50.11 | 2:46.34 | 44261 | 56744
4 | 12:36.45 | 5:26.26 | 56745 | 81220
5 | 18:02.71 | 5:25.59 | 81221 | 105654
6 | 23:28.55 | 5:06.36 | 105655 | 128640
7 | 28:35.16 | 4:02.62 | 128641 | 146852
8 | 32:38.03 | 4:24.08 | 146853 | 166660
9 | 37:02.11 | 3:18.51 | 166661 | 181561
10 | 40:20.62 | 4:49.02 | 181562 | 203238


Характеристики диапазона извлечения и сообщения об ошибках

Выбранный диапазон

Имя файла D:\BitComet\Connie Hawkins and the Blueswreckers - Wired Up and Fired Up(2013)(flac)\Connie Hawkins and the BluesWreckers - Wired Up And Fired Up.wav

Пиковый уровень 97.7 %
Скорость извлечения 4.4 X
Качество диапазона 100.0 %
CRC теста 21512DB9
CRC копии 21512DB9
Копирование… OK

Ошибок не произошло


AccurateRip: сводка

Трек 1 отсутствует в базе данных
Трек 2 отсутствует в базе данных
Трек 3 отсутствует в базе данных
Трек 4 отсутствует в базе данных
Трек 5 отсутствует в базе данных
Трек 6 отсутствует в базе данных
Трек 7 отсутствует в базе данных
Трек 8 отсутствует в базе данных
Трек 9 отсутствует в базе данных
Трек 10 отсутствует в базе данных

Ни одного трека нет в базе AccurateRip

Конец отчёта

==== Контрольная сумма отчёта 70A9C8E44484101005D9148D5526DF6568ECBF6B8754F39814BBEC7232F10748 ====

foobar2000 1.2.3 / Dynamic Range Meter 1.1.1
log date: 2013-09-21 17:27:33

––––––––––––––––––––––––––––––––––––––––
Analyzed: Connie Hawkins and the BluesWreckers / Wired Up And Fired Up
––––––––––––––––––––––––––––––––––––––––

DR Peak RMS Duration Track
––––––––––––––––––––––––––––––––––––––––
DR9 -0.20 dB -11.27 dB 5:35 01-Narrow Road
DR11 -0.20 dB -12.60 dB 4:15 02-Mad At You Baby
DR9 -0.20 dB -10.39 dB 2:46 03-Too Cool For The Room
DR9 -0.20 dB -11.08 dB 5:26 04-Bad Intentions
DR9 -0.20 dB -11.20 dB 5:26 05-Blues In My Life
DR10 -0.20 dB -11.88 dB 5:06 06-Short Loving Man
DR9 -0.20 dB -11.39 dB 4:03 07-Not Trustworthy
DR10 -0.20 dB -11.64 dB 4:24 08-Don't Miss The Water
DR9 -0.20 dB -10.12 dB 3:19 09-Some Things Have Got To Change
DR9 -0.20 dB -11.30 dB 4:49 10-Who's Loving You
––––––––––––––––––––––––––––––––––––––––

Number of tracks: 10
Official DR value: DR9

Samplerate: 44100 Hz
Channels: 2
Bits per sample: 16
Bitrate: 1024 kbps
Codec: FLAC
================================================================================

Connie Hawkins And The Blueswreckers - Wired Up And Fired Up (2013)

All thanks go to izia1956

>>> My Blog <<<

Download from icerbox.com: