Subcategories

Cowboy Junkies - The Trinity Session (1988) [Analogue Productions, Remastered 2016] Re-Up

Posted By: Designol
Cowboy Junkies - The Trinity Session (1988) [Analogue Productions, Remastered 2016] Re-Up

Cowboy Junkies - The Trinity Session (1988) [Remastered 2016]
Re-Mastered by Cowboy Junkies and Peter Moore from Original Session Tapes
EAC | FLAC | Tracks (Cue&Log) ~ 331 Mb | Mp3 (CBR320) ~ 136 Mb | Scans included | 00:53:09
Alternative Country, Country Rock, Folk Rock | Label: Analogue Productions | # CAPP 072 SA

Who says you can't make a great record in one day – or night, as the case may be? The Trinity Session was recorded in one night using one microphone, a DAT recorder, and the wonderful acoustics of the Holy Trinity in Toronto. Interestingly, it's the album that broke the Cowboy Junkies in the United States for their version of "Sweet Jane," which included the lost verse. It's far from the best cut here, though. There are other covers, such as Margo Timmins' a cappella read of the traditional "Mining for Gold," a heroin-slow version of Hank Williams' classic "I'm So Lonesome I Could Cry," "Dreaming My Dreams With You" (canonized by Waylon Jennings), and a radical take of the Patsy Cline classic "Walkin' After Midnight" that closes the disc. Those few who had heard the band's previous album, Whites Off Earth Now!!, were aware that, along with Low, the Cowboy Junkies were the only band at the time capable of playing slower than Neil Young and Crazy Horse – and without the ear-threatening volume. The Timmins family – Margo, guitarist and songwriter Michael, drummer Peter, and backing vocalist and guitarist John – along with bassist Alan Anton and a few pals playing pedal steel, accordion, and harmonica, paced everything to crawl.

That said, it works in that every song has its own texture, slowly and deliberately unfolding from blues and country and drones. An example is the Michael and Margo song "I Don't Get It," ushered in with a few drawling guitar lines, a spooky harmonica, and brushed drums. Margo Timmins doesn't have a large range and doesn't need it as she scratches each song's surface like an itch until it bleeds its truth. This is also true on "Misguided Angel," another original where the verses become nearly a round alternating between her voice and Michael's snaky spare guitar lines to fill an almost unimaginable space. The Williams tune becomes a dirge in the Cowboys' hands. It's a funeral song, or an elegy for one who has dragged herself so far into the oblivion of isolation that there is no place left to go but home. Michael's guitar moves around the changes as bassist Anton plays them; he colors the space allowing for Margo to fill the melodic space spot-on, yet stretching each syllable out to the breaking point. For most, this was the Cowboy Junkies' debut – Whites Off Earth Now!! was re-released in the States a few years later – and it established them firmly in the forefront of the "alternative" scene with radio and MTV. As an album, it's still remarkable at how timeless it sounds, and its beauty is – in stark contrast to its presentation – voluminous and rich, perhaps even eternal.

Review by Thom Jurek, Allmusic.com

Cowboy Junkies - The Trinity Session (1988) [Analogue Productions, Remastered 2016] Re-Up



Tracklist:

01. Mining for Gold (1:31)
02. Misguided Angel (4:57)
03. Blue Moon Revisited (Song for Elvis) (4:31)
04. I Don't Get It (4:34)
05. I'm So Lonesome I Could Cry (5:28)
06. To Love Is to Bury (5:16)
07. 200 More Miles (5:29)
08. Dreaming My Dreams with You (4:30)
09. Working on a Building (3:46)
10. Sweet Jane (3:39)
11. Postcard Blues (3:23)
12. Walking After Midnight (6:06)


Exact Audio Copy V1.3 from 2. September 2016

EAC extraction logfile from 1. April 2017, 18:27

Cowboy Junkies / The Trinity Session (2016 AP)

Used drive : ATAPI iHAS124 E Adapter: 1 ID: 0

Read mode : Secure
Utilize accurate stream : Yes
Defeat audio cache : Yes
Make use of C2 pointers : No

Read offset correction : 6
Overread into Lead-In and Lead-Out : No
Fill up missing offset samples with silence : Yes
Delete leading and trailing silent blocks : No
Null samples used in CRC calculations : Yes
Used interface : Native Win32 interface for Win NT & 2000
Gap handling : Appended to previous track

Used output format : User Defined Encoder
Selected bitrate : 768 kBit/s
Quality : High
Add ID3 tag : No
Command line compressor : C:\Program Files (x86)\Exact Audio Copy\FLAC\FLAC.EXE
Additional command line options : -6 -e -p -V -T "ARTIST=%artist%" -T "TITLE=%title%" -T "ALBUM=%albumtitle%" -T "DATE=%year%" -T "TRACKNUMBER=%tracknr%" -T "GENRE=%genre%" -T "PERFORMER=%albuminterpret%" -T "COMPOSER=%composer%" %haslyrics%–tag-from-file=LYRICS="%lyricsfile%"%haslyrics% -T "ALBUMARTIST=%albumartist%" -T "DISCNUMBER=%cdnumber%" -T "TOTALDISCS=%totalcds%" -T "TOTALTRACKS=%numtracks%" -T "COMMENT=%comment%" %source% -o %dest%


TOC of the extracted CD

Track | Start | Length | Start sector | End sector
––––––––––––––––––––––––––––-
1 | 0:00.00 | 1:30.68 | 0 | 6817
2 | 1:30.68 | 4:56.46 | 6818 | 29063
3 | 6:27.39 | 4:30.63 | 29064 | 49376
4 | 10:58.27 | 4:34.06 | 49377 | 69932
5 | 15:32.33 | 5:27.42 | 69933 | 94499
6 | 21:00.00 | 5:15.56 | 94500 | 118180
7 | 26:15.56 | 5:29.24 | 118181 | 142879
8 | 31:45.05 | 4:30.16 | 142880 | 163145
9 | 36:15.21 | 3:46.33 | 163146 | 180128
10 | 40:01.54 | 3:38.45 | 180129 | 196523
11 | 43:40.24 | 3:23.13 | 196524 | 211761
12 | 47:03.37 | 6:05.68 | 211762 | 239204


Track 1

Filename C:\tmp\00_RIPS\01 - Mining For Gold.wav

Pre-gap length 0:00:02.00

Peak level 73.9 %
Extraction speed 1.7 X
Track quality 100.0 %
Test CRC 39EA8809
Copy CRC 39EA8809
Accurately ripped (confidence 1) [B8A9513F] (AR v2)
Copy OK

Track 2

Filename C:\tmp\00_RIPS\02 - Misguided Angel.wav

Peak level 87.9 %
Extraction speed 2.3 X
Track quality 100.0 %
Test CRC AFA05122
Copy CRC AFA05122
Accurately ripped (confidence 1) [592A60FA] (AR v2)
Copy OK

Track 3

Filename C:\tmp\00_RIPS\03 - Blue Moon Revisited (Song for Elvis).wav

Peak level 83.0 %
Extraction speed 2.5 X
Track quality 100.0 %
Test CRC 6163EFE0
Copy CRC 6163EFE0
Accurately ripped (confidence 1) [5EA16476] (AR v2)
Copy OK

Track 4

Filename C:\tmp\00_RIPS\04 - I Don't Get It.wav

Peak level 95.2 %
Extraction speed 2.7 X
Track quality 100.0 %
Test CRC 91CA4FDD
Copy CRC 91CA4FDD
Accurately ripped (confidence 1) [19BEE391] (AR v2)
Copy OK

Track 5

Filename C:\tmp\00_RIPS\05 - I'm So Lonesome I Could Cry.wav

Peak level 84.7 %
Extraction speed 3.0 X
Track quality 100.0 %
Test CRC 1D76942A
Copy CRC 1D76942A
Accurately ripped (confidence 1) [5663A199] (AR v2)
Copy OK

Track 6

Filename C:\tmp\00_RIPS\06 - To Love Is to Bury.wav

Peak level 93.8 %
Extraction speed 2.9 X
Track quality 99.9 %
Test CRC 87225EDB
Copy CRC 87225EDB
Accurately ripped (confidence 1) [B52B6869] (AR v2)
Copy OK

Track 7

Filename C:\tmp\00_RIPS\07 - 200 More Miles.wav

Peak level 91.3 %
Extraction speed 3.1 X
Track quality 99.9 %
Test CRC EDE072DD
Copy CRC EDE072DD
Accurately ripped (confidence 1) [B67CB8C3] (AR v2)
Copy OK

Track 8

Filename C:\tmp\00_RIPS\08 - Dreaming My Dreams With You.wav

Peak level 79.2 %
Extraction speed 3.1 X
Track quality 99.9 %
Test CRC 0B0DCC4D
Copy CRC 0B0DCC4D
Accurately ripped (confidence 1) [030A3640] (AR v2)
Copy OK

Track 9

Filename C:\tmp\00_RIPS\09 - Working On A Building.wav

Peak level 89.1 %
Extraction speed 3.5 X
Track quality 100.0 %
Test CRC 64327FA9
Copy CRC 64327FA9
Accurately ripped (confidence 1) [422863AA] (AR v2)
Copy OK

Track 10

Filename C:\tmp\00_RIPS\10 - Sweet Jane.wav

Peak level 84.2 %
Extraction speed 3.6 X
Track quality 100.0 %
Test CRC 79A9C2CC
Copy CRC 79A9C2CC
Accurately ripped (confidence 1) [1278EBA0] (AR v2)
Copy OK

Track 11

Filename C:\tmp\00_RIPS\11 - Postcard Blues.wav

Peak level 86.7 %
Extraction speed 3.2 X
Track quality 99.9 %
Test CRC 9361A499
Copy CRC 9361A499
Accurately ripped (confidence 1) [E34573AE] (AR v2)
Copy OK

Track 12

Filename C:\tmp\00_RIPS\12 - Walking After Midnight.wav

Peak level 89.0 %
Extraction speed 4.1 X
Track quality 100.0 %
Test CRC C4C92758
Copy CRC C4C92758
Accurately ripped (confidence 1) [399EE2A4] (AR v2)
Copy OK


All tracks accurately ripped

No errors occurred

End of status report

–– CUETools DB Plugin V2.1.6

[CTDB TOCID: YoaqJNyzSDiPuEYLQtxj6lCdrMo-] found
Submit result: YoaqJNyzSDiPuEYLQtxj6lCdrMo- has been confirmed
Track | CTDB Status
1 | (8/8) Accurately ripped
2 | (8/8) Accurately ripped
3 | (8/8) Accurately ripped
4 | (8/8) Accurately ripped
5 | (8/8) Accurately ripped
6 | (8/8) Accurately ripped
7 | (8/8) Accurately ripped
8 | (8/8) Accurately ripped
9 | (8/8) Accurately ripped
10 | (8/8) Accurately ripped
11 | (8/8) Accurately ripped
12 | (8/8) Accurately ripped


==== Log checksum C8C6D5E72DE863522D4055EE7F9D838FB4C39AA320FE986E2DB9BD10462075FD ====

foobar2000 1.2 / Dynamic Range Meter 1.1.1
log date: 2017-07-20 16:54:22

––––––––––––––––––––––––––––––––––––––––
Analyzed: Cowboy Junkies / The Trinity Session
––––––––––––––––––––––––––––––––––––––––

DR Peak RMS Duration Track
––––––––––––––––––––––––––––––––––––––––
DR12 -2.62 dB -17.71 dB 1:31 01-Mining for Gold
DR11 -1.12 dB -14.63 dB 4:57 02-Misguided Angel
DR10 -1.61 dB -14.06 dB 4:31 03-Blue Moon Revisited (Song for Elvis)
DR10 -0.43 dB -12.97 dB 4:34 04-I Don't Get It
DR10 -1.43 dB -14.06 dB 5:28 05-I'm So Lonesome I Could Cry
DR10 -0.55 dB -13.11 dB 5:16 06-To Love Is to Bury
DR11 -0.79 dB -15.49 dB 5:29 07-200 More Miles
DR11 -2.02 dB -14.59 dB 4:30 08-Dreaming My Dreams with You
DR11 -1.00 dB -14.98 dB 3:46 09-Working on a Building
DR10 -1.49 dB -14.18 dB 3:39 10-Sweet Jane
DR12 -1.24 dB -17.22 dB 3:23 11-Postcard Blues
DR10 -1.01 dB -14.18 dB 6:06 12-Walking After Midnight
––––––––––––––––––––––––––––––––––––––––

Number of tracks: 12
Official DR value: DR11

Samplerate: 44100 Hz
Channels: 2
Bits per sample: 16
Bitrate: 834 kbps
Codec: FLAC
================================================================================

Cowboy Junkies - The Trinity Session (1988) [Analogue Productions, Remastered 2016] Re-Up

Cowboy Junkies - The Trinity Session (1988) [Analogue Productions, Remastered 2016] Re-Up