Subcategories
Tags
Language
Tags

Cream - Fresh Cream (1966) [2001, Remastered, Japan]

Posted By: v3122
Cream - Fresh Cream (1966) [2001, Remastered, Japan]

Cream - Fresh Cream (1966)
EAC | Flac(Image) + Cue + Log & MP3 CBR 320Kbps
2001 | Universal International, UICY-9150 | ~ 254 or 97 Mb | Artwork(jpg) -> 9.36 Mb
Blues Rock

Fresh Cream represents so many different firsts, it's difficult to keep count. Cream, of course, was the first supergroup, but their first album not only gave birth to the power trio, it also was instrumental in the birth of heavy metal and the birth of jam rock. That's a lot of weight for one record and, like a lot of pioneering records, Fresh Cream doesn't seem quite as mighty as what would come later, both from the group and its acolytes. In retrospect, the moments on the LP that are a bit unformed – in particular, the halting waltz of "Dreaming" never achieves the sweet ethereal atmosphere it aspires to – stand out more than the innovations, which have been so thoroughly assimilated into the vocabulary of rock & roll, but Fresh Cream was a remarkable shift forward in rock upon its 1966 release and it remains quite potent. Certainly at this early stage the trio was still grounded heavily in blues, only fitting given guitarist Eric Clapton's stint in John Mayall's Bluesbreakers, which is where he first played with bassist Jack Bruce, but Cream never had the purist bent of Mayall, and not just because they dabbled heavily in psychedelia. The rhythm section of Bruce and Ginger Baker had a distinct jazzy bent to their beat; this isn't hard and pure, it's spongy and elastic, giving the musicians plenty of room to roam. This fluidity is most apparent on the blues covers that take up nearly half the record, especially on "Spoonful," where the swirling instrumental interplay, echo, fuzz tones, and overwhelming volume constitute true psychedelic music, and also points strongly toward the guitar worship of heavy metal. Almost all the second side of Fresh Cream is devoted to this, closing with Baker's showcase "Toad," but for as hard and restless as this half of the album is, there is some lightness on the first portion of the record where Bruce reveals himself as an inventive psychedelic pop songwriter with the tense, colorful "N.S.U." and the hook- and harmony-laden "I Feel Free." Cream shows as much force and mastery on these tighter, poppier tunes as they do on the free-flowing jams, yet they show a clear bias toward the long-form blues numbers, which makes sense: they formed to be able to pursue this freedom, which they do so without restraint. If at times that does make the album indulgent or lopsided, this is nevertheless where Cream was feeling their way forward, creating their heavy psychedelic jazz-blues and, in the process, opening the door to all kinds of serious rock music that may have happened without Fresh Cream, but it just would not have happened in the same fashion as it did with this record as precedent.

by Stephen Thomas Erlewine, allmusic
Cream - Fresh Cream (1966):

Cream - Fresh Cream (1966) [2001, Remastered, Japan]

Tracklist:

01 I Feel Free
02 N.S.U
03 Sleepy Time Time
04 Dreaming
05 Sweet Wine
06 Spoonful
07 Cat's Squirrel
08 Four Until Late
09 Rollin' And Tumblin'
10 I'm So Glad
11 Toad

Exact Audio Copy V0.99 prebeta 5 from 4. May 2009

Отчёт EAC об извлечении, выполненном 6. июля 2009, 18:19

Cream / Fresh Cream

Дисковод: Optiarc DVD RW AD-7203A Adapter: 1 ID: 0

Режим чтения : Достоверность
Использование точного потока : Да
Отключение кэша аудио : Да
Использование указателей C2 : Нет

Коррекция смещения при чтении : 48
Способность читать области Lead-in и Lead-out : Нет
Заполнение пропущенных сэмплов тишиной : Да
Удаление блоков с тишиной в начале и конце : Нет
При вычислениях CRC использовались нулевые сэмплы : Да
Интерфейс : Встроенный Win32-интерфейс для Win NT/2000

Выходной формат : Внутренние WAV-операции
Формат сэмплов : 44.100 Гц; 16 бит; стерео


TOC извлечённого CD

Трек | Старт | Длительность | Начальный сектор | Конечный сектор
––––––––––––––––––––––––––––––––––-
1 | 0:00.00 | 2:53.23 | 0 | 12997
2 | 2:53.23 | 2:47.62 | 12998 | 25584
3 | 5:41.10 | 4:22.38 | 25585 | 45272
4 | 10:03.48 | 2:01.15 | 45273 | 54362
5 | 12:04.63 | 3:20.27 | 54363 | 69389
6 | 15:25.15 | 6:33.40 | 69390 | 98904
7 | 21:58.55 | 3:05.33 | 98905 | 112812
8 | 25:04.13 | 2:10.27 | 112813 | 122589
9 | 27:14.40 | 4:43.55 | 122590 | 143869
10 | 31:58.20 | 3:59.25 | 143870 | 161819
11 | 35:57.45 | 5:09.38 | 161820 | 185032


Характеристики диапазона извлечения и сообщения об ошибках

Выбранный диапазон

Имя файла D:\RIPPED\Cream - Fresh Cream.wav

Пиковый уровень 99.9 %
Качество диапазона 100.0 %
CRC теста 158C741F
CRC копии 158C741F
Копирование… OK

Ошибок не произошло


AccurateRip: сводка

Трек 1 точное извлечение (доверие 3) [6B67F314]
Трек 2 точное извлечение (доверие 3) [DEDDD71F]
Трек 3 точное извлечение (доверие 3) [0ACC1371]
Трек 4 точное извлечение (доверие 3) [30BC92EF]
Трек 5 точное извлечение (доверие 3) [F25C9B44]
Трек 6 точное извлечение (доверие 3) [C2900033]
Трек 7 точное извлечение (доверие 3) [C63799F1]
Трек 8 точное извлечение (доверие 3) [4E0CF084]
Трек 9 точное извлечение (доверие 3) [145730C9]
Трек 10 точное извлечение (доверие 3) [E12B54F7]
Трек 11 точное извлечение (доверие 2) [500D46E6]

Все треки извлечены точно

Конец отчёта


[CUETools log; Date: 08.04.2021 11:19:21; Version: 2.1.4]
[AccurateRip ID: 000fc1c0-008aff10-8409a30b] found.
Track [ CRC | V2 ] Status
01 [6b67f314|85c771a6] (04+02/16) Accurately ripped
02 [deddd71f|fb2c502f] (04+02/16) Accurately ripped
03 [0acc1371|50edf71f] (04+02/16) Accurately ripped
04 [30bc92ef|b255ceef] (04+02/16) Accurately ripped
05 [f25c9b44|79e1ff7e] (04+02/16) Accurately ripped
06 [c2900033|b1454319] (04+02/16) Accurately ripped
07 [c63799f1|f22d6a2c] (04+02/16) Accurately ripped
08 [4e0cf084|c5c8968a] (04+02/16) Accurately ripped
09 [145730c9|450ac4a5] (04+02/16) Accurately ripped
10 [e12b54f7|2a10ba35] (04+02/16) Accurately ripped
11 [500d46e6|85300a55] (03+02/15) Accurately ripped
Offsetted by 730:
01 [a9720e48] (02/16) Accurately ripped
02 [706df2d4] (02/16) Accurately ripped
03 [9a8c5753] (02/16) Accurately ripped
04 [86d68810] (02/16) Accurately ripped
05 [12972460] (02/16) Accurately ripped
06 [644919ab] (02/16) Accurately ripped
07 [0d26aebf] (02/16) Accurately ripped
08 [00621eb6] (02/16) Accurately ripped
09 [fcbed319] (02/16) Accurately ripped
10 [b5fc869a] (02/16) Accurately ripped
11 [19e833ef] (02/15) Accurately ripped

Track Peak [ CRC32 ] [W/O NULL] [ LOG ]
– 99,9 [158C741F] [F0FFEB75] CRC32
01 78,4 [C72DAC7B] [0206EB22]
02 87,0 [EA3F9DA1] [424C23B8]
03 92,3 [A46A8AF8] [8CB8E9AA]
04 84,4 [0B53BFDF] [BEAFBD72]
05 99,9 [E11D1779] [C909F4B2]
06 84,2 [479F0CDD] [79BC3294]
07 81,2 [A6559AD3] [7DF86A0F]
08 85,9 [E5FBC655] [246DA1D8]
09 85,1 [2B48C8E1] [2E6B8570]
10 65,6 [A64BAAB3] [34C29EAF]
11 71,8 [5D685268] [4CBA80E0]


Cream - Fresh Cream (1966) [2001, Remastered, Japan]

All thanks go to the original releaser

Cream in my Blog

Download Cream - Fresh Cream (1966):