Tags
Language
Tags
January 2023
Su Mo Tu We Th Fr Sa
1 2 3 4 5 6 7
8 9 10 11 12 13 14
15 16 17 18 19 20 21
22 23 24 25 26 27 28
29 30 31 1 2 3 4

VA - Creative Outlaws - US Underground 1962-1970 (2005)

Posted By: Rtax
VA - Creative Outlaws - US Underground 1962-1970 (2005)

VA - Creative Outlaws - US Underground 1962-1970 (2005)
EAC Rip | FLAC (tracks, cue, log) - 480 MB | MP3 CBR 320 kbps - 174 MB
1:15:06 | Folk Rock, Psychedelic Rock, Classic Rock | Label: Trikont

This collection of 22 underground curiosities reflects the clash between 1960’s liberals and the American Establishment.
Republicans were alarmed by the druggy psyched out sounds of both ‘Keep Your Mind Open’ by the Kaleidoscopes, and ‘Turn On’ by The Godz. Meanwhile Canned Heat’s attack on the LAPD in the song ‘Sic ’em Pigs’, the sexual permissiveness behind ‘Somebody To Love’ by Grace Slick, and The Great Society & Tiny Tim’s high-camp rendition of ‘Highway To Hell’ provided further evidence of a subversive enemy within the ranks. Other classics on the CD are ‘Kick Out The Jams’ by the MC5, Captain Beefheart’s ‘Dachau Blues’, Shel Silverstein’s ‘Have another Espresso’, and ‘1969’ from The Stooges.

Tracklist
01 - Jimi Hendrix - Star Spangled Banner [00:02:15]
02 - Lothar & The Hand People - Machines [00:02:36]
03 - Tiny Tim - Tip Toe Through The Tulips - Highway To Hell [00:03:16]
04 - Captain Beefheart - Dachau Blues [00:01:56]
05 - Country Joe & The Fish - I Feel Like I'm Fixin' To Die [00:03:44]
06 - Moondog - On Broadway [00:05:07]
07 - The Godz - Turn On [00:04:21]
08 - Mc 5 - Kick Out The Jams [00:03:00]
09 - The Fugs - The Garden Is Open [00:04:05]
10 - Exuma - You Don't Know What's Going On [00:03:28]
11 - Blue Cheer - Summertime Blues [00:03:47]
12 - Shel Silverstein - Have Another Expresso [00:02:20]
13 - Pearls Before Swine - Uncle John [00:02:54]
14 - West Coast Pop Art Experimental Band - Suppose They Give A War And No One Comes [00:03:40]
15 - Holy Modal Rounders - Cocaine Blues [00:02:10]
16 - Kaleidoscope - Keep Your Mind Open [00:02:17]
17 - Grace Slick And The Great Society - Somebody To Love [00:04:25]
18 - Tim Rose - Hey Joe [00:03:00]
19 - Canned Heat - Sic'em Pigs [00:02:41]
20 - The Chambers Brothers - Time Has Come Today [00:04:56]
21 - Nina Simone - Mississippi Goddam [00:04:53]
22 - The Stooges - 1969 [00:04:04]
Exact Audio Copy V0.99 prebeta 5 from 4. May 2009

EAC extraction logfile from 24. April 2010, 21:27

Various - All Times Greatest / Creative Outlaws - Us Undergroun 1962-1970

Used drive : MATSHITADVD-RAM UJ-850S Adapter: 0 ID: 1

Read mode : Secure
Utilize accurate stream : Yes
Defeat audio cache : Yes
Make use of C2 pointers : No

Read offset correction : 102
Overread into Lead-In and Lead-Out : No
Fill up missing offset samples with silence : Yes
Delete leading and trailing silent blocks : No
Null samples used in CRC calculations : Yes
Used interface : Native Win32 interface for Win NT & 2000
Gap handling : Appended to previous track

Used output format : User Defined Encoder
Selected bitrate : 1024 kBit/s
Quality : High
Add ID3 tag : No
Command line compressor : C:\Program Files\Exact Audio Copy\FLAC\FLAC.EXE
Additional command line options : -8 -V -T "ARTIST=%a" -T "TITLE=%t" -T "ALBUM=%g" -T "DATE=%y" -T "TRACKNUMBER=%n" -T "GENRE=%m" -T "COMMENT=EAC FLAC -8" %s


TOC of the extracted CD

Track | Start | Length | Start sector | End sector
––––––––––––––––––––––––––––-
1 | 0:00.00 | 2:15.69 | 0 | 10193
2 | 2:15.69 | 2:36.04 | 10194 | 21897
3 | 4:51.73 | 3:16.04 | 21898 | 36601
4 | 8:08.02 | 1:56.57 | 36602 | 45358
5 | 10:04.59 | 3:44.12 | 45359 | 62170
6 | 13:48.71 | 5:07.52 | 62171 | 85247
7 | 18:56.48 | 4:21.48 | 85248 | 104870
8 | 23:18.21 | 3:00.28 | 104871 | 118398
9 | 26:18.49 | 4:05.56 | 118399 | 136829
10 | 30:24.30 | 3:28.24 | 136830 | 152453
11 | 33:52.54 | 3:47.07 | 152454 | 169485
12 | 37:39.61 | 2:20.70 | 169486 | 180055
13 | 40:00.56 | 2:54.51 | 180056 | 193156
14 | 42:55.32 | 3:40.69 | 193157 | 209725
15 | 46:36.26 | 2:10.60 | 209726 | 219535
16 | 48:47.11 | 2:16.73 | 219536 | 229808
17 | 51:04.09 | 4:25.51 | 229809 | 249734
18 | 55:29.60 | 3:00.31 | 249735 | 263265
19 | 58:30.16 | 2:41.29 | 263266 | 275369
20 | 61:11.45 | 4:56.12 | 275370 | 297581
21 | 66:07.57 | 4:53.71 | 297582 | 319627
22 | 71:01.53 | 4:04.20 | 319628 | 337947


Track 1

Filename E:\#music2#\#foreign#\Creative Outlaws - Us Underground 1962-1970\01. Jimi Hendrix – Star Spangled Banner.wav

Pre-gap length 0:00:02.00

Peak level 97.7 %
Track quality 100.0 %
Test CRC D3FE2BBE
Copy CRC D3FE2BBE
Accurately ripped (confidence 3) [48D5B57D]
Copy OK

Track 2

Filename E:\#music2#\#foreign#\Creative Outlaws - Us Underground 1962-1970\02. Lothar & The Hand People – Machines.wav

Pre-gap length 0:00:01.67

Peak level 97.7 %
Track quality 99.9 %
Test CRC DA8A5211
Copy CRC DA8A5211
Accurately ripped (confidence 3) [073EB651]
Copy OK

Track 3

Filename E:\#music2#\#foreign#\Creative Outlaws - Us Underground 1962-1970\03. Tiny Tim – Tip Toe Through The Tulips - Highway To Hell.wav

Pre-gap length 0:00:01.67

Peak level 97.7 %
Track quality 100.0 %
Test CRC C607930A
Copy CRC C607930A
Accurately ripped (confidence 3) [49AFBB20]
Copy OK

Track 4

Filename E:\#music2#\#foreign#\Creative Outlaws - Us Underground 1962-1970\04. Captain Beefheart – Dachau Blues.wav

Pre-gap length 0:00:01.67

Peak level 97.7 %
Track quality 100.0 %
Test CRC 53B20882
Copy CRC 53B20882
Accurately ripped (confidence 3) [B90D548B]
Copy OK

Track 5

Filename E:\#music2#\#foreign#\Creative Outlaws - Us Underground 1962-1970\05. Country Joe & The Fish – I Feel Like I'm Fixin' To Die.wav

Pre-gap length 0:00:01.67

Peak level 97.7 %
Track quality 100.0 %
Test CRC 81F37471
Copy CRC 81F37471
Accurately ripped (confidence 3) [1EFB7353]
Copy OK

Track 6

Filename E:\#music2#\#foreign#\Creative Outlaws - Us Underground 1962-1970\06. Moondog – On Broadway.wav

Pre-gap length 0:00:01.67

Peak level 97.7 %
Track quality 100.0 %
Test CRC D38FA3AD
Copy CRC D38FA3AD
Accurately ripped (confidence 3) [00D19D69]
Copy OK

Track 7

Filename E:\#music2#\#foreign#\Creative Outlaws - Us Underground 1962-1970\07. The Godz – Turn On.wav

Pre-gap length 0:00:01.67

Peak level 97.7 %
Track quality 99.9 %
Test CRC 51AC0451
Copy CRC 51AC0451
Accurately ripped (confidence 3) [BBF16B49]
Copy OK

Track 8

Filename E:\#music2#\#foreign#\Creative Outlaws - Us Underground 1962-1970\08. MC 5 – Kick Out The Jams.wav

Pre-gap length 0:00:01.67

Peak level 97.7 %
Track quality 100.0 %
Test CRC 2AA62009
Copy CRC 2AA62009
Accurately ripped (confidence 3) [2AF61CFE]
Copy OK

Track 9

Filename E:\#music2#\#foreign#\Creative Outlaws - Us Underground 1962-1970\09. The Fugs – The Garden Is Open.wav

Pre-gap length 0:00:01.67

Peak level 97.7 %
Track quality 100.0 %
Test CRC C7C1EAC8
Copy CRC C7C1EAC8
Accurately ripped (confidence 3) [D52B0A83]
Copy OK

Track 10

Filename E:\#music2#\#foreign#\Creative Outlaws - Us Underground 1962-1970\10. Exuma – You Don't Know What's Going On.wav

Pre-gap length 0:00:01.67

Peak level 97.7 %
Track quality 100.0 %
Test CRC D7D98682
Copy CRC D7D98682
Accurately ripped (confidence 3) [A79B6CE8]
Copy OK

Track 11

Filename E:\#music2#\#foreign#\Creative Outlaws - Us Underground 1962-1970\11. Blue Cheer – Summertime Blues.wav

Pre-gap length 0:00:01.67

Peak level 97.7 %
Track quality 100.0 %
Test CRC 4682BFA1
Copy CRC 4682BFA1
Accurately ripped (confidence 3) [A1787283]
Copy OK

Track 12

Filename E:\#music2#\#foreign#\Creative Outlaws - Us Underground 1962-1970\12. Shel Silverstein – Have Another Expresso.wav

Pre-gap length 0:00:01.67

Peak level 97.2 %
Track quality 100.0 %
Test CRC 4E7AB2AF
Copy CRC 4E7AB2AF
Accurately ripped (confidence 3) [BDB9D1EA]
Copy OK

Track 13

Filename E:\#music2#\#foreign#\Creative Outlaws - Us Underground 1962-1970\13. Pearls Before Swine – Uncle John.wav

Pre-gap length 0:00:01.67

Peak level 97.7 %
Track quality 99.9 %
Test CRC 7F02CF4A
Copy CRC 7F02CF4A
Accurately ripped (confidence 3) [4111ED9F]
Copy OK

Track 14

Filename E:\#music2#\#foreign#\Creative Outlaws - Us Underground 1962-1970\14. West Coast Pop Art Experimental Band – Suppose They Give A War And No One Comes.wav

Pre-gap length 0:00:01.67

Peak level 97.7 %
Track quality 100.0 %
Test CRC 9469D805
Copy CRC 9469D805
Accurately ripped (confidence 3) [6068B1A5]
Copy OK

Track 15

Filename E:\#music2#\#foreign#\Creative Outlaws - Us Underground 1962-1970\15. Holy Modal Rounders – Cocaine Blues.wav

Pre-gap length 0:00:01.67

Peak level 97.7 %
Track quality 100.0 %
Test CRC 400FBBF9
Copy CRC 400FBBF9
Accurately ripped (confidence 3) [7D346685]
Copy OK

Track 16

Filename E:\#music2#\#foreign#\Creative Outlaws - Us Underground 1962-1970\16. Kaleidoscope – Keep Your Mind Open.wav

Pre-gap length 0:00:01.67

Peak level 97.7 %
Track quality 100.0 %
Test CRC AC043264
Copy CRC AC043264
Accurately ripped (confidence 3) [F4B8C937]
Copy OK

Track 17

Filename E:\#music2#\#foreign#\Creative Outlaws - Us Underground 1962-1970\17. Grace Slick And The Great Society – Somebody To Love.wav

Pre-gap length 0:00:01.67

Peak level 97.7 %
Track quality 100.0 %
Test CRC F0079F5B
Copy CRC F0079F5B
Accurately ripped (confidence 3) [B0D0DB19]
Copy OK

Track 18

Filename E:\#music2#\#foreign#\Creative Outlaws - Us Underground 1962-1970\18. Tim Rose – Hey Joe.wav

Pre-gap length 0:00:01.67

Peak level 97.5 %
Track quality 100.0 %
Test CRC FDEB7FEA
Copy CRC FDEB7FEA
Accurately ripped (confidence 3) [FE5B7D8B]
Copy OK

Track 19

Filename E:\#music2#\#foreign#\Creative Outlaws - Us Underground 1962-1970\19. Canned Heat – Sic'em Pigs.wav

Pre-gap length 0:00:01.67

Peak level 97.7 %
Track quality 99.9 %
Test CRC 6EF069E0
Copy CRC 6EF069E0
Accurately ripped (confidence 3) [7ADD76C7]
Copy OK

Track 20

Filename E:\#music2#\#foreign#\Creative Outlaws - Us Underground 1962-1970\20. The Chambers Brothers – Time Has Come Today.wav

Pre-gap length 0:00:01.67

Peak level 97.7 %
Track quality 100.0 %
Test CRC EE973842
Copy CRC EE973842
Accurately ripped (confidence 3) [AB5F43A6]
Copy OK

Track 21

Filename E:\#music2#\#foreign#\Creative Outlaws - Us Underground 1962-1970\21. Nina Simone – Mississippi Goddam.wav

Pre-gap length 0:00:01.67

Peak level 97.7 %
Track quality 100.0 %
Test CRC 03DC1C26
Copy CRC 03DC1C26
Accurately ripped (confidence 2) [05686F7E]
Copy OK

Track 22

Filename E:\#music2#\#foreign#\Creative Outlaws - Us Underground 1962-1970\22. The Stooges – 1969.wav

Pre-gap length 0:00:01.67

Peak level 97.7 %
Track quality 100.0 %
Test CRC DB8D5C2B
Copy CRC DB8D5C2B
Accurately ripped (confidence 2) [C4678867]
Copy OK


All tracks accurately ripped

No errors occurred

End of status report