Tags
Language
Tags
April 2024
Su Mo Tu We Th Fr Sa
31 1 2 3 4 5 6
7 8 9 10 11 12 13
14 15 16 17 18 19 20
21 22 23 24 25 26 27
28 29 30 1 2 3 4

Crowded House - Essential (2011)

Posted By: Designol
Crowded House - Essential (2011)

Crowded House - Essential (2011)
EAC | FLAC | Tracks (Cue&Log) ~ 387 Mb | Mp3 (CBR320) ~ 133 Mb | Scans ~ 84 Mb
Label: EMI, Capitol | # 50999 6 80237 2 0, 680 2372 | Time: 00:57:30
Adult Alternative Pop/Rock, Pop Rock, College Rock

Crowded House's greatest hit, "Don't Dream It's Over," cemented them firmly into the collective American consciousness as a mere highlight of a John Hughes soundtrack or momentary inhabitants of the mid-'80s college rock ghetto. Though they rose to highest U.S. acclaim with that song and its follow-up, "Something So Strong," Crowded House charted consistently in their homeland of Australia and were widely popular outside of the States for the second half of their initial run. Songs like "Better Be Home Soon" and "Weather with You" charted massively in the U.K., Canada, and New Zealand, but never brought the group more than a cult following stateside. Including a variety of singles and highlights from albums Woodface, Temple of Low Men, and their self-titled debut, Essential provides a comprehensive overview of Crowded House's wistful songwriting style and bouncy pop productions, all of which predated the rise of alternative, but didn't quite fit any mainstream mold.

Review by Fred Thomas, Allmusic.com

Crowded House - Essential (2011)



Tracklist:

01. It's Only Natural (3:31)
02. Don't Dream It's Over (3:54)
03. Chocolate Cake (4:00)
04. Whispers And Moans (3:36)
05. Now We're Getting Somewhere (4:05)
06. Love This Life (3:37)
07. Sister Madly (2:54)
08. There Goes God (3:50)
09. Nails In My Feet (3:40)
10. Fingers Of Love (4:26)
11. Weather With You (3:43)
12. Walking On the Spot (2:55)
13. Four Seasons In One Day (2:48)
14. Something So Strong (2:52)
15. Into Temptation (4:32)
16. Better Be Home Soon (3:08)


Exact Audio Copy V1.1 from 23. June 2015

EAC extraction logfile from 15. December 2018, 0:02

Crowded House / Essential

Used drive : HL-DT-STDVDRAM GH24NS90 Adapter: 1 ID: 0

Read mode : Secure
Utilize accurate stream : Yes
Defeat audio cache : Yes
Make use of C2 pointers : No

Read offset correction : 6
Overread into Lead-In and Lead-Out : No
Fill up missing offset samples with silence : Yes
Delete leading and trailing silent blocks : No
Null samples used in CRC calculations : Yes
Used interface : Native Win32 interface for Win NT & 2000
Gap handling : Appended to previous track

Used output format : User Defined Encoder
Selected bitrate : 1024 kBit/s
Quality : High
Add ID3 tag : No
Command line compressor : C:\Program Files (x86)\FLAC\flac.exe


TOC of the extracted CD

Track | Start | Length | Start sector | End sector
––––––––––––––––––––––––––––-
1 | 0:00.00 | 3:30.45 | 0 | 15794
2 | 3:30.45 | 3:53.74 | 15795 | 33343
3 | 7:24.44 | 4:00.17 | 33344 | 51360
4 | 11:24.61 | 3:35.72 | 51361 | 67557
5 | 15:00.58 | 4:04.74 | 67558 | 85931
6 | 19:05.57 | 3:36.45 | 85932 | 102176
7 | 22:42.27 | 2:53.54 | 102177 | 115205
8 | 25:36.06 | 3:49.41 | 115206 | 132421
9 | 29:25.47 | 3:39.49 | 132422 | 148895
10 | 33:05.21 | 4:26.11 | 148896 | 168856
11 | 37:31.32 | 3:43.13 | 168857 | 185594
12 | 41:14.45 | 2:55.27 | 185595 | 198746
13 | 44:09.72 | 2:48.12 | 198747 | 211358
14 | 46:58.09 | 2:51.68 | 211359 | 224251
15 | 49:50.02 | 4:32.00 | 224252 | 244651
16 | 54:22.02 | 3:07.42 | 244652 | 258718


Track 1

Filename C:\Exact Audio Copy\Crowded House\Essential\01. It's Only Natural.wav

Pre-gap length 0:00:02.00

Peak level 99.8 %
Extraction speed 1.1 X
Track quality 100.0 %
Test CRC 86858348
Copy CRC 86858348
Accurately ripped (confidence 3) [56F6970D] (AR v2)
Copy OK

Track 2

Filename C:\Exact Audio Copy\Crowded House\Essential\02. Don't Dream It's Over.wav

Peak level 99.8 %
Extraction speed 1.2 X
Track quality 100.0 %
Test CRC 7DFBFB9C
Copy CRC 7DFBFB9C
Accurately ripped (confidence 3) [A8B73891] (AR v2)
Copy OK

Track 3

Filename C:\Exact Audio Copy\Crowded House\Essential\03. Chocolate Cake.wav

Peak level 99.8 %
Extraction speed 1.3 X
Track quality 100.0 %
Test CRC 23A68F82
Copy CRC 23A68F82
Accurately ripped (confidence 3) [B3866A31] (AR v2)
Copy OK

Track 4

Filename C:\Exact Audio Copy\Crowded House\Essential\04. Whispers And Moans.wav

Peak level 99.8 %
Extraction speed 1.4 X
Track quality 100.0 %
Test CRC 910593A5
Copy CRC 910593A5
Accurately ripped (confidence 3) [172CE34A] (AR v2)
Copy OK

Track 5

Filename C:\Exact Audio Copy\Crowded House\Essential\05. Now We're Getting Somewhere.wav

Peak level 99.8 %
Extraction speed 1.4 X
Track quality 99.9 %
Test CRC E0D93031
Copy CRC E0D93031
Accurately ripped (confidence 3) [DC9BFCD6] (AR v2)
Copy OK

Track 6

Filename C:\Exact Audio Copy\Crowded House\Essential\06. Love This Life.wav

Peak level 99.8 %
Extraction speed 1.6 X
Track quality 100.0 %
Test CRC 1C915EB7
Copy CRC 1C915EB7
Accurately ripped (confidence 3) [B003837C] (AR v2)
Copy OK

Track 7

Filename C:\Exact Audio Copy\Crowded House\Essential\07. Sister Madly.wav

Peak level 99.8 %
Extraction speed 1.6 X
Track quality 100.0 %
Test CRC 035C6443
Copy CRC 035C6443
Accurately ripped (confidence 3) [38503BB6] (AR v2)
Copy OK

Track 8

Filename C:\Exact Audio Copy\Crowded House\Essential\08. There Goes God.wav

Peak level 99.8 %
Extraction speed 1.8 X
Track quality 100.0 %
Test CRC C2831FEF
Copy CRC C2831FEF
Accurately ripped (confidence 3) [A434DC0E] (AR v2)
Copy OK

Track 9

Filename C:\Exact Audio Copy\Crowded House\Essential\09. Nails In My Feet.wav

Peak level 99.8 %
Extraction speed 1.8 X
Track quality 100.0 %
Test CRC FC5EFE48
Copy CRC FC5EFE48
Accurately ripped (confidence 3) [661BE320] (AR v2)
Copy OK

Track 10

Filename C:\Exact Audio Copy\Crowded House\Essential\10. Fingers Of Love.wav

Peak level 99.8 %
Extraction speed 1.9 X
Track quality 100.0 %
Test CRC 5EF9D788
Copy CRC 5EF9D788
Accurately ripped (confidence 3) [F4EB8BA2] (AR v2)
Copy OK

Track 11

Filename C:\Exact Audio Copy\Crowded House\Essential\11. Weather With You.wav

Peak level 99.8 %
Extraction speed 2.0 X
Track quality 100.0 %
Test CRC 58A1C2F1
Copy CRC 58A1C2F1
Accurately ripped (confidence 3) [68E18374] (AR v2)
Copy OK

Track 12

Filename C:\Exact Audio Copy\Crowded House\Essential\12. Walking On the Spot.wav

Peak level 99.8 %
Extraction speed 1.9 X
Track quality 100.0 %
Test CRC DB56863B
Copy CRC DB56863B
Accurately ripped (confidence 3) [E3D19D64] (AR v2)
Copy OK

Track 13

Filename C:\Exact Audio Copy\Crowded House\Essential\13. Four Seasons In One Day.wav

Peak level 99.8 %
Extraction speed 1.9 X
Track quality 100.0 %
Test CRC 62DB3BA3
Copy CRC 62DB3BA3
Accurately ripped (confidence 3) [AA5025D7] (AR v2)
Copy OK

Track 14

Filename C:\Exact Audio Copy\Crowded House\Essential\14. Something So Strong.wav

Peak level 99.8 %
Extraction speed 2.0 X
Track quality 100.0 %
Test CRC DDE3E807
Copy CRC DDE3E807
Accurately ripped (confidence 3) [D967CA12] (AR v2)
Copy OK

Track 15

Filename C:\Exact Audio Copy\Crowded House\Essential\15. Into Temptation.wav

Peak level 99.8 %
Extraction speed 2.2 X
Track quality 100.0 %
Test CRC 6FC9F8EA
Copy CRC 6FC9F8EA
Accurately ripped (confidence 3) [1B653245] (AR v2)
Copy OK

Track 16

Filename C:\Exact Audio Copy\Crowded House\Essential\16. Better Be Home Soon.wav

Peak level 99.8 %
Extraction speed 1.9 X
Track quality 99.9 %
Test CRC F6D5F7D3
Copy CRC F6D5F7D3
Accurately ripped (confidence 3) [9D8AA57A] (AR v2)
Copy OK


All tracks accurately ripped

No errors occurred

End of status report

–– CUETools DB Plugin V2.1.6

[CTDB TOCID: wdGexR2MZzcKbI0tPVRBABnOLHw-] found
Submit result: wdGexR2MZzcKbI0tPVRBABnOLHw- has been confirmed
Track | CTDB Status
1 | (1/1) Accurately ripped
2 | (1/1) Accurately ripped
3 | (1/1) Accurately ripped
4 | (1/1) Accurately ripped
5 | (1/1) Accurately ripped
6 | (1/1) Accurately ripped
7 | (1/1) Accurately ripped
8 | (1/1) Accurately ripped
9 | (1/1) Accurately ripped
10 | (1/1) Accurately ripped
11 | (1/1) Accurately ripped
12 | (1/1) Accurately ripped
13 | (1/1) Accurately ripped
14 | (1/1) Accurately ripped
15 | (1/1) Accurately ripped
16 | (1/1) Accurately ripped

[CUETools log; Date: 20.12.2018 14:34:42; Version: 2.1.4]
[CTDB TOCID: wdGexR2MZzcKbI0tPVRBABnOLHw-] found.
Track | CTDB Status
1 | (2/2) Accurately ripped
2 | (2/2) Accurately ripped
3 | (2/2) Accurately ripped
4 | (2/2) Accurately ripped
5 | (2/2) Accurately ripped
6 | (2/2) Accurately ripped
7 | (2/2) Accurately ripped
8 | (2/2) Accurately ripped
9 | (2/2) Accurately ripped
10 | (2/2) Accurately ripped
11 | (2/2) Accurately ripped
12 | (2/2) Accurately ripped
13 | (2/2) Accurately ripped
14 | (2/2) Accurately ripped
15 | (2/2) Accurately ripped
16 | (2/2) Accurately ripped
[AccurateRip ID: 00224108-01991db9-ec0d7910] found.
Track [ CRC | V2 ] Status
01 [3365462a|56f6970d] (0+3/5) Accurately ripped
02 [e3f0eccc|a8b73891] (0+3/5) Accurately ripped
03 [42196527|b3866a31] (0+3/5) Accurately ripped
04 [3f46cf2f|172ce34a] (0+3/5) Accurately ripped
05 [e933f7bf|dc9bfcd6] (0+3/5) Accurately ripped
06 [5d30ca00|b003837c] (0+3/5) Accurately ripped
07 [0115f9b6|38503bb6] (0+3/5) Accurately ripped
08 [1d606e92|a434dc0e] (0+3/5) Accurately ripped
09 [d6a314c2|661be320] (0+3/5) Accurately ripped
10 [f0f8d989|f4eb8ba2] (0+3/5) Accurately ripped
11 [648f905b|68e18374] (0+3/5) Accurately ripped
12 [fe90c26d|e3d19d64] (0+3/5) Accurately ripped
13 [b885e875|aa5025d7] (0+3/5) Accurately ripped
14 [ea38ef63|d967ca12] (0+3/5) Accurately ripped
15 [9939ff68|1b653245] (0+3/5) Accurately ripped
16 [7feac876|9d8aa57a] (0+3/5) Accurately ripped
Offsetted by 670:
01 [92c328d1] (0/5) No match (V2 was not tested)
02 [3afc0846] (0/5) No match (V2 was not tested)
03 [4e954bac] (0/5) No match (V2 was not tested)
04 [8ca4c1ba] (0/5) No match (V2 was not tested)
05 [cbc101eb] (0/5) No match (V2 was not tested)
06 [7961f241] (0/5) No match (V2 was not tested)
07 [1fd7bd37] (0/5) No match (V2 was not tested)
08 [b8e2b485] (0/5) No match (V2 was not tested)
09 [97c0ff26] (0/5) No match (V2 was not tested)
10 [8d5978d7] (0/5) No match (V2 was not tested)
11 [c1db0c9e] (0/5) No match (V2 was not tested)
12 [2aedfc8a] (0/5) No match (V2 was not tested)
13 [8545529f] (0/5) No match (V2 was not tested)
14 [ff1cc228] (0/5) No match (V2 was not tested)
15 [f5dee0ee] (0/5) No match (V2 was not tested)
16 [f55738cd] (0/5) No match (V2 was not tested)

Track Peak [ CRC32 ] [W/O NULL] [ LOG ]
– 99,8 [D71C1212] [182366AD]
01 99,8 [86858348] [49EA285A] CRC32
02 99,8 [7DFBFB9C] [B3E24F4E] CRC32
03 99,8 [23A68F82] [D5109686] CRC32
04 99,8 [910593A5] [4D008513] CRC32
05 99,8 [E0D93031] [280787DA] CRC32
06 99,8 [1C915EB7] [B158437F] CRC32
07 99,8 [035C6443] [82323D19] CRC32
08 99,8 [C2831FEF] [6AE26B45] CRC32
09 99,8 [FC5EFE48] [49EF9F23] CRC32
10 99,8 [5EF9D788] [E4DB973A] CRC32
11 99,8 [58A1C2F1] [EF108DA8] CRC32
12 99,8 [DB56863B] [FA18EEB1] CRC32
13 99,8 [62DB3BA3] [3F09264A] CRC32
14 99,8 [DDE3E807] [01AD1255] CRC32
15 99,8 [6FC9F8EA] [8E98501C] CRC32
16 99,8 [F6D5F7D3] [73E7E8CF] CRC32

foobar2000 1.2 / Dynamic Range Meter 1.1.1
log date: 2018-12-20 14:55:43

––––––––––––––––––––––––––––––––––––––––
Analyzed: Crowded House / Essential
––––––––––––––––––––––––––––––––––––––––

DR Peak RMS Duration Track
––––––––––––––––––––––––––––––––––––––––
DR10 -0.01 dB -11.65 dB 3:31 01-It's Only Natural
DR9 -0.01 dB -10.46 dB 3:54 02-Don't Dream It's Over
DR10 -0.01 dB -11.81 dB 4:00 03-Chocolate Cake
DR9 -0.01 dB -11.59 dB 3:36 04-Whispers And Moans
DR10 -0.01 dB -11.36 dB 4:05 05-Now We're Getting Somewhere
DR9 -0.01 dB -11.13 dB 3:37 06-Love This Life
DR9 -0.01 dB -10.92 dB 2:54 07-Sister Madly
DR10 -0.01 dB -11.33 dB 3:50 08-There Goes God
DR10 -0.01 dB -11.42 dB 3:40 09-Nails In My Feet
DR10 -0.01 dB -11.90 dB 4:26 10-Fingers Of Love
DR10 -0.01 dB -12.38 dB 3:43 11-Weather With You
DR9 -0.01 dB -10.96 dB 2:55 12-Walking On the Spot
DR9 -0.01 dB -10.86 dB 2:48 13-Four Seasons In One Day
DR9 -0.01 dB -10.41 dB 2:52 14-Something So Strong
DR9 -0.01 dB -11.41 dB 4:32 15-Into Temptation
DR9 -0.01 dB -10.96 dB 3:08 16-Better Be Home Soon
––––––––––––––––––––––––––––––––––––––––

Number of tracks: 16
Official DR value: DR9

Samplerate: 44100 Hz
Channels: 2
Bits per sample: 16
Bitrate: 903 kbps
Codec: FLAC
================================================================================

Crowded House - Essential (2011)

All thanks to original releaser

More interesting music in My Blog