Tags
Language
Tags
June 2024
Su Mo Tu We Th Fr Sa
26 27 28 29 30 31 1
2 3 4 5 6 7 8
9 10 11 12 13 14 15
16 17 18 19 20 21 22
23 24 25 26 27 28 29
30 1 2 3 4 5 6

Curtis Mayfield - Superfly (Japanese Remastered) (1972/2011) (HQ-CD)

Posted By: Rtax
Curtis Mayfield - Superfly (Japanese Remastered) (1972/2011) (HQ-CD)

Curtis Mayfield - Superfly (Japanese Remastered) (1972/2011) (HQ-CD)
EAC Rip | FLAC (tracks, cue, log) - 417 MB | MP3 CBR 320 kbps - 165 MB
1:11:32 | Funk, Soul, Soundtrack | Label: Victor Entertainment

Super Fly is the third studio album by American soul musician Curtis Mayfield, released in July 1972 on Curtom Records. It was released as the soundtrack for the Blaxploitation film of the same name. Widely considered a classic of 1970s soul and funk music, Super Fly was a nearly immediate hit. Its sales were bolstered by two million-selling singles, "Freddie's Dead" (#2 R&B, #4 Pop) and the title track (#5 R&B, #8 Pop). Super Fly is one of the few soundtracks to out-gross the film it accompanied.
Super Fly, along with Marvin Gaye's What's Going On, was one of the pioneering soul concept albums, with its then-unique socially aware lyrics about poverty and drug abuse making the album stand out. The film and the soundtrack may be perceived as dissonant, since the film holds rather ambiguous views on drug dealers, whereas Curtis Mayfield's position is far more critical. Like What's Going On, the album was a surprise hit that record executives felt had little chance at significant sales. Due to its success, Mayfield was tapped for several film soundtracks over the course of the decade.

Tracklist
1 Little Child Runnin' Wild 5:23
2 Pusherman 5:02
3 Freddie's Dead 5:26
4 Junkie Chase (Instrumental) 1:37
5 Give Me Your Love (Love Song) 4:17
6 Eddie You Should Know Better 2:17
7 No Thing On Me (Cocaine Song) 4:54
8 Think (Instrumental) 3:45
9 Superfly 3:53
10 Ghetto Child (Demo Version Of What Became "Little Child Runnin' Wild) 3:15
11 Pusherman (Alternate Mix) 6:08
12 Freddie's Dead (Instrumental Version) 4:44
13 Junkie Chase (Instrumental) ( Full Length Version) 4:15
14 No Thing On Me (Cocaine Song) (Instrumental Version) 4:33
15 Militant March (From The Film Score) 0:52
16 Eddie You Should Know Better (Instrumental Version) 2:14
17 Radio Spot #1 0:25
18 The Underground ( "Superfly-esque" Demo From 1970) 3:10
19 Check Out Your Mind (Instrumental Version) 4:03
20 Radio Spot #2 0:24
Exact Audio Copy V1.0 beta 2 from 29. April 2011

EAC extraction logfile from 2. August 2011, 23:05

Curtis Mayfield / Superfly

Used drive : hp CDDVDW TS-L633M Adapter: 1 ID: 0

Read mode : Secure
Utilize accurate stream : Yes
Defeat audio cache : Yes
Make use of C2 pointers : No

Read offset correction : 6
Overread into Lead-In and Lead-Out : No
Fill up missing offset samples with silence : Yes
Delete leading and trailing silent blocks : No
Null samples used in CRC calculations : Yes
Used interface : Native Win32 interface for Win NT & 2000
Gap handling : Appended to previous track

Used output format : User Defined Encoder
Selected bitrate : 1024 kBit/s
Quality : High
Add ID3 tag : No
Command line compressor : C:\Program Files (x86)\FLAC\flac.exe
Additional command line options : -8 -V -T "ARTIST=%artist%" -T "TITLE=%title%" -T "ALBUM=%albumtitle%" -T "DATE=%year%" -T "TRACKNUMBER=%tracknr%" -T "GENRE=%genre%" -T "PERFORMER=%albuminterpret%" -T "COMPOSER=%composer%" %haslyrics%–tag-from-file=LYRICS


TOC of the extracted CD

Track | Start | Length | Start sector | End sector
––––––––––––––––––––––––––––-
1 | 0:00.00 | 5:26.03 | 0 | 24452
2 | 5:26.03 | 5:04.40 | 24453 | 47292
3 | 10:30.43 | 5:28.50 | 47293 | 71942
4 | 15:59.18 | 1:39.45 | 71943 | 79412
5 | 17:38.63 | 4:19.55 | 79413 | 98892
6 | 21:58.43 | 2:20.12 | 98893 | 109404
7 | 24:18.55 | 4:56.53 | 109405 | 131657
8 | 29:15.33 | 3:47.62 | 131658 | 148744
9 | 33:03.20 | 3:56.30 | 148745 | 166474
10 | 36:59.50 | 3:17.55 | 166475 | 181304
11 | 40:17.30 | 6:10.40 | 181305 | 209094
12 | 46:27.70 | 4:46.50 | 209095 | 230594
13 | 51:14.45 | 4:18.10 | 230595 | 249954
14 | 55:32.55 | 4:36.20 | 249955 | 270674
15 | 60:09.00 | 0:54.63 | 270675 | 274787
16 | 61:03.63 | 2:16.40 | 274788 | 285027
17 | 63:20.28 | 0:28.05 | 285028 | 287132
18 | 63:48.33 | 3:13.15 | 287133 | 301622
19 | 67:01.48 | 4:06.00 | 301623 | 320072
20 | 71:07.48 | 0:24.20 | 320073 | 321892


Track 1

Filename I:\What.Cd\Curtis Mayfield - 1972 - Superfly (K2HD HQ CD 2011 Edition) (Flac)\01. Curtis Mayfield - Little Child Runnin' Wild.wav

Pre-gap length 0:00:02.00

Peak level 100.0 %
Extraction speed 2.3 X
Track quality 100.0 %
Test CRC 3171AB48
Copy CRC 3171AB48
Track not present in AccurateRip database
Copy OK

Track 2

Filename I:\What.Cd\Curtis Mayfield - 1972 - Superfly (K2HD HQ CD 2011 Edition) (Flac)\02. Curtis Mayfield - Pusherman.wav

Pre-gap length 0:00:02.72

Peak level 100.0 %
Extraction speed 2.8 X
Track quality 100.0 %
Test CRC 5DDD910D
Copy CRC 5DDD910D
Track not present in AccurateRip database
Copy OK

Track 3

Filename I:\What.Cd\Curtis Mayfield - 1972 - Superfly (K2HD HQ CD 2011 Edition) (Flac)\03. Curtis Mayfield - Freddie's Dead.wav

Pre-gap length 0:00:02.45

Peak level 100.0 %
Extraction speed 2.5 X
Track quality 99.9 %
Test CRC F16CA5C1
Copy CRC F16CA5C1
Track not present in AccurateRip database
Copy OK

Track 4

Filename I:\What.Cd\Curtis Mayfield - 1972 - Superfly (K2HD HQ CD 2011 Edition) (Flac)\04. Curtis Mayfield - Junkie Chase [Instrumental].wav

Pre-gap length 0:00:02.45

Peak level 100.0 %
Extraction speed 1.7 X
Track quality 99.8 %
Test CRC B0CA5F4F
Copy CRC B0CA5F4F
Track not present in AccurateRip database
Copy OK

Track 5

Filename I:\What.Cd\Curtis Mayfield - 1972 - Superfly (K2HD HQ CD 2011 Edition) (Flac)\05. Curtis Mayfield - Give Me Your Love (Love Song).wav

Pre-gap length 0:00:02.49

Peak level 100.0 %
Extraction speed 3.0 X
Track quality 100.0 %
Test CRC 2CAE3431
Copy CRC 2CAE3431
Track not present in AccurateRip database
Copy OK

Track 6

Filename I:\What.Cd\Curtis Mayfield - 1972 - Superfly (K2HD HQ CD 2011 Edition) (Flac)\06. Curtis Mayfield - Eddie You Should Know Better.wav

Pre-gap length 0:00:02.45

Peak level 100.0 %
Extraction speed 2.9 X
Track quality 100.0 %
Test CRC 2449FBC3
Copy CRC 2449FBC3
Track not present in AccurateRip database
Copy OK

Track 7

Filename I:\What.Cd\Curtis Mayfield - 1972 - Superfly (K2HD HQ CD 2011 Edition) (Flac)\07. Curtis Mayfield - No Thing on Me (Cocaine Song).wav

Pre-gap length 0:00:02.45

Peak level 100.0 %
Extraction speed 3.4 X
Track quality 100.0 %
Test CRC 5551217F
Copy CRC 5551217F
Track not present in AccurateRip database
Copy OK

Track 8

Filename I:\What.Cd\Curtis Mayfield - 1972 - Superfly (K2HD HQ CD 2011 Edition) (Flac)\08. Curtis Mayfield - Think [Instrumental].wav

Pre-gap length 0:00:02.49

Peak level 100.0 %
Extraction speed 3.4 X
Track quality 100.0 %
Test CRC 28F7A283
Copy CRC 28F7A283
Track not present in AccurateRip database
Copy OK

Track 9

Filename I:\What.Cd\Curtis Mayfield - 1972 - Superfly (K2HD HQ CD 2011 Edition) (Flac)\09. Curtis Mayfield - Superfly.wav

Pre-gap length 0:00:02.41

Peak level 100.0 %
Extraction speed 2.6 X
Track quality 99.9 %
Test CRC B5E0D1AF
Copy CRC B5E0D1AF
Track not present in AccurateRip database
Copy OK

Track 10

Filename I:\What.Cd\Curtis Mayfield - 1972 - Superfly (K2HD HQ CD 2011 Edition) (Flac)\10. Curtis Mayfield - Ghetto Child [Demo Version of What Became ''Little Child Runnin' Wild''].wav

Pre-gap length 0:00:02.94

Peak level 100.0 %
Extraction speed 3.6 X
Track quality 100.0 %
Test CRC 5773A23F
Copy CRC 5773A23F
Track not present in AccurateRip database
Copy OK

Track 11

Filename I:\What.Cd\Curtis Mayfield - 1972 - Superfly (K2HD HQ CD 2011 Edition) (Flac)\11. Curtis Mayfield - Pusherman [Alternate Mix].wav

Pre-gap length 0:00:02.45

Peak level 100.0 %
Extraction speed 3.5 X
Track quality 99.9 %
Test CRC 38CD8ED6
Copy CRC 38CD8ED6
Track not present in AccurateRip database
Copy OK

Track 12

Filename I:\What.Cd\Curtis Mayfield - 1972 - Superfly (K2HD HQ CD 2011 Edition) (Flac)\12. Curtis Mayfield - Freddie's Dead [Instrumental Version].wav

Pre-gap length 0:00:02.48

Peak level 100.0 %
Extraction speed 4.1 X
Track quality 100.0 %
Test CRC A08E851C
Copy CRC A08E851C
Track not present in AccurateRip database
Copy OK

Track 13

Filename I:\What.Cd\Curtis Mayfield - 1972 - Superfly (K2HD HQ CD 2011 Edition) (Flac)\13. Curtis Mayfield - Junkie Case [Instrumental] [Full-Length Version].wav

Pre-gap length 0:00:02.48

Peak level 100.0 %
Extraction speed 4.2 X
Track quality 100.0 %
Test CRC 5AC69017
Copy CRC 5AC69017
Track not present in AccurateRip database
Copy OK

Track 14

Filename I:\What.Cd\Curtis Mayfield - 1972 - Superfly (K2HD HQ CD 2011 Edition) (Flac)\14. Curtis Mayfield - No Thing on Me (Cocaine Song) [Instrumental Version].wav

Pre-gap length 0:00:02.45

Peak level 100.0 %
Extraction speed 4.4 X
Track quality 100.0 %
Test CRC 4D5FED1D
Copy CRC 4D5FED1D
Track not present in AccurateRip database
Copy OK

Track 15

Filename I:\What.Cd\Curtis Mayfield - 1972 - Superfly (K2HD HQ CD 2011 Edition) (Flac)\15. Curtis Mayfield - Militant March (From the Film Score).wav

Pre-gap length 0:00:02.48

Peak level 100.0 %
Extraction speed 2.9 X
Track quality 100.0 %
Test CRC 89915E26
Copy CRC 89915E26
Track not present in AccurateRip database
Copy OK

Track 16

Filename I:\What.Cd\Curtis Mayfield - 1972 - Superfly (K2HD HQ CD 2011 Edition) (Flac)\16. Curtis Mayfield - Eddie You Should Know Better [Instrumental Version].wav

Pre-gap length 0:00:02.16

Peak level 100.0 %
Extraction speed 3.9 X
Track quality 100.0 %
Test CRC F60BA8D8
Copy CRC F60BA8D8
Track not present in AccurateRip database
Copy OK

Track 17

Filename I:\What.Cd\Curtis Mayfield - 1972 - Superfly (K2HD HQ CD 2011 Edition) (Flac)\17. Curtis Mayfield - Radio Spot #1.wav

Pre-gap length 0:00:02.49

Peak level 92.5 %
Extraction speed 2.1 X
Track quality 100.0 %
Test CRC 2F79E8D1
Copy CRC 2F79E8D1
Track not present in AccurateRip database
Copy OK

Track 18

Filename I:\What.Cd\Curtis Mayfield - 1972 - Superfly (K2HD HQ CD 2011 Edition) (Flac)\18. Curtis Mayfield - The Underground [''Superfly-Esque'' Demo from 1970].wav

Pre-gap length 0:00:02.49

Peak level 100.0 %
Extraction speed 3.3 X
Track quality 99.9 %
Test CRC 045857D0
Copy CRC 045857D0
Track not present in AccurateRip database
Copy OK

Track 19

Filename I:\What.Cd\Curtis Mayfield - 1972 - Superfly (K2HD HQ CD 2011 Edition) (Flac)\19. Curtis Mayfield - Check Out Your Mind [Instrumental Version].wav

Pre-gap length 0:00:02.49

Peak level 100.0 %
Extraction speed 3.6 X
Track quality 99.9 %
Test CRC 27BEC3FA
Copy CRC 27BEC3FA
Track not present in AccurateRip database
Copy OK

Track 20

Filename I:\What.Cd\Curtis Mayfield - 1972 - Superfly (K2HD HQ CD 2011 Edition) (Flac)\20. Curtis Mayfield - Radio Spot #2.wav

Pre-gap length 0:00:02.49

Peak level 92.3 %
Extraction speed 0.9 X
Track quality 99.5 %
Test CRC 19662402
Copy CRC 19662402
Track not present in AccurateRip database
Copy OK


None of the tracks are present in the AccurateRip database

No errors occurred

End of status report

==== Log checksum 8233E3A8499F2E8C3FF06099FE40141DD2797848E6CD90B9CE4F884084B6EC58 ====