Tags
Language
Tags
March 2024
Su Mo Tu We Th Fr Sa
25 26 27 28 29 1 2
3 4 5 6 7 8 9
10 11 12 13 14 15 16
17 18 19 20 21 22 23
24 25 26 27 28 29 30
31 1 2 3 4 5 6

Down - Nola (1995) {eastwest/Elektra}

Posted By: TestTickles
Down - Nola (1995) {eastwest/Elektra}

Down - Nola (1995) {eastwest/Elektra}
EAC Rip | FLAC with CUE and LOG | scans | 465 mb
MP3 CBR 320 kbps | RAR | 209 mb
Genre: stoner metal, sludge metal, southern rock

Nola is the 1995 debut album by New Orleans, Louisiana stoner metal band Down. This was released by eastwest via Elektra Records.

Down - Nola (1995) {eastwest/Elektra}

01. Temptations Wings
02. Lifer
03. Pillars Of Eternity
04. Rehab
05. Hail The Leaf
06. Underneath Everything
07. Eyes Of The South
08. Jail
09. Losing All
10. Stone The Crow
11. Pray For The Locust
12. Swan Song
13. Bury Me In Smoke

Exact Audio Copy V1.3 from 2. September 2016

EAC extraction logfile from 18. February 2018, 22:32

Down / Nola

Used drive : HL-DT-STDVDRAM GH24NS95 Adapter: 1 ID: 0

Read mode : Secure
Utilize accurate stream : Yes
Defeat audio cache : Yes
Make use of C2 pointers : No

Read offset correction : 6
Overread into Lead-In and Lead-Out : No
Fill up missing offset samples with silence : Yes
Delete leading and trailing silent blocks : No
Null samples used in CRC calculations : Yes
Used interface : Native Win32 interface for Win NT & 2000

Used output format : Internal WAV Routines
Sample format : 44.100 Hz; 16 Bit; Stereo


TOC of the extracted CD

Track | Start | Length | Start sector | End sector
––––––––––––––––––––––––––––-
1 | 0:00.00 | 4:24.37 | 0 | 19836
2 | 4:24.37 | 4:36.23 | 19837 | 40559
3 | 9:00.60 | 3:57.67 | 40560 | 58401
4 | 12:58.52 | 4:03.00 | 58402 | 76626
5 | 17:01.52 | 3:28.43 | 76627 | 92269
6 | 20:30.20 | 4:46.20 | 92270 | 113739
7 | 25:16.40 | 5:13.65 | 113740 | 137279
8 | 30:30.30 | 5:17.32 | 137280 | 161086
9 | 35:47.62 | 4:21.45 | 161087 | 180706
10 | 40:09.32 | 4:42.38 | 180707 | 201894
11 | 44:51.70 | 1:07.67 | 201895 | 206986
12 | 45:59.62 | 3:35.00 | 206987 | 223111
13 | 49:34.62 | 7:04.00 | 223112 | 254911


Range status and errors

Selected range

Filename C:\cuntfist\FLAC\Down - Nola (1995) [FLAC] {eastwest, Elektra}\Down - Nola.wav

Peak level 100.0 %
Extraction speed 7.9 X
Range quality 100.0 %
Test CRC 35CC73A4
Copy CRC 35CC73A4
Copy OK

No errors occurred


AccurateRip summary

Track 1 accurately ripped (confidence 42) [F536DBA3] (AR v2)
Track 2 accurately ripped (confidence 42) [3C0E5DAA] (AR v2)
Track 3 accurately ripped (confidence 42) [BD403B86] (AR v2)
Track 4 accurately ripped (confidence 41) [B96E15A0] (AR v2)
Track 5 accurately ripped (confidence 42) [63CCBA2E] (AR v2)
Track 6 accurately ripped (confidence 42) [43E0B725] (AR v2)
Track 7 accurately ripped (confidence 42) [3E64B06F] (AR v2)
Track 8 accurately ripped (confidence 42) [FED0F5C4] (AR v2)
Track 9 accurately ripped (confidence 42) [167B682A] (AR v2)
Track 10 accurately ripped (confidence 42) [5E48CE54] (AR v2)
Track 11 accurately ripped (confidence 42) [B8F6EE1A] (AR v2)
Track 12 accurately ripped (confidence 42) [9722AE9E] (AR v2)
Track 13 accurately ripped (confidence 42) [B0C671A6] (AR v2)

All tracks accurately ripped

End of status report

–– CUETools DB Plugin V2.1.6

[CTDB TOCID: jlCFon3cyyrKTnBZPT6H678_o8E-] found
Submit result: already submitted
Track | CTDB Status
1 | (215/220) Accurately ripped
2 | (218/220) Accurately ripped
3 | (218/220) Accurately ripped
4 | (218/220) Accurately ripped
5 | (217/220) Accurately ripped
6 | (217/220) Accurately ripped
7 | (218/220) Accurately ripped
8 | (217/220) Accurately ripped
9 | (214/220) Accurately ripped
10 | (215/220) Accurately ripped
11 | (217/220) Accurately ripped
12 | (216/220) Accurately ripped
13 | (212/220) Accurately ripped


==== Log checksum 86372F353ED6E9B5255151D5312E107461B61065EBF6CDA9077EBA8559C301DA ====


Down - Nola (1995) {eastwest/Elektra}


Thank you to the original uploader.