Subcategories

Duende - Donuts Donuts (2017) {Studio Duende}

Posted By: TestTickles
Duende - Donuts Donuts (2017) {Studio Duende}

Duende - Donuts Donuts (2017) {Studio Duende}
EAC Rip | FLAC with CUE and LOG | scans | 212 mb
MP3 CBR 320 kbps | RAR | 131 mb
Genre: easy listening, smooth jazz

Donuts Donuts is the 2017 by Japanese jazz duo Duende. This was released by Studio Duende, which means it's made for the fans.

Duende - Donuts Donuts (2017) {Studio Duende}

1. Dinner Magic (6:14)
2. Potato Moon (5:43)
3. Lost In Thought (2:09)
4. Rainy Walk In Autumn (4:06)
5. Rabbit Tail (4:27)
6. Tea For Two (2:56)
7. Jingle Bells (5:13)

Koyotaka Sambown-ewi, programming
Roco Shiranuhi-piano

Exact Audio Copy V1.3 from 2. September 2016

EAC extraction logfile from 9. April 2018, 4:27

Duende / Donuts Donuts

Used drive : ASUS DRW-24B1ST j Adapter: 1 ID: 0

Read mode : Secure
Utilize accurate stream : Yes
Defeat audio cache : Yes
Make use of C2 pointers : No

Read offset correction : 6
Overread into Lead-In and Lead-Out : No
Fill up missing offset samples with silence : Yes
Delete leading and trailing silent blocks : No
Null samples used in CRC calculations : Yes
Used interface : Native Win32 interface for Win NT & 2000
Gap handling : Appended to previous track

Used output format : User Defined Encoder
Selected bitrate : 32 kBit/s
Quality : High
Add ID3 tag : No
Command line compressor : C:\Program Files (x86)\Exact Audio Copy\Flac\flac.exe
Additional command line options : -8 -V -T "ARTIST=%artist%" -T "TITLE=%title%" -T "ALBUM=%albumtitle%" -T "DATE=%year%" -T "TRACKNUMBER=%tracknr%" -T "GENRE=%genre%" -T "PERFORMER=%composer%" -T "COMPOSER=%composer%" %haslyrics%–tag-from-file=LYRICS="%lyricsfile%"%haslyrics% -T "ALBUMARTIST=%albumartist%" -T "DISCNUMBER=%cdnumber%" -T "TOTALDISCS=%totalcds%" -T "TOTALTRACKS=%numtracks%" -T "COMMENT=%comment%" %source% -o %dest%


TOC of the extracted CD

Track | Start | Length | Start sector | End sector
––––––––––––––––––––––––––––-
1 | 0:00.00 | 6:14.00 | 0 | 28049
2 | 6:14.00 | 5:43.00 | 28050 | 53774
3 | 11:57.00 | 2:09.00 | 53775 | 63449
4 | 14:06.00 | 4:06.00 | 63450 | 81899
5 | 18:12.00 | 4:27.00 | 81900 | 101924
6 | 22:39.00 | 2:55.51 | 101925 | 115100
7 | 25:34.51 | 5:13.00 | 115101 | 138575


Track 1

Filename C:\cuntfist\FLAC\Duende - Donuts Donuts (2017) [FLAC] {Studio Duende}\01 - Dinner Magic.wav

Pre-gap length 0:00:02.00

Peak level 94.1 %
Extraction speed 6.3 X
Track quality 100.0 %
Test CRC EE113B09
Copy CRC EE113B09
Track not present in AccurateRip database
Copy OK

Track 2

Filename C:\cuntfist\FLAC\Duende - Donuts Donuts (2017) [FLAC] {Studio Duende}\02 - Potato Moon.wav

Pre-gap length 0:00:01.00

Peak level 94.3 %
Extraction speed 7.1 X
Track quality 100.0 %
Test CRC D884EB2F
Copy CRC D884EB2F
Track not present in AccurateRip database
Copy OK

Track 3

Filename C:\cuntfist\FLAC\Duende - Donuts Donuts (2017) [FLAC] {Studio Duende}\03 - Lost In Thought.wav

Pre-gap length 0:00:01.00

Peak level 93.6 %
Extraction speed 6.3 X
Track quality 100.0 %
Test CRC F62575E6
Copy CRC F62575E6
Track not present in AccurateRip database
Copy OK

Track 4

Filename C:\cuntfist\FLAC\Duende - Donuts Donuts (2017) [FLAC] {Studio Duende}\04 - Rainy Walk in Autumn.wav

Pre-gap length 0:00:01.00

Peak level 88.1 %
Extraction speed 6.5 X
Track quality 99.9 %
Test CRC 09151EAF
Copy CRC 09151EAF
Track not present in AccurateRip database
Copy OK

Track 5

Filename C:\cuntfist\FLAC\Duende - Donuts Donuts (2017) [FLAC] {Studio Duende}\05 - Rabbit Tail.wav

Pre-gap length 0:00:01.00

Peak level 95.2 %
Extraction speed 8.1 X
Track quality 100.0 %
Test CRC 5792EB8F
Copy CRC 5792EB8F
Track not present in AccurateRip database
Copy OK

Track 6

Filename C:\cuntfist\FLAC\Duende - Donuts Donuts (2017) [FLAC] {Studio Duende}\06 - Tea For Two.wav

Pre-gap length 0:00:01.00

Peak level 93.7 %
Extraction speed 7.9 X
Track quality 100.0 %
Test CRC 14FC7216
Copy CRC 14FC7216
Track not present in AccurateRip database
Copy OK

Track 7

Filename C:\cuntfist\FLAC\Duende - Donuts Donuts (2017) [FLAC] {Studio Duende}\07 - Jingle Bells.wav

Pre-gap length 0:00:01.00

Peak level 94.0 %
Extraction speed 8.9 X
Track quality 100.0 %
Test CRC 092AD718
Copy CRC 092AD718
Track not present in AccurateRip database
Copy OK


None of the tracks are present in the AccurateRip database

No errors occurred

End of status report

–– CUETools DB Plugin V2.1.6

[CTDB TOCID: A2l2P1h3q9scKT.n7lftZyes1vc-] found
Submit result: A2l2P1h3q9scKT.n7lftZyes1vc- has been confirmed
Track | CTDB Status
1 | (1/1) Accurately ripped
2 | (1/1) Accurately ripped
3 | (1/1) Accurately ripped
4 | (1/1) Accurately ripped
5 | (1/1) Accurately ripped
6 | (1/1) Accurately ripped
7 | (1/1) Accurately ripped


==== Log checksum 736628E9DCFEC6249614D99ED55F56AB3E9CDCAADBC2BBCCA76015A035253227 ====


Duende - Donuts Donuts (2017) {Studio Duende}


Thank you to the original uploader.