Tags
Language
Tags

The Shadows - Dance With The Shadows (1964)

Posted By: v3122
The Shadows - Dance With The Shadows (1964)

The Shadows - Dance With The Shadows (1964)
EAC | Flac(Image) + Cue + Log & MP3 CBR 320Kbps
1999 | EMI, 7243 4 99418 2 3 | ~ 377 or 165 Mb | Artwork(jpg) -> 5.71 Mb
Surf / Instrumental Rock

Dance with The Shadows is a 1964 rock album by British instrumental (and sometimes vocal) group The Shadows. It was their third album. It reached number 2 in the album charts. The album was also released as a double-album with The Sound of The Shadows by MFP in the 1980s…

~ wiki
The Shadows - Dance With The Shadows (1964):

The Shadows - Dance With The Shadows (1964)

Tracklist:

01. Chattanooga Choo-Choo (mono) (2:22)
02. Blue Shadows (mono) (2:20)
03. Fandango (mono) (2:23)
04. Tonight (From 'West Side Story') (mono) (2:21)
05. That's The Way It Goes (mono) (1:55)
06. Big 'B' (mono) (3:38)
07. In The Mood (mono) (2:17)
08. The Lonely Bull (El Solo Toro) (mono) (2:22)
09. Dakota (mono) (2:04)
10. French Dressing (mono) (2:33)
11. The High And The Mighty (mono) (2:30)
12. Don't It Make You Feel Good (mono) (2:18)
13. Zambesi (mono) (2:33)
14. Temptation (mono) (2:07)
15. Chattanooga Choo-Choo (stereo) (2:22)
16. Blue Shadows (stereo) (2:20)
17. Fandango (stereo) (2:23)
18. Tonight (From 'West Side Story') (stereo) (2:21)
19. That's The Way It Goes (stereo) (1:55)
20. Big 'B' (stereo) (3:37)
21. In The Mood (stereo) (2:17)
22. The Lonely Bull (El Solo Toro) (stereo) (2:22)
23. Dakota (stereo) (2:05)
24. French Dressing (stereo) (2:33)
25. The High And The Mighty (stereo) (2:30)
26. Don't It Make You Feel Good (stereo) (2:25)
27. Zambesi (stereo) (2:33)
28. Temptation (stereo) (2:07)

Exact Audio Copy V0.99 prebeta 5 from 4. May 2009

Отчёт EAC об извлечении, выполненном 19. сентября 2009, 18:35

The Shadows / Dance With The Shadows

Дисковод: _NEC DVD_RW ND-4570A Adapter: 0 ID: 0

Режим чтения : Достоверность
Использование точного потока : Да
Отключение кэша аудио : Нет
Использование указателей C2 : Да

Коррекция смещения при чтении : 48
Способность читать области Lead-in и Lead-out : Нет
Заполнение пропущенных сэмплов тишиной : Да
Удаление блоков с тишиной в начале и конце : Нет
При вычислениях CRC использовались нулевые сэмплы : Да
Интерфейс : Установленный внешний ASPI-интерфейс

Выходной формат : Внутренние WAV-операции
Формат сэмплов : 44.100 Гц; 16 бит; стерео


TOC извлечённого CD

Трек | Старт | Длительность | Начальный сектор | Конечный сектор
––––––––––––––––––––––––––––––––––-
1 | 0:00.00 | 2:27.17 | 0 | 11041
2 | 2:27.17 | 2:24.13 | 11042 | 21854
3 | 4:51.30 | 2:27.52 | 21855 | 32931
4 | 7:19.07 | 2:25.40 | 32932 | 43846
5 | 9:44.47 | 1:59.63 | 43847 | 52834
6 | 11:44.35 | 3:42.65 | 52835 | 69549
7 | 15:27.25 | 2:20.70 | 69550 | 80119
8 | 17:48.20 | 2:27.30 | 80120 | 91174
9 | 20:15.50 | 2:09.17 | 91175 | 100866
10 | 22:24.67 | 2:38.00 | 100867 | 112716
11 | 25:02.67 | 2:34.65 | 112717 | 124331
12 | 27:37.57 | 2:23.13 | 124332 | 135069
13 | 30:00.70 | 2:37.72 | 135070 | 146916
14 | 32:38.67 | 2:18.60 | 146917 | 157326
15 | 34:57.52 | 2:25.08 | 157327 | 168209
16 | 37:22.60 | 2:23.50 | 168210 | 178984
17 | 39:46.35 | 2:26.55 | 178985 | 189989
18 | 42:13.15 | 2:24.40 | 189990 | 200829
19 | 44:37.55 | 1:58.42 | 200830 | 209721
20 | 46:36.22 | 3:40.68 | 209722 | 226289
21 | 50:17.15 | 2:20.10 | 226290 | 236799
22 | 52:37.25 | 2:26.20 | 236800 | 247769
23 | 55:03.45 | 2:09.60 | 247770 | 257504
24 | 57:13.30 | 2:36.50 | 257505 | 269254
25 | 59:50.05 | 2:32.60 | 269255 | 280714
26 | 62:22.65 | 2:29.07 | 280715 | 291896
27 | 64:51.72 | 2:37.30 | 291897 | 303701
28 | 67:29.27 | 2:07.70 | 303702 | 313296


Характеристики диапазона извлечения и сообщения об ошибках

Выбранный диапазон

Имя файла G:\Раздача\Рапида\The Shadows\1964-Dance With The Shadows (Mono & Stereo, Remaster 1999)\The Shadows - Dance With The Shadows.wav

Пиковый уровень 95.5 %
Качество диапазона 99.9 %
CRC копии 8EA533E1
Копирование… OK

Ошибок не произошло


AccurateRip: сводка

Трек 1 точное извлечение (доверие 3) [4773E3FA]
Трек 2 точное извлечение (доверие 3) [1F41025E]
Трек 3 точное извлечение (доверие 3) [CAC3C009]
Трек 4 точное извлечение (доверие 3) [430FD4E7]
Трек 5 точное извлечение (доверие 3) [0F32567F]
Трек 6 точное извлечение (доверие 3) [BF7BA119]
Трек 7 точное извлечение (доверие 3) [FA220B39]
Трек 8 точное извлечение (доверие 3) [376D36F7]
Трек 9 точное извлечение (доверие 3) [55123AFB]
Трек 10 точное извлечение (доверие 3) [DBB06101]
Трек 11 точное извлечение (доверие 3) [1BF2F119]
Трек 12 точное извлечение (доверие 3) [AD56949E]
Трек 13 точное извлечение (доверие 3) [4B1D9C6A]
Трек 14 точное извлечение (доверие 3) [E9C30C25]
Трек 15 точное извлечение (доверие 3) [09E2000C]
Трек 16 точное извлечение (доверие 3) [F51187D4]
Трек 17 точное извлечение (доверие 3) [FF7BB54D]
Трек 18 точное извлечение (доверие 3) [17E59B20]
Трек 19 точное извлечение (доверие 3) [BFCAF65A]
Трек 20 точное извлечение (доверие 3) [9690CA86]
Трек 21 точное извлечение (доверие 3) [6ADA6839]
Трек 22 точное извлечение (доверие 3) [8B647594]
Трек 23 точное извлечение (доверие 3) [880291B1]
Трек 24 точное извлечение (доверие 3) [82CC594F]
Трек 25 точное извлечение (доверие 3) [A7763817]
Трек 26 точное извлечение (доверие 3) [6BFFD602]
Трек 27 точное извлечение (доверие 3) [6E240608]
Трек 28 точное извлечение (доверие 3) [3048BADA]

Все треки извлечены точно

Конец отчёта


[CUETools log; Date: 29.08.2021 16:29:45; Version: 2.1.4]
[AccurateRip ID: 00458322-056e6a86-ac10511c] found.
Track [ CRC | V2 ] Status
01 [4773e3fa|1ccb5974] (04+08/12) Accurately ripped
02 [1f41025e|feca00ae] (04+09/13) Accurately ripped
03 [cac3c009|6cc8a5d8] (04+09/13) Accurately ripped
04 [430fd4e7|6ed8074a] (04+09/13) Accurately ripped
05 [0f32567f|685fdaa7] (04+09/13) Accurately ripped
06 [bf7ba119|8d47fbd6] (04+09/13) Accurately ripped
07 [fa220b39|0a644ab3] (04+09/13) Accurately ripped
08 [376d36f7|b7684fcf] (04+09/13) Accurately ripped
09 [55123afb|4bff3556] (04+09/13) Accurately ripped
10 [dbb06101|7d1973db] (04+09/13) Accurately ripped
11 [1bf2f119|9f495e35] (04+09/13) Accurately ripped
12 [ad56949e|8736b406] (04+09/13) Accurately ripped
13 [4b1d9c6a|e134389e] (04+09/13) Accurately ripped
14 [e9c30c25|fe36ea93] (04+09/13) Accurately ripped
15 [09e2000c|d92caa9f] (04+09/13) Accurately ripped
16 [f51187d4|d971724f] (04+09/13) Accurately ripped
17 [ff7bb54d|b3876193] (04+09/13) Accurately ripped
18 [17e59b20|1188163d] (04+09/13) Accurately ripped
19 [bfcaf65a|27a204b8] (04+09/13) Accurately ripped
20 [9690ca86|347b1c25] (04+10/14) Accurately ripped
21 [6ada6839|4a96e4ee] (04+09/13) Accurately ripped
22 [8b647594|28f0480a] (04+09/13) Accurately ripped
23 [880291b1|e789c407] (04+09/13) Accurately ripped
24 [82cc594f|755ef98c] (04+09/13) Accurately ripped
25 [a7763817|0afef618] (04+09/13) Accurately ripped
26 [6bffd602|7584eed2] (04+09/13) Accurately ripped
27 [6e240608|3408c223] (04+09/13) Accurately ripped
28 [3048bada|ae8b6a84] (04+09/13) Accurately ripped

Track Peak [ CRC32 ] [W/O NULL] [ LOG ]
– 95,5 [8EA533E1] [BB85C2FB] CRC32
01 84,0 [E14360BB] [6B06B604]
02 87,6 [BBF2FFE6] [47F2EF49]
03 88,7 [7483154D] [92F85A04]
04 79,9 [8A74F300] [A7C14EA7]
05 84,0 [AFA32446] [72FB1E0B]
06 87,6 [261D63A1] [5D1D02E1]
07 87,6 [A97BFF8B] [FF3DAB0B]
08 87,6 [3C75E43F] [1FFD7089]
09 85,2 [34898749] [1A403C43]
10 86,3 [E1C1602E] [0DE54D05]
11 87,6 [4A84A366] [EE28ED79]
12 87,4 [A2F9DB8D] [C05523E5]
13 84,1 [094EF291] [99453A5B]
14 87,6 [BF4836AB] [A3552278]
15 87,6 [BEFFC32F] [3EC7C394]
16 90,6 [D5D86D2B] [AB8A75EF]
17 91,7 [DF12751C] [F4CAD3A6]
18 87,6 [92B59F3C] [11A5B7CD]
19 88,1 [1F1F37D8] [3D4F0935]
20 88,9 [8C8158AF] [C336567D]
21 88,3 [A43AFEBA] [E1190780]
22 88,3 [E7264ADD] [18A9591E]
23 91,5 [A71E50C5] [40D798B5]
24 95,5 [7BCFCB4C] [9898BA0B]
25 88,9 [382B90F3] [C07E5D0C]
26 87,6 [7A2AB77E] [052D6E7D]
27 87,6 [A2D8A81C] [320A7525]
28 90,7 [49C3508C] [AAE64713]


The Shadows - Dance With The Shadows (1964)

All thanks go to the original releaser

The Shadows in my Blog

Download The Shadows - Dance With The Shadows (1964):