Subcategories

Danny Elfman - Edward Scissorhands: Original Motion Picture Soundtrack (1990)

Posted By: Designol
Danny Elfman - Edward Scissorhands: Original Motion Picture Soundtrack (1990)

Danny Elfman - Edward Scissorhands: Original Motion Picture Soundtrack (1990)
EAC | FLAC | Tracks (Cue&Log) ~ 238 Mb (incl 5%) | Mp3 (CBR320/Stereo) ~ 122 Mb (incl 5%)
Genre: Soundtrack, Score | Label: MCA | # MCAD 10133 | Time: 00:49:20 | Scans included

Edward Scissorhands is the fourth feature film collaboration between director Tim Burton and composer Danny Elfman. The orchestra consisted of 79 musicians. Elfman cites Scissorhands as epitomizing his most personal and favorite work.
It is not the easiest task to combine compassion and creepiness into one musical piece, but Danny Elfman has demonstrated, quite elegantly, just how to do it. Edward Scissorhands is quite considerably his masterpiece, instantly recognizable and hauntingly memorable. The concept of a man-made creation, a recluse who has been left with scissors for hands because his inventor died just before attaching natural ones, is certainly strange and possibly laughable. The film may indeed have played as pure farce if not for Elfman's artistry. While many films use soundtrack as the "glue" of the story, or as border, Elfman saturates every bit of Scissorhands so that it is as much his art as it is the director's (Tim Burton). The opening title is fantastic, emitting the wonder of childhood dreams and classic storybooks. But it is only the starting point on a journey of music that concludes with the "grand finale," which is not merely grand, but all encompassing. There are minor detours along the way, like "Edwardo the Barber," which is fun and reminiscent of Pee Wee's Big Adventure, but even in its lighter moments, Edward Scissorhands is classic.

Review by Peter Fawthrop, Allmusic.com
Danny Elfman Biography
Film at Wiki
Film at IMDB


Tracklist:

01. Introduction (Titles) (02:36)
02. Storytime (02:35)
03. Castle On The Hill (06:25)
04. Beatiful New World / Home Sweet Home (02:05)
05. The Cookie Factory (02:14)
06. Ballet De Suburbia (Suite) (04:17)
07. Ice Dance (01:45)
08. Etiquette Lesson (01:38)
09. Edward The Barber (03:19)
10. Esmeralda (00:27)
11. Death! (03:29)
12. The Tide Turns (Suite) (05:31)
13. The Final Confrontation (02:17)
14. Farewell… (02:46)
15. The Grand Finale (03:26)
16. The End (04:47)
17. With These Hands Performed by Tom Jones (02:43)


Exact Audio Copy V0.99 prebeta 4 from 23. January 2008

EAC extraction logfile from 5. May 2009, 1:37

Danny Elfman / Edward Scissorhands

Used drive : HL-DT-STDVD-RW GSA-H60L Adapter: 1 ID: 0

Read mode : Secure
Utilize accurate stream : Yes
Defeat audio cache : Yes
Make use of C2 pointers : No

Read offset correction : 667
Overread into Lead-In and Lead-Out : No
Fill up missing offset samples with silence : Yes
Delete leading and trailing silent blocks : No
Null samples used in CRC calculations : Yes
Used interface : Native Win32 interface for Win NT & 2000
Gap handling : Appended to previous track

Used output format : User Defined Encoder
Selected bitrate : 320 kBit/s
Quality : High
Add ID3 tag : No
Command line compressor : C:\Program Files\FLAC\flac.exe
Additional command line options : -V -5 -T \"artist=%a\" -T \"title=%t\" -T \"album=%g\" -T \"date=%y\" -T \"tracknumber=%n\" -T \"genre=%m\" %s


TOC of the extracted CD

Track | Start | Length | Start sector | End sector
––––––––––––––––––––––––––––-
1 | 0:00.00 | 2:36.67 | 0 | 11766
2 | 2:36.67 | 2:35.13 | 11767 | 23404
3 | 5:12.05 | 6:24.42 | 23405 | 52246
4 | 11:36.47 | 2:04.48 | 52247 | 61594
5 | 13:41.20 | 2:14.20 | 61595 | 71664
6 | 15:55.40 | 1:17.32 | 71665 | 77471
7 | 17:12.72 | 1:44.48 | 77472 | 85319
8 | 18:57.45 | 1:37.45 | 85320 | 92639
9 | 20:35.15 | 3:19.00 | 92640 | 107564
10 | 23:54.15 | 0:27.12 | 107565 | 109601
11 | 24:21.27 | 3:28.65 | 109602 | 125266
12 | 27:50.17 | 5:30.58 | 125267 | 150074
13 | 33:21.00 | 2:16.67 | 150075 | 160341
14 | 35:37.67 | 2:45.50 | 160342 | 172766
15 | 38:23.42 | 3:25.63 | 172767 | 188204
16 | 41:49.30 | 4:47.25 | 188205 | 209754
17 | 46:36.55 | 2:43.12 | 209755 | 221991


Track 1

Filename L:\EACrips\Edward Scissorhands [1990, EAC-CUE-LOG] - Danny Elfman\01 - Introduction (Titles).wav

Pre-gap length 0:00:02.00

Peak level 70.0 %
Track quality 100.0 %
Test CRC 02D1FA06
Copy CRC 02D1FA06
Track not present in AccurateRip database
Copy OK

Track 2

Filename L:\EACrips\Edward Scissorhands [1990, EAC-CUE-LOG] - Danny Elfman\02 - Storytime.wav

Peak level 60.8 %
Track quality 100.0 %
Test CRC 563B260E
Copy CRC 563B260E
Track not present in AccurateRip database
Copy OK

Track 3

Filename L:\EACrips\Edward Scissorhands [1990, EAC-CUE-LOG] - Danny Elfman\03 - Castle On The Hill.wav

Peak level 72.7 %
Track quality 100.0 %
Test CRC AA7867A1
Copy CRC AA7867A1
Track not present in AccurateRip database
Copy OK

Track 4

Filename L:\EACrips\Edward Scissorhands [1990, EAC-CUE-LOG] - Danny Elfman\04 - Beautiful New World,Home Sweet Home.wav

Peak level 57.9 %
Track quality 100.0 %
Test CRC F57455DE
Copy CRC F57455DE
Track not present in AccurateRip database
Copy OK

Track 5

Filename L:\EACrips\Edward Scissorhands [1990, EAC-CUE-LOG] - Danny Elfman\05 - The Cookie Factory.wav

Peak level 82.8 %
Track quality 100.0 %
Test CRC 48222B0F
Copy CRC 48222B0F
Track not present in AccurateRip database
Copy OK

Track 6

Filename L:\EACrips\Edward Scissorhands [1990, EAC-CUE-LOG] - Danny Elfman\06 - Ballet De Suburbia (Suite).wav

Peak level 80.5 %
Track quality 100.0 %
Test CRC F8A94B36
Copy CRC F8A94B36
Track not present in AccurateRip database
Copy OK

Track 7

Filename L:\EACrips\Edward Scissorhands [1990, EAC-CUE-LOG] - Danny Elfman\07 - Ice Dance.wav

Peak level 70.1 %
Track quality 100.0 %
Test CRC 6A2BF38F
Copy CRC 6A2BF38F
Track not present in AccurateRip database
Copy OK

Track 8

Filename L:\EACrips\Edward Scissorhands [1990, EAC-CUE-LOG] - Danny Elfman\08 - Etiquette Lesson.wav

Peak level 17.8 %
Track quality 100.0 %
Test CRC 740554D0
Copy CRC 740554D0
Track not present in AccurateRip database
Copy OK

Track 9

Filename L:\EACrips\Edward Scissorhands [1990, EAC-CUE-LOG] - Danny Elfman\09 - Edwardo The Barber.wav

Peak level 52.0 %
Track quality 100.0 %
Test CRC A652AFDE
Copy CRC A652AFDE
Track not present in AccurateRip database
Copy OK

Track 10

Filename L:\EACrips\Edward Scissorhands [1990, EAC-CUE-LOG] - Danny Elfman\10 - Esmeralda.wav

Peak level 20.0 %
Track quality 100.0 %
Test CRC BC6803FC
Copy CRC BC6803FC
Track not present in AccurateRip database
Copy OK

Track 11

Filename L:\EACrips\Edward Scissorhands [1990, EAC-CUE-LOG] - Danny Elfman\11 - Death!.wav

Peak level 60.0 %
Track quality 99.9 %
Test CRC 53BE03D0
Copy CRC 53BE03D0
Track not present in AccurateRip database
Copy OK

Track 12

Filename L:\EACrips\Edward Scissorhands [1990, EAC-CUE-LOG] - Danny Elfman\12 - The Tide Turns (Suite).wav

Peak level 94.4 %
Track quality 100.0 %
Test CRC D7DA7349
Copy CRC D7DA7349
Track not present in AccurateRip database
Copy OK

Track 13

Filename L:\EACrips\Edward Scissorhands [1990, EAC-CUE-LOG] - Danny Elfman\13 - The Final Confrontation.wav

Peak level 90.0 %
Track quality 100.0 %
Test CRC FDCB0BA4
Copy CRC FDCB0BA4
Track not present in AccurateRip database
Copy OK

Track 14

Filename L:\EACrips\Edward Scissorhands [1990, EAC-CUE-LOG] - Danny Elfman\14 - Farewell…..wav

Peak level 63.1 %
Track quality 100.0 %
Test CRC 3108F605
Copy CRC 3108F605
Track not present in AccurateRip database
Copy OK

Track 15

Filename L:\EACrips\Edward Scissorhands [1990, EAC-CUE-LOG] - Danny Elfman\15 - The Grand Finale.wav

Peak level 77.9 %
Track quality 100.0 %
Test CRC A254AE88
Copy CRC A254AE88
Track not present in AccurateRip database
Copy OK

Track 16

Filename L:\EACrips\Edward Scissorhands [1990, EAC-CUE-LOG] - Danny Elfman\16 - The End.wav

Peak level 64.6 %
Track quality 100.0 %
Test CRC 2F06F559
Copy CRC 2F06F559
Track not present in AccurateRip database
Copy OK

Track 17

Filename L:\EACrips\Edward Scissorhands [1990, EAC-CUE-LOG] - Danny Elfman\17 - With These Hands - Performed by Tom Jones.wav

Peak level 26.7 %
Track quality 100.0 %
Test CRC 8494994F
Copy CRC 8494994F
Track not present in AccurateRip database
Copy OK


None of the tracks are present in the AccurateRip database

No errors occurred

End of status report

foobar2000 1.2.1 / Dynamic Range Meter 1.1.1
log date: 2013-02-02 18:35:03

––––––––––––––––––––––––––––––––––––––––
Analyzed: Danny Elfman / Edward Scissorhands (1-16)
Tom Jones / Edward Scissorhands (17)
––––––––––––––––––––––––––––––––––––––––

DR Peak RMS Duration Track
––––––––––––––––––––––––––––––––––––––––
DR11 -3.10 dB -19.41 dB 2:37 01-Introduction (Titles)
DR13 -4.31 dB -22.45 dB 2:35 02-Storytime
DR13 -2.76 dB -21.97 dB 6:25 03-Castle on the Hill
DR13 -4.75 dB -24.80 dB 2:05 04-Beautiful New World / Home Sweet Home
DR12 -1.63 dB -20.04 dB 2:14 05-The Cookie Factory
DR11 -1.88 dB -20.18 dB 1:17 06-Ballet de Suburbia (Suite)
DR10 -3.09 dB -17.78 dB 1:45 07-Ice Dance
DR11 -14.97 dB -29.29 dB 1:38 08-Etiquette Lesson
DR12 -5.67 dB -22.02 dB 3:19 09-Edwardo the Barber
DR11 -13.96 dB -33.25 dB 0:27 10-Esmeralda
DR12 -4.43 dB -24.34 dB 3:29 11-Death!
DR12 -0.49 dB -17.73 dB 5:31 12-The Tide Turns (Suite)
DR13 -0.91 dB -19.02 dB 2:17 13-The Final Confrontation
DR12 -4.00 dB -22.47 dB 2:46 14-Farewell….
DR11 -2.16 dB -18.81 dB 3:26 15-The Grand Finale
DR12 -3.78 dB -22.55 dB 4:47 16-The End
DR10 -11.47 dB -24.30 dB 2:43 17-With These Hands
––––––––––––––––––––––––––––––––––––––––

Number of tracks: 17
Official DR value: DR12

Samplerate: 44100 Hz
Channels: 2
Bits per sample: 16
Bitrate: 648 kbps
Codec: FLAC
================================================================================

Danny Elfman - Edward Scissorhands: Original Motion Picture Soundtrack (1990)

Danny Elfman - Edward Scissorhands: Original Motion Picture Soundtrack (1990)

All thanks to original releaser - kegorogers

More interesting music in My Blog