Subcategories
Tags
Language
Tags

Daryl Hall & John Oates - The Box Set Series (2014)

Posted By: v3122
Daryl Hall & John Oates - The Box Set Series (2014)

Daryl Hall & John Oates - The Box Set Series (2014)
EAC | Flac(Image) + Cue + Log
4CD | Legacy, 88843018082 | ~ 1176 Mb
Pop, Pop Rock, Blue-Eyed Soul

Stocked with all of the hits, as well as a few more deep cuts than 2009's like-minded yet far more ornate and lengthy Do What You Want, Be What You Are: The Music of Daryl Hall & John Oates, this 2014 four-disc box set may not have all of the bells and whistles of its predecessor, but it's got a better price point and would serve most casual fans (and some hardcore ones) well, especially those looking for something a little more substantial than the standard single-disc career overview and a little less expansive than the 74-track Do What You Want, Be What You Are.

by James Christopher Monger, allmusic
Daryl Hall & John Oates - The Box Set Series (2014):

Tracklist CD1:

01. Sara Smile (03:09)
02. Alone Too Long (03:22)
03. Camellia (02:48)
04. Do What You Want, Be What You Are (04:35)
05. Rich Girl (02:25)
06. Crazy Eyes (03:03)
07. Back Together Again (03:26)
08. Room To Breathe (Live) (04:09)
09. The Girl Who Used To Be (04:11)
10. August Day (03:04)

Exact Audio Copy V1.0 beta 3 from 29. August 2011

EAC extraction logfile from 28. May 2014, 16:23

Daryl Hall & John Oates / The Box Set Series CD1

Used drive : HL-DT-STBD-RE WH16NS40 Adapter: 4 ID: 0

Read mode : Secure
Utilize accurate stream : Yes
Defeat audio cache : Yes
Make use of C2 pointers : No

Read offset correction : 6
Overread into Lead-In and Lead-Out : No
Fill up missing offset samples with silence : Yes
Delete leading and trailing silent blocks : No
Null samples used in CRC calculations : Yes
Used interface : Installed external ASPI interface
Gap handling : Appended to previous track

Used output format : User Defined Encoder
Selected bitrate : 1024 kBit/s
Quality : High
Add ID3 tag : No
Command line compressor : C:\Program Files (x86)\Exact Audio Copy\FLAC\FLAC.EXE
Additional command line options : -8 -V -T "ARTIST=%artist%" -T "TITLE=%title%" -T "ALBUM=%albumtitle%" -T "DATE=%year%" -T "TRACKNUMBER=%tracknr%" -T "GENRE=%genre%" -T "PERFORMER=%albuminterpret%" -T "COMPOSER=%composer%" %haslyrics%–tag-from-file=LYRICS="%lyricsfile%"%haslyrics% -T "ALBUMARTIST=%albumartist%" -T "DISCNUMBER=%cdnumber%" -T "TOTALDISCS=%totalcds%" -T "TOTALTRACKS=%numtracks%" -T "COMMENT=%comment%" %source% -o %dest%


TOC of the extracted CD

Track | Start | Length | Start sector | End sector
––––––––––––––––––––––––––––-
1 | 0:00.00 | 3:09.46 | 0 | 14220
2 | 3:09.46 | 3:22.50 | 14221 | 29420
3 | 6:32.21 | 2:48.64 | 29421 | 42084
4 | 9:21.10 | 4:35.32 | 42085 | 62741
5 | 13:56.42 | 2:25.24 | 62742 | 73640
6 | 16:21.66 | 3:03.60 | 73641 | 87425
7 | 19:25.51 | 3:26.44 | 87426 | 102919
8 | 22:52.20 | 4:08.73 | 102920 | 121592
9 | 27:01.18 | 4:11.62 | 121593 | 140479
10 | 31:13.05 | 3:04.48 | 140480 | 154327


Track 1

Filename D:\Uploads\Daryl Hall & John Oates - The Box Set Series (2014) [FLAC]\CD1\01 - Sara Smile.wav

Pre-gap length 0:00:02.00

Peak level 100.0 %
Extraction speed 2.2 X
Track quality 100.0 %
Test CRC CDFCE46E
Copy CRC CDFCE46E
Track not present in AccurateRip database
Copy OK

Track 2

Filename D:\Uploads\Daryl Hall & John Oates - The Box Set Series (2014) [FLAC]\CD1\02 - Alone Too Long.wav

Pre-gap length 0:00:01.37

Peak level 100.0 %
Extraction speed 1.2 X
Track quality 100.0 %
Test CRC BDAD662C
Copy CRC BDAD662C
Track not present in AccurateRip database
Copy OK

Track 3

Filename D:\Uploads\Daryl Hall & John Oates - The Box Set Series (2014) [FLAC]\CD1\03 - Camellia.wav

Pre-gap length 0:00:01.02

Peak level 100.0 %
Extraction speed 1.3 X
Track quality 100.0 %
Test CRC A78A2742
Copy CRC A78A2742
Track not present in AccurateRip database
Copy OK

Track 4

Filename D:\Uploads\Daryl Hall & John Oates - The Box Set Series (2014) [FLAC]\CD1\04 - Do What You Want, Be What You Are.wav

Pre-gap length 0:00:01.09

Peak level 74.2 %
Extraction speed 1.4 X
Track quality 100.0 %
Test CRC 1F6D6FD3
Copy CRC 1F6D6FD3
Track not present in AccurateRip database
Copy OK

Track 5

Filename D:\Uploads\Daryl Hall & John Oates - The Box Set Series (2014) [FLAC]\CD1\05 - Rich Girl.wav

Pre-gap length 0:00:00.68

Peak level 100.0 %
Extraction speed 1.4 X
Track quality 100.0 %
Test CRC 10F04060
Copy CRC 10F04060
Track not present in AccurateRip database
Copy OK

Track 6

Filename D:\Uploads\Daryl Hall & John Oates - The Box Set Series (2014) [FLAC]\CD1\06 - Crazy Eyes.wav

Pre-gap length 0:00:01.05

Peak level 97.0 %
Extraction speed 1.5 X
Track quality 100.0 %
Test CRC 9242B55A
Copy CRC 9242B55A
Track not present in AccurateRip database
Copy OK

Track 7

Filename D:\Uploads\Daryl Hall & John Oates - The Box Set Series (2014) [FLAC]\CD1\07 - Back Together Again.wav

Pre-gap length 0:00:01.44

Peak level 90.2 %
Extraction speed 1.6 X
Track quality 100.0 %
Test CRC C73E12B3
Copy CRC C73E12B3
Track not present in AccurateRip database
Copy OK

Track 8

Filename D:\Uploads\Daryl Hall & John Oates - The Box Set Series (2014) [FLAC]\CD1\08 - Room to Breathe.wav

Pre-gap length 0:00:01.28

Peak level 68.4 %
Extraction speed 1.5 X
Track quality 99.9 %
Test CRC 902BF4C3
Copy CRC 902BF4C3
Track not present in AccurateRip database
Copy OK

Track 9

Filename D:\Uploads\Daryl Hall & John Oates - The Box Set Series (2014) [FLAC]\CD1\09 - The Girl Who Used To Be.wav

Pre-gap length 0:00:01.93

Peak level 71.8 %
Extraction speed 1.8 X
Track quality 100.0 %
Test CRC BE91767B
Copy CRC BE91767B
Track not present in AccurateRip database
Copy OK

Track 10

Filename D:\Uploads\Daryl Hall & John Oates - The Box Set Series (2014) [FLAC]\CD1\10 - August Day.wav

Pre-gap length 0:00:01.70

Peak level 92.7 %
Extraction speed 1.8 X
Track quality 100.0 %
Test CRC 3FD98299
Copy CRC 3FD98299
Track not present in AccurateRip database
Copy OK


None of the tracks are present in the AccurateRip database

No errors occurred

End of status report

–– CUETools DB Plugin V2.1.4

[CTDB TOCID: hBhnAH6.68dUTP8wEmxru1pCiz4-] disk not present in database
Submit result: hBhnAH6.68dUTP8wEmxru1pCiz4- has been uploaded


==== Log checksum 699367039BFE223ACF36E684DBBF3902866DDFA567AFF7F8B6433A1A34C2107D ====


[CUETools log; Date: 11.06.2021 10:41:33; Version: 2.1.4]
[AccurateRip ID: 000ca5b9-0065d131-9108090a] found.
Track [ CRC | V2 ] Status
01 [40296edf|7566662b] (00+11/11) Accurately ripped
02 [062c777e|1fda801e] (00+11/11) Accurately ripped
03 [257b3364|a9bf2d7e] (00+11/11) Accurately ripped
04 [1d2d012f|1b2a35c6] (00+11/11) Accurately ripped
05 [39468ac3|574af93e] (00+11/11) Accurately ripped
06 [f830c095|f3146005] (00+11/11) Accurately ripped
07 [45cc83bf|95d75e92] (00+11/11) Accurately ripped
08 [9af4ebf4|31a3e940] (00+11/11) Accurately ripped
09 [bf314e3c|d240856e] (00+11/11) Accurately ripped
10 [89e46dc9|fddac06b] (00+11/11) Accurately ripped

Track Peak [ CRC32 ] [W/O NULL] [ LOG ]
– 100,0 [BE2B1222] [78E48380]
01 100,0 [CDFCE46E] [F6CFA993] CRC32
02 100,0 [BDAD662C] [176D538E] CRC32
03 100,0 [A78A2742] [19D2C7F8] CRC32
04 74,2 [1F6D6FD3] [3358C914] CRC32
05 99,9 [10F04060] [8649F514] CRC32
06 97,0 [9242B55A] [EBEC119D] CRC32
07 90,2 [C73E12B3] [BD528DD6] CRC32
08 68,4 [902BF4C3] [EABD9292] CRC32
09 71,8 [BE91767B] [9AC52E76] CRC32
10 92,7 [3FD98299] [AFA12B3B] CRC32


Tracklist CD2:

01. It's A Laugh (03:49)
02. Melody For A Memory (04:52)
03. The Last Time (02:52)
04. I Don't Wanna Lose You (03:47)
05. Wait For Me (04:08)
06. You Make My Dreams (03:11)
07. How Does It Feel To Be Back (04:35)
08. Kiss On My List (04:24)
09. Hard To Be In Love With You (03:40)
10. You've Lost That Lovin' Feeling (04:37)
11. Everytime You Go Away (05:22)

Exact Audio Copy V1.0 beta 3 from 29. August 2011

EAC extraction logfile from 28. May 2014, 21:35

Daryl Hall & John Oates / The Box Set Series CD2

Used drive : HL-DT-STBD-RE WH16NS40 Adapter: 2 ID: 0

Read mode : Secure
Utilize accurate stream : Yes
Defeat audio cache : Yes
Make use of C2 pointers : No

Read offset correction : 6
Overread into Lead-In and Lead-Out : No
Fill up missing offset samples with silence : Yes
Delete leading and trailing silent blocks : No
Null samples used in CRC calculations : Yes
Used interface : Installed external ASPI interface
Gap handling : Appended to previous track

Used output format : User Defined Encoder
Selected bitrate : 1024 kBit/s
Quality : High
Add ID3 tag : No
Command line compressor : C:\Program Files (x86)\Exact Audio Copy\FLAC\FLAC.EXE
Additional command line options : -8 -V -T "ARTIST=%artist%" -T "TITLE=%title%" -T "ALBUM=%albumtitle%" -T "DATE=%year%" -T "TRACKNUMBER=%tracknr%" -T "GENRE=%genre%" -T "PERFORMER=%albuminterpret%" -T "COMPOSER=%composer%" %haslyrics%–tag-from-file=LYRICS="%lyricsfile%"%haslyrics% -T "ALBUMARTIST=%albumartist%" -T "DISCNUMBER=%cdnumber%" -T "TOTALDISCS=%totalcds%" -T "TOTALTRACKS=%numtracks%" -T "COMMENT=%comment%" %source% -o %dest%


TOC of the extracted CD

Track | Start | Length | Start sector | End sector
––––––––––––––––––––––––––––-
1 | 0:00.00 | 3:49.49 | 0 | 17223
2 | 3:49.49 | 4:52.28 | 17224 | 39151
3 | 8:42.02 | 2:52.13 | 39152 | 52064
4 | 11:34.15 | 3:47.31 | 52065 | 69120
5 | 15:21.46 | 4:08.37 | 69121 | 87757
6 | 19:30.08 | 3:11.40 | 87758 | 102122
7 | 22:41.48 | 4:35.45 | 102123 | 122792
8 | 27:17.18 | 4:24.41 | 122793 | 142633
9 | 31:41.59 | 3:40.38 | 142634 | 159171
10 | 35:22.22 | 4:37.42 | 159172 | 179988
11 | 39:59.64 | 5:22.30 | 179989 | 204168


Track 1

Filename D:\Uploads\Daryl Hall & John Oates - The Box Set Series (2014) [FLAC]\CD2\01 - It's A Laugh.wav

Pre-gap length 0:00:02.00

Peak level 98.7 %
Extraction speed 4.6 X
Track quality 100.0 %
Test CRC 3967BA51
Copy CRC 3967BA51
Track not present in AccurateRip database
Copy OK

Track 2

Filename D:\Uploads\Daryl Hall & John Oates - The Box Set Series (2014) [FLAC]\CD2\02 - Melody For A Memory.wav

Peak level 100.0 %
Extraction speed 3.2 X
Track quality 100.0 %
Test CRC C2BB3999
Copy CRC C2BB3999
Track not present in AccurateRip database
Copy OK

Track 3

Filename D:\Uploads\Daryl Hall & John Oates - The Box Set Series (2014) [FLAC]\CD2\03 - The Last Time.wav

Pre-gap length 0:00:00.97

Peak level 100.0 %
Extraction speed 1.3 X
Track quality 100.0 %
Test CRC 885ED46A
Copy CRC 885ED46A
Track not present in AccurateRip database
Copy OK

Track 4

Filename D:\Uploads\Daryl Hall & John Oates - The Box Set Series (2014) [FLAC]\CD2\04 - I Don't Wanna Lose You.wav

Pre-gap length 0:00:01.00

Peak level 98.5 %
Extraction speed 1.3 X
Track quality 99.9 %
Test CRC AEF21D54
Copy CRC AEF21D54
Track not present in AccurateRip database
Copy OK

Track 5

Filename D:\Uploads\Daryl Hall & John Oates - The Box Set Series (2014) [FLAC]\CD2\05 - Wait For Me.wav

Pre-gap length 0:00:01.52

Peak level 93.7 %
Extraction speed 1.6 X
Track quality 100.0 %
Test CRC 0CF02AD9
Copy CRC 0CF02AD9
Track not present in AccurateRip database
Copy OK

Track 6

Filename D:\Uploads\Daryl Hall & John Oates - The Box Set Series (2014) [FLAC]\CD2\06 - You Make My Dreams.wav

Pre-gap length 0:00:01.80

Peak level 100.0 %
Extraction speed 1.4 X
Track quality 99.9 %
Test CRC 5B501CFA
Copy CRC 5B501CFA
Track not present in AccurateRip database
Copy OK

Track 7

Filename D:\Uploads\Daryl Hall & John Oates - The Box Set Series (2014) [FLAC]\CD2\07 - How Does It Feel To Be Back.wav

Pre-gap length 0:00:00.85

Peak level 98.5 %
Extraction speed 1.7 X
Track quality 100.0 %
Test CRC 1E02A131
Copy CRC 1E02A131
Track not present in AccurateRip database
Copy OK

Track 8

Filename D:\Uploads\Daryl Hall & John Oates - The Box Set Series (2014) [FLAC]\CD2\08 - Kiss On My List.wav

Pre-gap length 0:00:01.12

Peak level 100.0 %
Extraction speed 1.8 X
Track quality 100.0 %
Test CRC F6156125
Copy CRC F6156125
Track not present in AccurateRip database
Copy OK

Track 9

Filename D:\Uploads\Daryl Hall & John Oates - The Box Set Series (2014) [FLAC]\CD2\09 - Hard To Be In Love With You.wav

Pre-gap length 0:00:01.28

Peak level 100.0 %
Extraction speed 1.8 X
Track quality 100.0 %
Test CRC 3F1DC05C
Copy CRC 3F1DC05C
Track not present in AccurateRip database
Copy OK

Track 10

Filename D:\Uploads\Daryl Hall & John Oates - The Box Set Series (2014) [FLAC]\CD2\10 - You've Lost That Lovin' Feeling.wav

Pre-gap length 0:00:01.29

Peak level 100.0 %
Extraction speed 1.8 X
Track quality 99.9 %
Test CRC 56F74F8A
Copy CRC 56F74F8A
Track not present in AccurateRip database
Copy OK

Track 11

Filename D:\Uploads\Daryl Hall & John Oates - The Box Set Series (2014) [FLAC]\CD2\11 - Everytime You Go Away.wav

Pre-gap length 0:00:01.06

Peak level 69.7 %
Extraction speed 1.9 X
Track quality 99.9 %
Test CRC D0BB05C5
Copy CRC D0BB05C5
Track not present in AccurateRip database
Copy OK


None of the tracks are present in the AccurateRip database

No errors occurred

End of status report

–– CUETools DB Plugin V2.1.4

[CTDB TOCID: KtkvwdJByxl9VZLtBl9xCafBMcg-] found
Submit result: already submitted
Track | CTDB Status
1 | (1/1) Accurately ripped
2 | (1/1) Accurately ripped
3 | (1/1) Accurately ripped
4 | (1/1) Accurately ripped
5 | (1/1) Accurately ripped
6 | (1/1) Accurately ripped
7 | (1/1) Accurately ripped
8 | (1/1) Accurately ripped
9 | (1/1) Accurately ripped
10 | (1/1) Accurately ripped
11 | (1/1) Accurately ripped


==== Log checksum 1FD3F794748F9BE505A6810429959CBF4632532D2EDE6816DA9C7A04FCC4DB73 ====


[CUETools log; Date: 11.06.2021 10:47:54; Version: 2.1.4]
[AccurateRip ID: 0011f288-009c2be8-7e0aa20b] found.
Track [ CRC | V2 ] Status
01 [6405bb62|f81fefe4] (0+7/7) Accurately ripped
02 [f992ecdd|7fdba7f4] (0+7/7) Accurately ripped
03 [acd4012c|9402362f] (0+8/8) Accurately ripped
04 [377f5655|88e4edea] (0+7/7) Accurately ripped
05 [9c0e9256|de304776] (0+7/7) Accurately ripped
06 [90703784|416312ab] (0+7/7) Accurately ripped
07 [2b44eb3f|b482b868] (0+7/7) Accurately ripped
08 [bd967f32|5f10b7de] (0+7/7) Accurately ripped
09 [958a54d8|68da9460] (0+7/7) Accurately ripped
10 [bc8631ce|9f9e988c] (0+6/6) Accurately ripped
11 [85e04536|109bffc2] (0+8/8) Accurately ripped

Track Peak [ CRC32 ] [W/O NULL] [ LOG ]
– 100,0 [AAAE01BE] [144EA073]
01 98,7 [3967BA51] [6431AC43] CRC32
02 100,0 [C2BB3999] [96F7AB6B] CRC32
03 100,0 [885ED46A] [8EAC663F] CRC32
04 98,5 [AEF21D54] [0E99D3FE] CRC32
05 93,7 [0CF02AD9] [8993E14A] CRC32
06 100,0 [5B501CFA] [4328B7E0] CRC32
07 98,5 [1E02A131] [14D6DB6A] CRC32
08 100,0 [F6156125] [5793AFB6] CRC32
09 100,0 [3F1DC05C] [6CF84D82] CRC32
10 100,0 [56F74F8A] [99C9EF20] CRC32
11 69,7 [D0BB05C5] [063F569C] CRC32


Tracklist CD3:

01. Head Above Water (03:36)
02. Private Eyes (03:28)
03. Looking For A Good Sign (Previously Unreleased Single Mix) (03:55)
04. I Can't Go For That (No Can Do) (05:08)
05. Did It In A Minute (03:39)
06. She's Gone (Live) (05:27)
07. Maneater (04:33)
08. One On One (04:18)
09. Family Man (03:26)
10. Italian Girls (03:17)
11. Go Solo (04:34)

Exact Audio Copy V1.0 beta 3 from 29. August 2011

EAC extraction logfile from 28. May 2014, 21:35

Daryl Hall & John Oates / The Box Set Series CD3

Used drive : HL-DT-STBD-RE WH16NS40 Adapter: 4 ID: 0

Read mode : Secure
Utilize accurate stream : Yes
Defeat audio cache : Yes
Make use of C2 pointers : No

Read offset correction : 6
Overread into Lead-In and Lead-Out : No
Fill up missing offset samples with silence : Yes
Delete leading and trailing silent blocks : No
Null samples used in CRC calculations : Yes
Used interface : Installed external ASPI interface
Gap handling : Appended to previous track

Used output format : User Defined Encoder
Selected bitrate : 1024 kBit/s
Quality : High
Add ID3 tag : No
Command line compressor : C:\Program Files (x86)\Exact Audio Copy\FLAC\FLAC.EXE
Additional command line options : -8 -V -T "ARTIST=%artist%" -T "TITLE=%title%" -T "ALBUM=%albumtitle%" -T "DATE=%year%" -T "TRACKNUMBER=%tracknr%" -T "GENRE=%genre%" -T "PERFORMER=%albuminterpret%" -T "COMPOSER=%composer%" %haslyrics%–tag-from-file=LYRICS="%lyricsfile%"%haslyrics% -T "ALBUMARTIST=%albumartist%" -T "DISCNUMBER=%cdnumber%" -T "TOTALDISCS=%totalcds%" -T "TOTALTRACKS=%numtracks%" -T "COMMENT=%comment%" %source% -o %dest%


TOC of the extracted CD

Track | Start | Length | Start sector | End sector
––––––––––––––––––––––––––––-
1 | 0:00.00 | 3:36.30 | 0 | 16229
2 | 3:36.30 | 3:27.73 | 16230 | 31827
3 | 7:04.28 | 3:55.48 | 31828 | 49500
4 | 11:00.01 | 5:08.15 | 49501 | 72615
5 | 16:08.16 | 3:39.05 | 72616 | 89045
6 | 19:47.21 | 5:27.57 | 89046 | 113627
7 | 25:15.03 | 4:33.25 | 113628 | 134127
8 | 29:48.28 | 4:18.05 | 134128 | 153482
9 | 34:06.33 | 3:26.50 | 153483 | 168982
10 | 37:33.08 | 3:17.34 | 168983 | 183791
11 | 40:50.42 | 4:34.33 | 183792 | 204374


Track 1

Filename D:\Uploads\Daryl Hall & John Oates - The Box Set Series (2014) [FLAC]\CD3\01 - Head Above Water.wav

Pre-gap length 0:00:02.00

Peak level 80.8 %
Extraction speed 1.6 X
Track quality 100.0 %
Test CRC 4A41F440
Copy CRC 4A41F440
Track not present in AccurateRip database
Copy OK

Track 2

Filename D:\Uploads\Daryl Hall & John Oates - The Box Set Series (2014) [FLAC]\CD3\02 - Private Eyes.wav

Pre-gap length 0:00:01.16

Peak level 69.0 %
Extraction speed 1.2 X
Track quality 100.0 %
Test CRC 56EAFB37
Copy CRC 56EAFB37
Track not present in AccurateRip database
Copy OK

Track 3

Filename D:\Uploads\Daryl Hall & John Oates - The Box Set Series (2014) [FLAC]\CD3\03 - Looking for a Good Sign [Previously Unreleased Single Mix].wav

Pre-gap length 0:00:00.26

Peak level 85.3 %
Extraction speed 1.4 X
Track quality 100.0 %
Test CRC 7566E7BB
Copy CRC 7566E7BB
Track not present in AccurateRip database
Copy OK

Track 4

Filename D:\Uploads\Daryl Hall & John Oates - The Box Set Series (2014) [FLAC]\CD3\04 - I Can't Go For That (No Can Do).wav

Pre-gap length 0:00:00.65

Peak level 100.0 %
Extraction speed 1.5 X
Track quality 100.0 %
Test CRC 5397CA9C
Copy CRC 5397CA9C
Track not present in AccurateRip database
Copy OK

Track 5

Filename D:\Uploads\Daryl Hall & John Oates - The Box Set Series (2014) [FLAC]\CD3\05 - Did It In A Minute.wav

Pre-gap length 0:00:01.10

Peak level 94.7 %
Extraction speed 1.6 X
Track quality 100.0 %
Test CRC 1240EA3B
Copy CRC 1240EA3B
Track not present in AccurateRip database
Copy OK

Track 6

Filename D:\Uploads\Daryl Hall & John Oates - The Box Set Series (2014) [FLAC]\CD3\06 - She's Gone.wav

Pre-gap length 0:00:01.85

Peak level 77.6 %
Extraction speed 1.7 X
Track quality 100.0 %
Test CRC 4934D137
Copy CRC 4934D137
Track not present in AccurateRip database
Copy OK

Track 7

Filename D:\Uploads\Daryl Hall & John Oates - The Box Set Series (2014) [FLAC]\CD3\07 - Maneater.wav

Pre-gap length 0:00:01.93

Peak level 100.0 %
Extraction speed 1.8 X
Track quality 100.0 %
Test CRC E96C0366
Copy CRC E96C0366
Track not present in AccurateRip database
Copy OK

Track 8

Filename D:\Uploads\Daryl Hall & John Oates - The Box Set Series (2014) [FLAC]\CD3\08 - One On One.wav

Pre-gap length 0:00:01.54

Peak level 96.9 %
Extraction speed 1.9 X
Track quality 100.0 %
Test CRC 1E09B38D
Copy CRC 1E09B38D
Track not present in AccurateRip database
Copy OK

Track 9

Filename D:\Uploads\Daryl Hall & John Oates - The Box Set Series (2014) [FLAC]\CD3\09 - Family Man.wav

Pre-gap length 0:00:01.02

Peak level 69.8 %
Extraction speed 1.9 X
Track quality 100.0 %
Test CRC 55EE098E
Copy CRC 55EE098E
Track not present in AccurateRip database
Copy OK

Track 10

Filename D:\Uploads\Daryl Hall & John Oates - The Box Set Series (2014) [FLAC]\CD3\10 - Italian Girls.wav

Pre-gap length 0:00:01.18

Peak level 100.0 %
Extraction speed 1.9 X
Track quality 100.0 %
Test CRC A676643B
Copy CRC A676643B
Track not present in AccurateRip database
Copy OK

Track 11

Filename D:\Uploads\Daryl Hall & John Oates - The Box Set Series (2014) [FLAC]\CD3\11 - Go Solo.wav

Pre-gap length 0:00:01.26

Peak level 98.0 %
Extraction speed 2.1 X
Track quality 100.0 %
Test CRC 32F8E378
Copy CRC 32F8E378
Track not present in AccurateRip database
Copy OK


None of the tracks are present in the AccurateRip database

No errors occurred

End of status report

–– CUETools DB Plugin V2.1.4

[CTDB TOCID: OCMwHPVcPIHlUKBRrRrp8_otuCQ-] found
Submit result: already submitted
Track | CTDB Status
1 | (1/1) Accurately ripped
2 | (1/1) Accurately ripped
3 | (1/1) Accurately ripped
4 | (1/1) Accurately ripped
5 | (1/1) Accurately ripped
6 | (1/1) Accurately ripped
7 | (1/1) Accurately ripped
8 | (1/1) Accurately ripped
9 | (1/1) Accurately ripped
10 | (1/1) Accurately ripped
11 | (1/1) Accurately ripped


==== Log checksum 146CA36216C36F496516BF05329A126D97DADCBB09B1FF55E8189101277C753D ====


[CUETools log; Date: 11.06.2021 10:50:29; Version: 2.1.4]
[AccurateRip ID: 0012944a-00a24f3a-920aa50b] found.
Track [ CRC | V2 ] Status
01 [76a40a10|1efbfa4e] (00+11/11) Accurately ripped
02 [de8686e1|3769269e] (00+11/11) Accurately ripped
03 [3a751bd7|acbbfa58] (00+12/12) Accurately ripped
04 [9a661e0a|c32a49a1] (00+11/11) Accurately ripped
05 [023d390c|f941d517] (00+11/11) Accurately ripped
06 [6e2dddbb|a17bf37d] (00+11/11) Accurately ripped
07 [a020b20b|13bf626d] (00+11/11) Accurately ripped
08 [f32591ac|72193199] (00+11/11) Accurately ripped
09 [d530122a|95fc78d0] (00+11/11) Accurately ripped
10 [955b5f90|b27757b3] (00+11/11) Accurately ripped
11 [bdb301a0|987578ca] (00+11/11) Accurately ripped

Track Peak [ CRC32 ] [W/O NULL] [ LOG ]
– 100,0 [5C4533FD] [87CB5D14]
01 80,8 [4A41F440] [598863E5] CRC32
02 69,0 [56EAFB37] [2B4541A3] CRC32
03 85,3 [7566E7BB] [1BD898DA] CRC32
04 100,0 [5397CA9C] [26E2248A] CRC32
05 94,7 [1240EA3B] [FCD32DED] CRC32
06 77,6 [4934D137] [82C0EE94] CRC32
07 100,0 [E96C0366] [6CD08FD9] CRC32
08 96,9 [1E09B38D] [843CFCF0] CRC32
09 69,8 [55EE098E] [9B811DBB] CRC32
10 100,0 [A676643B] [44F74115] CRC32
11 98,0 [32F8E378] [B8568D8D] CRC32


Tracklist CD4:

01. Say It Isn't So (04:17)
02. Dance On Your Knees (01:26)
03. Out Of Touch (04:22)
04. Method Of Modern Love (05:33)
05. Some Things Are Better Left Unsaid (05:26)
06. Possession Obsession (04:37)
07. Adult Education (Live) (06:23)
08. Downtown Life (04:29)
09. Everything Your Heart Desires (05:01)
10. Give It Up (Old Habits) (04:01)
11. So Close (04:41)
12. Starting All Over Again (Radio Remix) (03:38)

Exact Audio Copy V1.0 beta 3 from 29. August 2011

EAC extraction logfile from 28. May 2014, 21:35

Daryl Hall & John Oates / The Box Set Series CD4

Used drive : HL-DT-STBD-RE WH16NS40 Adapter: 4 ID: 1

Read mode : Secure
Utilize accurate stream : Yes
Defeat audio cache : Yes
Make use of C2 pointers : No

Read offset correction : 6
Overread into Lead-In and Lead-Out : No
Fill up missing offset samples with silence : Yes
Delete leading and trailing silent blocks : No
Null samples used in CRC calculations : Yes
Used interface : Installed external ASPI interface
Gap handling : Appended to previous track

Used output format : User Defined Encoder
Selected bitrate : 1024 kBit/s
Quality : High
Add ID3 tag : No
Command line compressor : C:\Program Files (x86)\Exact Audio Copy\FLAC\FLAC.EXE
Additional command line options : -8 -V -T "ARTIST=%artist%" -T "TITLE=%title%" -T "ALBUM=%albumtitle%" -T "DATE=%year%" -T "TRACKNUMBER=%tracknr%" -T "GENRE=%genre%" -T "PERFORMER=%albuminterpret%" -T "COMPOSER=%composer%" %haslyrics%–tag-from-file=LYRICS="%lyricsfile%"%haslyrics% -T "ALBUMARTIST=%albumartist%" -T "DISCNUMBER=%cdnumber%" -T "TOTALDISCS=%totalcds%" -T "TOTALTRACKS=%numtracks%" -T "COMMENT=%comment%" %source% -o %dest%


TOC of the extracted CD

Track | Start | Length | Start sector | End sector
––––––––––––––––––––––––––––-
1 | 0:00.00 | 4:16.74 | 0 | 19273
2 | 4:16.74 | 1:26.24 | 19274 | 25747
3 | 5:43.23 | 4:22.08 | 25748 | 45405
4 | 10:05.31 | 5:33.52 | 45406 | 70432
5 | 15:39.08 | 5:25.68 | 70433 | 94875
6 | 21:05.01 | 4:37.31 | 94876 | 115681
7 | 25:42.32 | 6:23.18 | 115682 | 144424
8 | 32:05.50 | 4:28.68 | 144425 | 164592
9 | 36:34.43 | 5:01.25 | 164593 | 187192
10 | 41:35.68 | 4:01.51 | 187193 | 205318
11 | 45:37.44 | 4:41.24 | 205319 | 226417
12 | 50:18.68 | 3:38.28 | 226418 | 242795


Track 1

Filename D:\Uploads\Daryl Hall & John Oates - The Box Set Series (2014) [FLAC]\CD4\01 - Say It Isn't So.wav

Pre-gap length 0:00:02.00

Peak level 73.6 %
Extraction speed 1.1 X
Track quality 99.9 %
Test CRC 305346FA
Copy CRC 305346FA
Track not present in AccurateRip database
Copy OK

Track 2

Filename D:\Uploads\Daryl Hall & John Oates - The Box Set Series (2014) [FLAC]\CD4\02 - Dance On Your Knees.wav

Peak level 93.7 %
Extraction speed 0.7 X
Track quality 99.8 %
Test CRC C4BA4AD1
Copy CRC C4BA4AD1
Track not present in AccurateRip database
Copy OK

Track 3

Filename D:\Uploads\Daryl Hall & John Oates - The Box Set Series (2014) [FLAC]\CD4\03 - Out Of Touch.wav

Peak level 89.1 %
Extraction speed 1.3 X
Track quality 100.0 %
Test CRC 6276B33C
Copy CRC 6276B33C
Track not present in AccurateRip database
Copy OK

Track 4

Filename D:\Uploads\Daryl Hall & John Oates - The Box Set Series (2014) [FLAC]\CD4\04 - Method Of Modern Love.wav

Pre-gap length 0:00:01.62

Peak level 97.4 %
Extraction speed 1.5 X
Track quality 100.0 %
Test CRC 20F14BE6
Copy CRC 20F14BE6
Track not present in AccurateRip database
Copy OK

Track 5

Filename D:\Uploads\Daryl Hall & John Oates - The Box Set Series (2014) [FLAC]\CD4\05 - Some Things Are Better Left Unsaid.wav

Pre-gap length 0:00:00.93

Peak level 96.1 %
Extraction speed 1.6 X
Track quality 100.0 %
Test CRC CFC963DD
Copy CRC CFC963DD
Track not present in AccurateRip database
Copy OK

Track 6

Filename D:\Uploads\Daryl Hall & John Oates - The Box Set Series (2014) [FLAC]\CD4\06 - Possession Obsession.wav

Pre-gap length 0:00:01.09

Peak level 84.9 %
Extraction speed 1.7 X
Track quality 100.0 %
Test CRC 754929AC
Copy CRC 754929AC
Track not present in AccurateRip database
Copy OK

Track 7

Filename D:\Uploads\Daryl Hall & John Oates - The Box Set Series (2014) [FLAC]\CD4\07 - Adult Education.wav

Pre-gap length 0:00:01.72

Peak level 95.9 %
Extraction speed 1.9 X
Track quality 100.0 %
Test CRC 55105138
Copy CRC 55105138
Track not present in AccurateRip database
Copy OK

Track 8

Filename D:\Uploads\Daryl Hall & John Oates - The Box Set Series (2014) [FLAC]\CD4\08 - Downtown Life.wav

Pre-gap length 0:00:02.10

Peak level 72.8 %
Extraction speed 1.7 X
Track quality 99.9 %
Test CRC A947AAB3
Copy CRC A947AAB3
Track not present in AccurateRip database
Copy OK

Track 9

Filename D:\Uploads\Daryl Hall & John Oates - The Box Set Series (2014) [FLAC]\CD4\09 - Everything Your Heart Desires.wav

Pre-gap length 0:00:01.58

Peak level 74.2 %
Extraction speed 2.0 X
Track quality 100.0 %
Test CRC E137BED4
Copy CRC E137BED4
Track not present in AccurateRip database
Copy OK

Track 10

Filename D:\Uploads\Daryl Hall & John Oates - The Box Set Series (2014) [FLAC]\CD4\10 - Give It Up (Old Habits).wav

Pre-gap length 0:00:01.96

Peak level 97.7 %
Extraction speed 1.8 X
Track quality 99.9 %
Test CRC 14CAF227
Copy CRC 14CAF227
Track not present in AccurateRip database
Copy OK

Track 11

Filename D:\Uploads\Daryl Hall & John Oates - The Box Set Series (2014) [FLAC]\CD4\11 - So Close.wav

Pre-gap length 0:00:00.10

Peak level 97.3 %
Extraction speed 2.2 X
Track quality 100.0 %
Test CRC AE7E66A7
Copy CRC AE7E66A7
Track not present in AccurateRip database
Copy OK

Track 12

Filename D:\Uploads\Daryl Hall & John Oates - The Box Set Series (2014) [FLAC]\CD4\12 - Starting All Over Again [Radio Remix].wav

Peak level 93.0 %
Extraction speed 2.1 X
Track quality 100.0 %
Test CRC 025EC87C
Copy CRC 025EC87C
Track not present in AccurateRip database
Copy OK


None of the tracks are present in the AccurateRip database

No errors occurred

End of status report

–– CUETools DB Plugin V2.1.4

[CTDB TOCID: 9L6.xtwYNgR_SW5SeUV1.EaKRRw-] found
Submit result: already submitted
Track | CTDB Status
1 | (1/1) Accurately ripped
2 | (1/1) Accurately ripped
3 | (1/1) Accurately ripped
4 | (1/1) Accurately ripped
5 | (1/1) Accurately ripped
6 | (1/1) Accurately ripped
7 | (1/1) Accurately ripped
8 | (1/1) Accurately ripped
9 | (1/1) Accurately ripped
10 | (1/1) Accurately ripped
11 | (1/1) Accurately ripped
12 | (1/1) Accurately ripped


==== Log checksum 42C83E493990EDB1DB8D8501CD5D87C4D634FEDCB016B51C3AF28625DF547C53 ====


[CUETools log; Date: 11.06.2021 10:54:17; Version: 2.1.4]
[AccurateRip ID: 00178813-00dfd560-ab0ca50c] found.
Track [ CRC | V2 ] Status
01 [54ad4b97|f32fa27e] (00+11/11) Accurately ripped
02 [40255e1c|a0a00064] (00+11/11) Accurately ripped
03 [88e398fd|71a5786f] (00+11/11) Accurately ripped
04 [140b448e|86c8b784] (00+11/11) Accurately ripped
05 [7ddba3a9|3dc0f0d5] (00+11/11) Accurately ripped
06 [07a61feb|3468100c] (00+11/11) Accurately ripped
07 [ac521c6b|24096ad4] (00+11/11) Accurately ripped
08 [7adb60ca|8b750107] (00+12/12) Accurately ripped
09 [79fc79e0|7a297c32] (00+10/10) Accurately ripped
10 [a75bc630|2985d3dc] (00+11/11) Accurately ripped
11 [ce1169ae|9d0caf1d] (00+12/12) Accurately ripped
12 [8c59d232|dbdaa672] (00+12/12) Accurately ripped

Track Peak [ CRC32 ] [W/O NULL] [ LOG ]
– 97,7 [39DD4CDE] [7B8EEF2B]
01 73,6 [305346FA] [07EDD183] CRC32
02 93,7 [C4BA4AD1] [2E7038BD] CRC32
03 89,1 [6276B33C] [90A807EA] CRC32
04 97,4 [20F14BE6] [E55FA513] CRC32
05 96,1 [CFC963DD] [F1C07AFD] CRC32
06 84,9 [754929AC] [609DF966] CRC32
07 95,9 [55105138] [06394893] CRC32
08 72,8 [A947AAB3] [EBA39376] CRC32
09 74,2 [E137BED4] [6E6D887B] CRC32
10 97,7 [14CAF227] [96ED93C3] CRC32
11 97,3 [AE7E66A7] [82E656A6] CRC32
12 93,0 [025EC87C] [E76D6162] CRC32


Daryl Hall & John Oates - The Box Set Series (2014)

All thanks go to the original releaser

Daryl Hall & John Oates in my Blog

Download Daryl Hall & John Oates - The Box Set Series (2014):