Tags
Language
Tags

Dave Matthews Band - Big Whiskey And The GrooGrux King (2009)

Posted By: Designol
Dave Matthews Band - Big Whiskey And The GrooGrux King (2009)

Dave Matthews Band - Big Whiskey And The GrooGrux King (2009)
EAC | FLAC | Image (Cue&Log) ~ 453 Mb | Mp3 (CBR320) ~ 146 Mb | Scans ~ 42 Mb
Label: Bama Rags Records | # 5051865487425 | Time: 01:03:17
Adult Alternative Pop/Rock, American Trad Rock, Jam Bands

Tragedy has a way of putting everything into perspective, a truism that's brought into sharp relief by the Dave Matthews Band. LeRoi Moore, the group's saxophonist, died in 2008, something that shook the DMB to their core and they've responded as any working band does: by carrying on, playing gigs – including one on the day of his passing – and finishing the album they were recording at the time of his death, turning Big Whiskey & the GrooGrux King into a tribute to their fallen comrade. By saluting his spirit, DMB wind up returning to their roots, jettisoning any of the well-manicured crossover pop of Stand Up and reviving the loose-limbed jams that were their '90s specialty, a sound they've largely abandoned – at least on record – since 1998's Before These Crowded Streets. During that long, long decade between Before and Big Whiskey, DMB remained one of America's biggest bands even though much of those ten years found Matthews working through various existential crises – things got too big so he pulled away from the band, turned out a dark solo record, then came back – and his namesake band drifted along with him. Here, everything snaps back into focus: what was glossy is now clean and unvarnished; there is no avoidance of their rangy, loping rhythms or predilection for elastic solos; and these signatures – shunned on record, not on-stage – are embraced warmly, given muscle, and married to the dark undercurrents that have flowed throughout Matthews' new-millennium writing. Surely, Moore's early death weighs heavily here – he is the GrooGrux King of the album's title and there are many allusions to him in lyrics – but Matthews also ties in references to Hurricane Katrina and war, all as part of his wide-open meditations on mortality and morality. Not all of Big Whiskey is about death: there is an equal amount of love tunes, plus one of Matthews' casually vulgar sex songs, all celebrating enduring relationships, providing a counterpoint to the waves of melancholy. But what makes Big Whiskey & the GrooGrux King the Dave Matthews Band's richest, and quite possibly best, album is the implicit message that all the love and loss can be felt and shared through the music, that the creation of the music itself is the reason why they're here – and that's not just a moving tribute to LeRoi Moore, it's a reason for the band to keep moving on.

Review by Stephen Thomas Erlewine, Allmusic.com

Dave Matthews Band - Big Whiskey And The GrooGrux King (2009)



Tracklist:

01. Grux (1:12)
02. Shake Me Like A Monkey (4:01)
03. Funny The Way It Is (4:27)
04. Lying In The Hands Of God (5:13)
05. Why I Am (3:54)
06. Dive In (4:27)
07. Spaceman (4:08)
08. Squirm (5:32)
09. Alligator Pie (3:59)
10. Seven (4:17)
11. Time Bomb (3:59)
12. Baby Blue (3:41)
13. You & Me (5:42)
14. Write A Song (3:51)
15. Corn Bread (4:54)


Exact Audio Copy V0.99 prebeta 5 from 4. May 2009

Отчёт EAC об извлечении, выполненном 11. января 2011, 21:55

Dave Matthews Band / Big Whiskey & The Groo Grux King

Дисковод: HL-DT-STDVDRAM GSA-T20N Adapter: 0 ID: 0

Режим чтения : Достоверность
Использование точного потока : Да
Отключение кэша аудио : Да
Использование указателей C2 : Нет

Коррекция смещения при чтении : 667
Способность читать области Lead-in и Lead-out : Нет
Заполнение пропущенных сэмплов тишиной : Да
Удаление блоков с тишиной в начале и конце : Нет
При вычислениях CRC использовались нулевые сэмплы : Да
Интерфейс : Встроенный Win32-интерфейс для Win NT/2000

Выходной формат : Внутренние WAV-операции
Формат сэмплов : 44.100 Гц; 16 бит; стерео


TOC извлечённого CD

Трек | Старт | Длительность | Начальный сектор | Конечный сектор
––––––––––––––––––––––––––––––––––-
1 | 0:00.00 | 1:11.61 | 0 | 5385
2 | 1:11.61 | 4:00.63 | 5386 | 23448
3 | 5:12.49 | 4:26.47 | 23449 | 43445
4 | 9:39.21 | 5:13.25 | 43446 | 66945
5 | 14:52.46 | 3:53.40 | 66946 | 84460
6 | 18:46.11 | 4:26.52 | 84461 | 104462
7 | 23:12.63 | 4:08.17 | 104463 | 123079
8 | 27:21.05 | 5:32.17 | 123080 | 147996
9 | 32:53.22 | 3:59.01 | 147997 | 165922
10 | 36:52.23 | 4:17.02 | 165923 | 185199
11 | 41:09.25 | 3:59.27 | 185200 | 203151
12 | 45:08.52 | 3:41.37 | 203152 | 219763
13 | 48:50.14 | 5:41.60 | 219764 | 245398
14 | 54:31.74 | 3:51.14 | 245399 | 262737
15 | 58:23.13 | 4:53.47 | 262738 | 284759


Характеристики диапазона извлечения и сообщения об ошибках

Выбранный диапазон

Имя файла F:\Torrent\Новая папка\Dave Matthews Band - Big Whiskey & The Groo Grux King (2009) Ltd\Dave Matthews Band - Big Whiskey & The Groo Grux King.wav

Пиковый уровень 100.0 %
Качество диапазона 100.0 %
CRC теста 11E8DFC4
CRC копии 11E8DFC4
Копирование… OK

Ошибок не произошло


AccurateRip: сводка

Трек 1 точное извлечение (доверие 60) [9E0C11A4]
Трек 2 точное извлечение (доверие 63) [B80E5E5B]
Трек 3 точное извлечение (доверие 61) [FC3DA1ED]
Трек 4 точное извлечение (доверие 61) [EB189B7E]
Трек 5 точное извлечение (доверие 61) [1BD690E2]
Трек 6 точное извлечение (доверие 62) [CC50BB29]
Трек 7 точное извлечение (доверие 61) [598189D0]
Трек 8 точное извлечение (доверие 62) [76D32B07]
Трек 9 точное извлечение (доверие 60) [C7727879]
Трек 10 точное извлечение (доверие 61) [7467EDB3]
Трек 11 точное извлечение (доверие 61) [3047F64C]
Трек 12 точное извлечение (доверие 60) [3AB2C2F7]
Трек 13 точное извлечение (доверие 61) [583E348B]
Трек 14 точное извлечение (доверие 62) [E813BBBC]
Трек 15 точное извлечение (доверие 61) [D90B99F9]

Все треки извлечены точно

Конец отчёта

[CUETools log; Date: 16.05.2018 15:12:02; Version: 2.1.4]
[CTDB TOCID: BBjystwxVIMHpA88fwwpyab6Va0-] found.
Track | CTDB Status
1 | (115/115) Accurately ripped
2 | (115/115) Accurately ripped
3 | (114/115) Accurately ripped
4 | (114/115) Accurately ripped
5 | (114/115) Accurately ripped
6 | (115/115) Accurately ripped
7 | (114/115) Accurately ripped
8 | (114/115) Accurately ripped
9 | (113/115) Accurately ripped
10 | (114/115) Accurately ripped
11 | (114/115) Accurately ripped
12 | (114/115) Accurately ripped
13 | (114/115) Accurately ripped
14 | (113/115) Accurately ripped
15 | (109/115) Accurately ripped, or (6/115) differs in 4 samples @00:55:24
[AccurateRip ID: 00210d94-017e82e0-c50ed40f] found.
Track [ CRC | V2 ] Status
01 [9e0c11a4|f609d92d] (068+070/152) Accurately ripped
02 [b80e5e5b|360af76c] (071+069/154) Accurately ripped
03 [fc3da1ed|59096ad8] (070+069/153) Accurately ripped
04 [eb189b7e|8243f834] (069+070/153) Accurately ripped
05 [1bd690e2|e690e2b8] (069+070/153) Accurately ripped
06 [cc50bb29|e6b78a6e] (070+070/154) Accurately ripped
07 [598189d0|36dbe0f7] (069+070/153) Accurately ripped
08 [76d32b07|31be95c1] (070+070/154) Accurately ripped
09 [c7727879|e11acefb] (068+070/152) Accurately ripped
10 [7467edb3|0a218959] (069+070/153) Accurately ripped
11 [3047f64c|ac5c3f0f] (069+070/154) Accurately ripped
12 [3ab2c2f7|7c80d19d] (068+070/152) Accurately ripped
13 [583e348b|c5d91a74] (069+070/153) Accurately ripped
14 [e813bbbc|44725867] (069+070/153) Accurately ripped
15 [d90b99f9|dc54e931] (068+069/148) Accurately ripped
Offsetted by -12:
01 [818c3e37] (007/152) Accurately ripped
02 [7141f8a8] (007/154) Accurately ripped
03 [d2285354] (007/153) Accurately ripped
04 [4ae9d4c9] (007/153) Accurately ripped
05 [51ee4db0] (007/153) Accurately ripped
06 [a8e633ad] (007/154) Accurately ripped
07 [55f1515d] (007/153) Accurately ripped
08 [0e2d5eae] (007/154) Accurately ripped
09 [23f51421] (007/152) Accurately ripped
10 [540762db] (007/153) Accurately ripped
11 [24ec3614] (007/154) Accurately ripped
12 [12f01dd7] (007/152) Accurately ripped
13 [9700d923] (007/153) Accurately ripped
14 [2d7d37a0] (007/153) Accurately ripped
15 [1b8bac61] (002/148) Accurately ripped
Offsetted by -667:
01 [f41a6547] (000/152) No match (V2 was not tested)
02 [15ef8042] (000/154) No match (V2 was not tested)
03 [bdc79d77] (000/153) No match (V2 was not tested)
04 [411f703d] (000/153) No match (V2 was not tested)
05 [46b948c1] (000/153) No match (V2 was not tested)
06 [9a962721] (000/154) No match (V2 was not tested)
07 [fbda86a1] (000/153) No match (V2 was not tested)
08 [2ce4c2c4] (000/154) No match (V2 was not tested)
09 [325fb8ee] (000/152) No match (V2 was not tested)
10 [a9936d1f] (000/153) No match (V2 was not tested)
11 [dd013373] (000/154) No match (V2 was not tested)
12 [89a13a2a] (000/152) No match (V2 was not tested)
13 [ce011be1] (000/153) No match (V2 was not tested)
14 [3a3ae1fd] (000/153) No match (V2 was not tested)
15 [f404ee63] (000/148) No match (V2 was not tested)

Track Peak [ CRC32 ] [W/O NULL] [ LOG ]
– 100,0 [11E8DFC4] [F0928F5D] CRC32
01 82,5 [458AEC0C] [FEB2A588]
02 100,0 [187FB154] [74605D66]
03 100,0 [5AE53A2B] [991E9D13]
04 100,0 [77CB0743] [0129021E]
05 100,0 [DA772F13] [E9BBE4B1]
06 100,0 [88C94951] [49638647]
07 100,0 [080983C8] [77687F16]
08 100,0 [D63A82DC] [E235CB8E]
09 100,0 [5FB6AD0C] [B5933711]
10 100,0 [569518D1] [0186B76D]
11 100,0 [31280818] [9899AD73]
12 97,8 [D39EA457] [D052BBD3]
13 100,0 [C957A353] [F9B83D86]
14 100,0 [1FA11FF5] [95E1FD09]
15 100,0 [CB4B905A] [772569EE]

foobar2000 1.2 / Dynamic Range Meter 1.1.1
log date: 2018-05-16 15:22:11

––––––––––––––––––––––––––––––––––––––––
Analyzed: Dave Matthews Band / Big Whiskey & The Groo Grux King
––––––––––––––––––––––––––––––––––––––––

DR Peak RMS Duration Track
––––––––––––––––––––––––––––––––––––––––
DR12 -1.66 dB -16.57 dB 1:12 01-Grux
DR6 0.00 dB -6.95 dB 4:01 02-Shake Me Like A Monkey
DR5 0.00 dB -6.99 dB 4:27 03-Funny The Way It Is
DR8 0.00 dB -9.13 dB 5:13 04-Lying In The Hands Of God
DR5 0.00 dB -6.51 dB 3:54 05-Why I Am
DR7 0.00 dB -8.20 dB 4:27 06-Dive In
DR7 0.00 dB -8.46 dB 4:08 07-Spaceman
DR6 0.00 dB -8.04 dB 5:32 08-Squirm
DR7 0.00 dB -8.03 dB 3:59 09-Alligator Pie
DR8 0.00 dB -9.38 dB 4:17 10-Seven
DR6 0.00 dB -9.67 dB 3:59 11-Time Bomb
DR10 -0.19 dB -12.83 dB 3:41 12-Baby Blue
DR7 0.00 dB -10.20 dB 5:42 13-You & Me
DR7 0.00 dB -8.01 dB 3:51 14-Write A Song
DR6 0.00 dB -7.06 dB 4:54 15-Corn Bread
––––––––––––––––––––––––––––––––––––––––

Number of tracks: 15
Official DR value: DR7

Samplerate: 44100 Hz
Channels: 2
Bits per sample: 16
Bitrate: 999 kbps
Codec: FLAC
================================================================================

Dave Matthews Band - Big Whiskey And The GrooGrux King (2009)

All thanks to original releaser - boogiedown

More interesting music in My Blog