Subcategories

Dave Valentin - Pied Pipe (1981/2019) {Vocalion}

Posted By: tiburon
Dave Valentin - Pied Pipe (1981/2019) {Vocalion}

Dave Valentin - Pied Pipe (1981/2019) {Vocalion}
WEB | FLAC tracks | Covers | 302MB + 5% Recovery
MP3 CBR 320 Kbps | 119MB + 5% Recovery
Genre: Jazz-Funk, Latin Jazz

Dave Valentin at the perfect point in his career – coming off some great initial work on the New York Latin scene, and some key time in the studios – really finding his voice as a leader, with all the best elements of his previous work firmly intact! Dave mixes Latin elements with the soulful fusion sound of the GRP label right in their great early, pre-commercial years – and he gets help here form labelmates Dave Grusin and Bobby Broom, plus Marcus Miller – who all join Dave's combo with a sound that's way hipper than the GRP groove of the smooth fusion years. There's some female chorus vocals at a few points, but also loads of great solo work on flute from Dave – and arrangements are by Valentin, Dave Grusin, and Oscar Hernandez. Titles include "Pied Piper", "Los Altos", "Shamballa", "Dragon Fly", "This Time", and "Seven Stars". CD features bonus 7" mixes of "Pied Piper" and "Shamballa".
Track List
01. Pied Piper (Man of Song)
02. Seven Stars
03. This Time
04. Sambiando
05. Shamballa
06. Los Altos
07. Dragon Fly
08. Pied Piper (Man of Song) (7" Version)
09. Shamballa (7" Version)

musicians
Flute – Dave Valentin
Electric Bass - Marcus Miller
Acoustic Guitar – Michael Vinas
Backing Vocals – Kacey Cysik, Yvonne Lewis
Congas – Rafael De Jesus
Drums – Buddy Williams, Tito Marrero
Electric Bass – Lincoln Goines
Electric Guitar – Bobby Broom
Electric Piano [Rhodes] – Dave Grusin, Oscar Hernandez
Gong – Roger Squitero
Lead Vocals, Backing Vocals – Vivian Cherry
Percussion – Crusher Bennett, Rafael de Jesus, Roger Squitero
Piano [Acoustic] – Bill O'Connell (tracks: B3), Dave Grusin (tracks: B2), Oscar Hernandez
Surdo – Tito Marrero (tracks: B2)
Synthesizer [Oberheim] – Dave Grusin
Tambora – Rafael de Jesus

Produced by Dave Grusin and Larry Rosen


AUDIOCHECKER v2.0 beta (build 457) - by Dester - opdester@freemail.hu
~~~~~~~~~~~~~~~~~~~~~~~~~~~~~~~~~~
-=== DO NOT EDIT THIS FILE! ===-

Path: …\Dave Valentin - Pied Pipe (1981) [FLAC]

1 -=- 1 - Pied Piper (Man of Song).flac -=- CDDA (100%)
2 -=- 2 - Seven Stars.flac -=- CDDA (100%)
3 -=- 3 - This Time.flac -=- CDDA (100%)
4 -=- 4 - Sambiando.flac -=- CDDA (100%)
5 -=- 5 - Shamballa.flac -=- CDDA (100%)
6 -=- 6 - Los Altos.flac -=- CDDA (100%)
7 -=- 7 - Dragon Fly.flac -=- CDDA (99%)
8 -=- 8 - Pied Piper (Man of Song) (7_ Version).flac -=- CDDA (100%)
9 -=- 9 - Shamballa (7_ Version).flac -=- CDDA (100%)

Summary 99,89% CDDA

154540116


foobar2000 1.3.13 / Dynamic Range Meter 1.1.1
log date: 2019-11-29 18:28:40

––––––––––––––––––––––––––––––––––––––––
Analyzed: Dave Valentin / Pied Piper (Expanded Edition)
––––––––––––––––––––––––––––––––––––––––

DR Peak RMS Duration Track
––––––––––––––––––––––––––––––––––––––––
DR14 0.00 dB -16.31 dB 5:00 01-Pied Piper (Man of Song)
DR13 -0.58 dB -16.68 dB 6:46 02-Seven Stars
DR15 -4.04 dB -22.04 dB 4:08 03-This Time
DR13 -0.83 dB -16.25 dB 6:31 04-Sambiando
DR15 -0.01 dB -17.00 dB 6:49 05-Shamballa
DR13 -1.26 dB -16.88 dB 4:38 06-Los Altos
DR13 -1.26 dB -16.55 dB 6:48 07-Dragon Fly
DR13 -0.76 dB -16.25 dB 3:57 08-Pied Piper (Man of Song) (7" Version)
DR15 -0.58 dB -17.78 dB 6:53 09-Shamballa (7" Version)
––––––––––––––––––––––––––––––––––––––––

Number of tracks: 9
Official DR value: DR14

Samplerate: 44100 Hz
Channels: 2
Bits per sample: 16
Bitrate: 792 kbps
Codec: FLAC
================================================================================

Dave Valentin - Pied Pipe (1981/2019) {Vocalion}
Dave Valentin - Pied Pipe (1981/2019) {Vocalion}


Thanks to the original customer