Subcategories
Tags
Language
Tags

David Gogo - Vibe (2008)

Posted By: Designol
David Gogo - Vibe (2008)

David Gogo - Vibe (2008)
EAC | FLAC | Image (Cue&Log) ~ 346 Mb | Mp3 (CBR320) ~ 139 Mb | Scans included
Blues-Rock, Contemporary Blues | Label: DixieFrog | # DFGCD 8639 | 00:42:59

Vancouver guitarist David Gogo is oozing confidence on this blues-rock album, beginning with the barroom pleasing "Love in the City" with former Junkhouse lead singer Tom Wilson, who is also a member of Blackie and the Rodeo Kings. The piano only adds to its luster. Gogo isn't reinventing anything here, just good time, old-school, feel-good rock & roll accentuated by his great guitar playing. He can rumble as well judging by the slower and moody "Hit Me From Above," sounding a bit like Doyle Bramhall II or some other Austin blues-rock musician. A slower, soulful "300 Pound Shoes" takes the album down in tone but Gogo goes for broke here, pulling the song off with relative ease. "Hey Juanita" doesn't seem that strong and is rather ordinary in a roots rock type of vein like Mike Plume or Steve Earle. The piano driven "I'd Do Anything" shows a softer, bluesy vein that sounds like a long distant cousin of "Ride On" by AC/DC complete with horns. The funky "Silk and Stone" is a sleeper pick in line with the likes of Bonnie Raitt or Delbert McClinton. A party atmosphere enters during the rocking and rollicking "Cry Harder," a tune co-written by former Odds' guitarist Craig Northey. Fans of Colin James would enjoy this album, as Gogo can exude the rock as well as the blues, all encased by a bit of soul throughout as he does on the '60s-styled "Something Ain't Right." But the groove returns on the fun and infectious "She's Alright," recalling the best of the Fabulous Thunderbirds. The finale "Why Don't You Show Me" demonstrates why Gogo is still at the top of his game, be it blues, rock, soul or any combo of the three.

Review by Jason MacNeil, Allmusic.com

David Gogo - Vibe (2008)



Tracklist:

01. She's Alright (Featuring Jeff Healey) (4:00)
02. 300 Pound Shoes (4:44)
03. Silk And Stone (3:44)
04. Cry Harder (4:16)
05. I'd Do Anything (5:29)
06. Hey Juanita (4:10)
07. Love In The City (Featuring Tom Wilson) (3:19)
08. Hit Me From Above (4:39)
09. Something Ain't Right (4:31)
10. Why Don't You Show Me (4:05)


Exact Audio Copy V1.1 from 23. June 2015

EAC extraction logfile from 12. January 2018, 20:09

David Gogo / Vibe

Used drive : Optiarc DVD RW AD-7283S Adapter: 1 ID: 0

Read mode : Secure
Utilize accurate stream : Yes
Defeat audio cache : Yes
Make use of C2 pointers : No

Read offset correction : 48
Overread into Lead-In and Lead-Out : No
Fill up missing offset samples with silence : Yes
Delete leading and trailing silent blocks : No
Null samples used in CRC calculations : Yes
Used interface : Native Win32 interface for Win NT & 2000

Used output format : User Defined Encoder
Selected bitrate : 128 kBit/s
Quality : High
Add ID3 tag : No
Command line compressor : C:\Program Files (x86)\Exact Audio Copy\Flac\flac.exe
Additional command line options : -V -8 -T "Genre=%genre%" -T "Artist=%artist%" -T "Title=%title%" -T "Album=%albumtitle%" -T "Date=%year%" -T "Tracknumber=%tracknr%" -T "Comment=%comment%" %source%


TOC of the extracted CD

Track | Start | Length | Start sector | End sector
––––––––––––––––––––––––––––-
1 | 0:00.00 | 3:59.51 | 0 | 17975
2 | 3:59.51 | 4:44.31 | 17976 | 39306
3 | 8:44.07 | 3:44.32 | 39307 | 56138
4 | 12:28.39 | 4:16.18 | 56139 | 75356
5 | 16:44.57 | 5:29.27 | 75357 | 100058
6 | 22:14.09 | 4:10.15 | 100059 | 118823
7 | 26:24.24 | 3:18.50 | 118824 | 133723
8 | 29:42.74 | 4:39.35 | 133724 | 154683
9 | 34:22.34 | 4:30.61 | 154684 | 174994
10 | 38:53.20 | 4:05.26 | 174995 | 193395


Range status and errors

Selected range

Filename F:\alexbras\2008 David Gogo - Vibe (DFGCD 8639)\David Gogo - Vibe.wav

Peak level 99.3 %
Extraction speed 3.7 X
Range quality 99.9 %
Test CRC F82B78BA
Copy CRC F82B78BA
Copy OK

No errors occurred


AccurateRip summary

Track 1 accurately ripped (confidence 2) [D4EF5E2B] (AR v2)
Track 2 accurately ripped (confidence 2) [3D94174E] (AR v2)
Track 3 accurately ripped (confidence 2) [F79825B7] (AR v2)
Track 4 accurately ripped (confidence 2) [ADC2B8DA] (AR v2)
Track 5 accurately ripped (confidence 2) [4C3CF9DA] (AR v2)
Track 6 accurately ripped (confidence 2) [1AEBE7F4] (AR v2)
Track 7 accurately ripped (confidence 2) [1174C97D] (AR v2)
Track 8 accurately ripped (confidence 2) [DE197B58] (AR v2)
Track 9 accurately ripped (confidence 2) [F9A9F7DF] (AR v2)
Track 10 accurately ripped (confidence 2) [E00895F2] (AR v2)

All tracks accurately ripped

End of status report

==== Log checksum 823273F8C314069137AE1C46C1B8877EB5D563BF18DA0B8736C8ADDF3C4AFCFF ====

foobar2000 1.2 / Dynamic Range Meter 1.1.1
log date: 2018-01-18 18:11:35

––––––––––––––––––––––––––––––––––––––––
Analyzed: David Gogo / Vibe
––––––––––––––––––––––––––––––––––––––––

DR Peak RMS Duration Track
––––––––––––––––––––––––––––––––––––––––
DR6 -0.40 dB -8.06 dB 4:00 01-She's Alright (Featuring Jeff Healey)
DR7 -0.40 dB -9.72 dB 4:44 02-300 Pound Shoes
DR7 -0.40 dB -8.57 dB 3:44 03-Silk And Stone
DR7 -0.40 dB -8.36 dB 4:16 04-Cry Harder
DR7 -0.40 dB -9.45 dB 5:29 05-I'd Do Anything
DR7 -0.40 dB -8.45 dB 4:10 06-Hey Juanita
DR7 -0.40 dB -8.27 dB 3:19 07-Love In The City (Featuring Tom Wilson)
DR7 -0.06 dB -7.92 dB 4:39 08-Hit Me From Above
DR7 -0.40 dB -8.58 dB 4:31 09-Something Ain't Right
DR7 -0.40 dB -8.28 dB 4:05 10-Why Don't You Show Me
––––––––––––––––––––––––––––––––––––––––

Number of tracks: 10
Official DR value: DR7

Samplerate: 44100 Hz
Channels: 2
Bits per sample: 16
Bitrate: 993 kbps
Codec: FLAC
================================================================================

David Gogo - Vibe (2008)

David Gogo - Vibe (2008)

All thanks to original releaser - Badeny

More interesting music in My Blog