Subcategories

David Bowie - Who Can I Be Now? (1974-1976) [12CDs Box-Set] (2016)

Posted By: BlondStyle
David Bowie - Who Can I Be Now? (1974-1976) [12CDs Box-Set] (2016)

David Bowie - Who Can I Be Now? (1974-1976) [12CD Box-Set] (2016)
Pop/Rock, Glam, Soul | EAC Rip | FLAC, Img+CUE+LOG+Full Scans-600dpi (PNG) | 08:30:46 h. | 4,48 Gb
Label: Parlophone Records Ltd. (EU) | Released: 2016-09-23

A sequel to the 2015 box Five Years 1969-1973, 2016's Who Can I Be Now? (1974-1976) covers just three years but this stretch in the mid-'70s happens to be the peak of David Bowie's superstardom. That much can be gleaned from the number of albums within the set: three studio albums - Diamond Dogs, Young Americans, Station to Station, each released in a subsequent year - along with the double live album David Live from 1974. Four albums in three years is plenty but to that core canon Who Can I Be Now? adds five additional alternate albums, each with varying degrees of rarities. There are full latter-day remixes of David Live and Station to Station - the former from 2005, the latter from 2010 - the concert album Live Nassau Coliseum '76, which was added to the super deluxe 2010 reissue of Station to Station, a bonus disc of single edits and stray songs entitled Re:Call, plus an early version of Young Americans called The Gouster. The latter seems to bend the rules of this extensive Bowie catalog reissue project, which is to preserve the officially released canon and keep unreleased tracks - whether they surfaced on the '90s Rykodisc reissues or remain unheard - locked up in the vaults. The Gouster contains "Who Can I Be Now?" and "It's Gonna Be Me," both originally released on the 1990 Ryko edition of Young Americans, along with alternate versions of "Can You Hear Me?" and "Right," plus the disco version of "John, I'm Only Dancing," but otherwise it plays like Young Americans, only not quite as good. Furthermore, its presence calls into question why the unreleased outtake "Shilling the Rubes" is left behind alongside the "Dodo" that showed up on the Ryko CD of Diamond Dogs: if the door is opened for some outtakes, it's hard not to miss those that are absent. Still, this is quibbling. The Who Can I Be Now? box set remains as beautifully produced as Five Years, and a deep dive into its contents produces many rewards. Perhaps the alternate album mixes are only slightly different, but it's hard not to be impressed by the rapid development of Bowie's music during these three years. The distance between Diamond Dogs and Station to Station is vast, and the addition of the live albums accentuates how deeply he cared for strong, deeply etched funk to offset his art. Listening to all this music in a concentrated blast, such progression is a wonder to behold. ~Review by Stephen Thomas Erlewine~
David Bowie - Who Can I Be Now? (1974-1976) [12CDs Box-Set] (2016)


Release of this Box-Set: 2016, September, 23 [CDs Parlophone (UK), Cat.# DBX 2 / UPC: 0190295989842]
℗ 2016 The copyright in this compilation is owned by Parlophone Records Ltd.
© 2016 Jones/Tintoretto Entertainment Company LLC.
© 2016 Parlophone Records Ltd. A Warner Music Group Company.
Manufactured in the EU

Notes: This box set includes an 84 page book of previously unpublished photos.
"The Gouster" is previously unreleased as a complete album; it was recorded at Sigma Sound, Philadelphia in 1974. It contains three previously unreleased mixes: "Right", "Can You Hear Me", and "Somebody Up There Likes Me".

David Bowie - Who Can I Be Now? (1974-1976) [12CD Box-Set] (2016):


David Bowie - Who Can I Be Now? (1974-1976) [12CDs Box-Set] (2016)

Disc 1: 1974 - Diamond Dogs
Pop/Rock, Glam, Soul | EAC Rip | FLAC, Img+CUE+LOG+Full Scans-600dpi (PNG) | 38:33 Min. | 375,92 Mb
Label: Parlophone Records Ltd. (EU) | Released: 2016-09-23


Tracklist:

01. Future Legend 01:00
02. Diamond Dogs 06:04
03. Sweet Thing 03:39
04. Candidate 02:40
05. Sweet Thing (Reprise) 02:32
06. Rebel Rebel 04:34
07. Rock 'N' Roll With Me 04:02
08. We Are The Dead 05:01
09. 1984 03:27
10. Big Brother 03:23
11. Chant Of The Ever Circling Skeletal Family 02:06

Exact Audio Copy V1.1 from 23. June 2015

EAC extraction logfile from 8. October 2016, 9:29

David Bowie / Diamond Dogs

Used drive : PLEXTOR BD-R PX-B950SA Adapter: 1 ID: 1

Read mode : Secure
Utilize accurate stream : Yes
Defeat audio cache : Yes
Make use of C2 pointers : No

Read offset correction : 6
Overread into Lead-In and Lead-Out : No
Fill up missing offset samples with silence : Yes
Delete leading and trailing silent blocks : No
Null samples used in CRC calculations : Yes
Used interface : Native Win32 interface for Win NT & 2000

Used output format : Internal WAV Routines
Sample format : 44.100 Hz; 16 Bit; Stereo


TOC of the extracted CD

Track | Start | Length | Start sector | End sector
––––––––––––––––––––––––––––-
1 | 0:00.00 | 1:00.34 | 0 | 4533
2 | 1:00.34 | 6:04.18 | 4534 | 31851
3 | 7:04.52 | 3:39.09 | 31852 | 48285
4 | 10:43.61 | 2:40.66 | 48286 | 60351
5 | 13:24.52 | 2:32.48 | 60352 | 71799
6 | 15:57.25 | 4:34.56 | 71800 | 92405
7 | 20:32.06 | 4:02.68 | 92406 | 110623
8 | 24:34.74 | 5:01.58 | 110624 | 133256
9 | 29:36.57 | 3:27.30 | 133257 | 148811
10 | 33:04.12 | 3:23.06 | 148812 | 164042
11 | 36:27.18 | 2:06.05 | 164043 | 173497


Range status and errors

Selected range

Filename C:\Users\Meijin\Desktop\David Bowie\2016 Who Can I Be Now 1974-1976 (12CD Box Set Parlophone Records)\1974 Diamond Dogs\David Bowie - Diamond Dogs.wav

Peak level 88.8 %
Extraction speed 6.7 X
Range quality 100.0 %
Test CRC F15AECF2
Copy CRC F15AECF2
Copy OK

No errors occurred


AccurateRip summary

Track 1 accurately ripped (confidence 3) [7FA50AD9] (AR v2)
Track 2 accurately ripped (confidence 3) [A8B9AADA] (AR v2)
Track 3 accurately ripped (confidence 3) [8E5F14EA] (AR v2)
Track 4 accurately ripped (confidence 3) [4DDE49C1] (AR v2)
Track 5 accurately ripped (confidence 3) [7D15EC94] (AR v2)
Track 6 accurately ripped (confidence 3) [FB1D5756] (AR v2)
Track 7 accurately ripped (confidence 3) [00D5BFBD] (AR v2)
Track 8 accurately ripped (confidence 3) [25E4D3B9] (AR v2)
Track 9 accurately ripped (confidence 3) [BF8324E2] (AR v2)
Track 10 accurately ripped (confidence 3) [AC723298] (AR v2)
Track 11 accurately ripped (confidence 3) [6121AF0B] (AR v2)

All tracks accurately ripped

End of status report

–– CUETools DB Plugin V2.1.6

[CTDB TOCID: La5MfjKmUx.4YDifXL6tVghAKMM-] found
Submit result: La5MfjKmUx.4YDifXL6tVghAKMM- has been confirmed
Track | CTDB Status
1 | (37/37) Accurately ripped
2 | (37/37) Accurately ripped
3 | (36/37) Accurately ripped
4 | (37/37) Accurately ripped
5 | (37/37) Accurately ripped
6 | (37/37) Accurately ripped
7 | (37/37) Accurately ripped
8 | (37/37) Accurately ripped
9 | (37/37) Accurately ripped
10 | (37/37) Accurately ripped
11 | (36/37) Accurately ripped


==== Log checksum 64794CBED804220BD91F0C4751A5F4886DC406A8C08D6B8391BE8C6004666C4B ====

foobar2000 1.1.7 / Dynamic Range Meter 1.1.1
log date: 2016-10-08 09:34:12

––––––––––––––––––––––––––––––––––––––––
Analyzed: David Bowie / Diamond Dogs
––––––––––––––––––––––––––––––––––––––––

DR Peak RMS Duration Track
––––––––––––––––––––––––––––––––––––––––
DR12 -2.72 dB -19.39 dB 1:00 01-Future Legend
DR13 -1.25 dB -16.51 dB 6:04 02-Diamond Dogs
DR11 -1.33 dB -15.90 dB 3:39 03-Sweet Thing
DR12 -1.44 dB -14.97 dB 2:41 04-Candidate
DR10 -1.90 dB -15.22 dB 2:33 05-Sweet Thing
DR13 -1.22 dB -16.21 dB 4:35 06-Rebel Rebel
DR12 -1.03 dB -15.49 dB 4:03 07-Rock 'N' Roll With Me
DR12 -1.49 dB -17.23 dB 5:02 08-We Are The Dead
DR11 -1.43 dB -15.25 dB 3:27 09-1984
DR12 -1.04 dB -15.99 dB 3:23 10-Big Brother
DR12 -1.43 dB -16.54 dB 2:06 11-Chant Of The Ever Circling Skeletal Family
––––––––––––––––––––––––––––––––––––––––

Number of tracks: 11
Official DR value: DR12

Samplerate: 44100 Hz
Channels: 2
Bits per sample: 16
Bitrate: 1411 kbps
Codec: PCM
================================================================================




David Bowie - Who Can I Be Now? (1974-1976) [12CDs Box-Set] (2016)

Discs 2 & 3: 1974 - David Live (2CD)
Pop/Rock, Glam, Soul | EAC Rip | FLAC, Img+CUE+LOG+Full Scans-600dpi (PNG) | 01:21:18 h. | 642,50 Mb
Label: Parlophone Records Ltd. (EU) | Released: 2016-09-23


Tracklist:

CD1 (00:39:43)

01. 1984 03:21
02. Rebel Rebel 02:40
03. Moonage Daydream 05:07
04. Sweet Thing / Candidate / Sweet Thing (Reprise) 08:33
05. Changes 03:34
06. Suffragette City 03:41
07. Aladdin Sane 05:00
08. All The Young Dudes 04:18
09. Cracked Actor 03:25

CD2 (00:41:35)

01. Rock 'N' Roll With Me 04:16
02. Watch That Man 05:04
03. Knock On Wood 03:20
04. Diamond Dogs 06:29
05. Big Brother 04:07
06. The Width Of A Circle 08:11
07. The Jean Genie 05:17
08. Rock 'N' Roll Suicide 04:47

Exact Audio Copy V1.1 from 23. June 2015

EAC extraction logfile from 8. October 2016, 9:08

David Bowie / David Live CD1

Used drive : PLEXTOR BD-R PX-B950SA Adapter: 1 ID: 1

Read mode : Secure
Utilize accurate stream : Yes
Defeat audio cache : Yes
Make use of C2 pointers : No

Read offset correction : 6
Overread into Lead-In and Lead-Out : No
Fill up missing offset samples with silence : Yes
Delete leading and trailing silent blocks : No
Null samples used in CRC calculations : Yes
Used interface : Native Win32 interface for Win NT & 2000

Used output format : Internal WAV Routines
Sample format : 44.100 Hz; 16 Bit; Stereo


TOC of the extracted CD

Track | Start | Length | Start sector | End sector
––––––––––––––––––––––––––––-
1 | 0:00.00 | 3:21.57 | 0 | 15131
2 | 3:21.57 | 2:40.17 | 15132 | 27148
3 | 6:01.74 | 5:07.72 | 27149 | 50245
4 | 11:09.71 | 8:33.41 | 50246 | 88761
5 | 19:43.37 | 3:34.21 | 88762 | 104832
6 | 23:17.58 | 3:41.24 | 104833 | 121431
7 | 26:59.07 | 5:00.58 | 121432 | 143989
8 | 31:59.65 | 4:18.02 | 143990 | 163341
9 | 36:17.67 | 3:25.41 | 163342 | 178757


Range status and errors

Selected range

Filename C:\Users\Meijin\David Bowie\2016 Who Can I Be Now 1974-1976 (12CD Box Set Parlophone Records)\1974 David Live 2CD\CD1\David Bowie - David Live CD1.wav

Peak level 99.9 %
Extraction speed 6.6 X
Range quality 99.9 %
Test CRC F46E49F8
Copy CRC F46E49F8
Copy OK

No errors occurred


AccurateRip summary

Track 1 accurately ripped (confidence 3) [2FFCB37A] (AR v2)
Track 2 accurately ripped (confidence 3) [89066465] (AR v2)
Track 3 accurately ripped (confidence 3) [5B86CEE6] (AR v2)
Track 4 accurately ripped (confidence 3) [CFB4A0E8] (AR v2)
Track 5 accurately ripped (confidence 3) [6CD6553B] (AR v2)
Track 6 accurately ripped (confidence 3) [B4AA4C9F] (AR v2)
Track 7 accurately ripped (confidence 3) [5DC56946] (AR v2)
Track 8 accurately ripped (confidence 3) [34A8F891] (AR v2)
Track 9 accurately ripped (confidence 3) [AFDE0468] (AR v2)

All tracks accurately ripped

End of status report

–– CUETools DB Plugin V2.1.6

[CTDB TOCID: 4F_zLSfpKCj8t43qrpfUcs1qDUc-] found
Submit result: 4F_zLSfpKCj8t43qrpfUcs1qDUc- has been confirmed
Track | CTDB Status
1 | (33/33) Accurately ripped
2 | (33/33) Accurately ripped
3 | (33/33) Accurately ripped
4 | (33/33) Accurately ripped
5 | (33/33) Accurately ripped
6 | (33/33) Accurately ripped
7 | (33/33) Accurately ripped
8 | (33/33) Accurately ripped
9 | (33/33) Accurately ripped


==== Log checksum A76BCA15C7CA714042F23D2671566DFA8CBB1A894C7E7719445B0382ED79D551 ====

foobar2000 1.1.7 / Dynamic Range Meter 1.1.1
log date: 2016-10-08 09:12:51

––––––––––––––––––––––––––––––––––––––––
Analyzed: David Bowie / David Live CD1
––––––––––––––––––––––––––––––––––––––––

DR Peak RMS Duration Track
––––––––––––––––––––––––––––––––––––––––
DR12 -0.48 dB -14.68 dB 3:22 01-1984
DR11 -0.01 dB -12.72 dB 2:40 02-Rebel Rebel
DR10 -0.01 dB -11.94 dB 5:08 03-Moonage Daydream
DR11 -0.01 dB -13.64 dB 8:34 04-Sweet Thing / Candidate / Sweet Thing (Reprise)
DR12 -0.01 dB -14.47 dB 3:34 05-Changes
DR11 -0.01 dB -12.02 dB 3:41 06-Suffragette City
DR13 -0.01 dB -14.90 dB 5:01 07-Aladdin Sane
DR11 -0.01 dB -13.68 dB 4:18 08-All The Young Dudes
DR11 -0.03 dB -12.94 dB 3:26 09-Cracked Actor
––––––––––––––––––––––––––––––––––––––––

Number of tracks: 9
Official DR value: DR11

Samplerate: 44100 Hz
Channels: 2
Bits per sample: 16
Bitrate: 1411 kbps
Codec: PCM
================================================================================

Exact Audio Copy V1.1 from 23. June 2015

EAC extraction logfile from 8. October 2016, 8:39

David Bowie / David Live CD2

Used drive : PLEXTOR BD-R PX-B950SA Adapter: 1 ID: 1

Read mode : Secure
Utilize accurate stream : Yes
Defeat audio cache : Yes
Make use of C2 pointers : No

Read offset correction : 6
Overread into Lead-In and Lead-Out : No
Fill up missing offset samples with silence : Yes
Delete leading and trailing silent blocks : No
Null samples used in CRC calculations : Yes
Used interface : Native Win32 interface for Win NT & 2000

Used output format : Internal WAV Routines
Sample format : 44.100 Hz; 16 Bit; Stereo


TOC of the extracted CD

Track | Start | Length | Start sector | End sector
––––––––––––––––––––––––––––-
1 | 0:00.00 | 4:16.73 | 0 | 19272
2 | 4:16.73 | 5:04.47 | 19273 | 42119
3 | 9:21.45 | 3:20.07 | 42120 | 57126
4 | 12:41.52 | 6:29.55 | 57127 | 86356
5 | 19:11.32 | 4:07.46 | 86357 | 104927
6 | 23:19.03 | 8:11.69 | 104928 | 141821
7 | 31:30.72 | 5:17.03 | 141822 | 165599
8 | 36:48.00 | 4:47.49 | 165600 | 187173


Range status and errors

Selected range

Filename C:\Users\Meijin\Desktop\David Bowie\2016 Who Can I Be Now 1974-1976 (12CD Box Set Parlophone Records)\1974 David Live 2CD\CD2\David Bowie - David Live CD2.wav

Peak level 98.8 %
Extraction speed 6.6 X
Range quality 99.9 %
Test CRC E9B0FAE7
Copy CRC E9B0FAE7
Copy OK

No errors occurred


AccurateRip summary

Track 1 accurately ripped (confidence 3) [4149B2C1] (AR v2)
Track 2 accurately ripped (confidence 3) [3F61BF0B] (AR v2)
Track 3 accurately ripped (confidence 3) [5A0D1CA6] (AR v2)
Track 4 accurately ripped (confidence 3) [C14EFF76] (AR v2)
Track 5 accurately ripped (confidence 3) [F9581722] (AR v2)
Track 6 accurately ripped (confidence 3) [56739BB8] (AR v2)
Track 7 accurately ripped (confidence 3) [C95297F8] (AR v2)
Track 8 accurately ripped (confidence 3) [3002AFED] (AR v2)

All tracks accurately ripped

End of status report

–– CUETools DB Plugin V2.1.6

[CTDB TOCID: tBF9ElUUZDdm64Wj3J7jkqrBeAE-] found
Submit result: tBF9ElUUZDdm64Wj3J7jkqrBeAE- has been confirmed
Track | CTDB Status
1 | (32/32) Accurately ripped
2 | (32/32) Accurately ripped
3 | (32/32) Accurately ripped
4 | (32/32) Accurately ripped
5 | (32/32) Accurately ripped
6 | (32/32) Accurately ripped
7 | (32/32) Accurately ripped
8 | (32/32) Accurately ripped


==== Log checksum 2BD95770C1F4EBD53A927618A59F4B3C1BE9F77C069B71465D51D72699873A41 ====

foobar2000 1.1.7 / Dynamic Range Meter 1.1.1
log date: 2016-10-08 08:48:14

––––––––––––––––––––––––––––––––––––––––
Analyzed: David Bowie / David Live CD2
––––––––––––––––––––––––––––––––––––––––

DR Peak RMS Duration Track
––––––––––––––––––––––––––––––––––––––––
DR11 -0.10 dB -13.50 dB 4:17 01-Rock 'N' Roll With Me
DR11 -0.10 dB -11.94 dB 5:05 02-Watch That Man
DR11 -0.11 dB -13.09 dB 3:20 03-Knock On Wood
DR12 -0.10 dB -12.69 dB 6:30 04-Diamond Dogs
DR12 -0.11 dB -14.23 dB 4:08 05-Big Brother
DR11 -0.11 dB -13.41 dB 8:12 06-The Width Of A Circle
DR11 -0.11 dB -13.39 dB 5:17 07-The Jean Genie
DR12 -0.11 dB -14.69 dB 4:48 08-Rock 'N' Roll Suicide
––––––––––––––––––––––––––––––––––––––––

Number of tracks: 8
Official DR value: DR11

Samplerate: 44100 Hz
Channels: 2
Bits per sample: 16
Bitrate: 1411 kbps
Codec: PCM
================================================================================




David Bowie - Who Can I Be Now? (1974-1976) [12CDs Box-Set] (2016)

Discs 4 & 5: 1974 - David Live (2005 Mix) (2CD)
Pop/Rock, Glam, Soul | EAC Rip | FLAC, Img+CUE+LOG+Full Scans-600dpi (PNG) | 01:42:51 h. | 801,73 Mb
Label: Parlophone Records Ltd. (EU) | Released: 2016-09-23


Tracklist:

CD1 (00:49:11)

01. 1984 03:22
02. Rebel Rebel 02:41
03. Moonage Daydream 05:08
04. Sweet Thing / Candidate / Sweet Thing (Reprise) 08:35
05. Changes 03:35
06. Suffragette City 03:42
07. Aladdin Sane 05:02
08. All The Young Dudes 04:14
09. Cracked Actor 03:26
10. Rock 'N' Roll With Me 04:16
11. Watch That Man 05:05

CD2 (00:53:40)

01. Knock On Wood 03:24
02. Here Today, Gone Tomorrow 03:48
03. Space Oddity 06:26
04. Diamond Dogs 06:26
05. Panic In Detroit 05:39
06. Big Brother 04:14
07. Time 05:23
08. The Width Of A Circle 08:10
09. The Jean Genie 05:19
10. Rock 'N' Roll Suicide 04:46

Exact Audio Copy V1.1 from 23. June 2015

EAC extraction logfile from 7. October 2016, 21:13

David Bowie / David Live (2005 Mix) CD1

Used drive : PLEXTOR BD-R PX-B950SA Adapter: 1 ID: 1

Read mode : Secure
Utilize accurate stream : Yes
Defeat audio cache : Yes
Make use of C2 pointers : No

Read offset correction : 6
Overread into Lead-In and Lead-Out : No
Fill up missing offset samples with silence : Yes
Delete leading and trailing silent blocks : No
Null samples used in CRC calculations : Yes
Used interface : Native Win32 interface for Win NT & 2000

Used output format : Internal WAV Routines
Sample format : 44.100 Hz; 16 Bit; Stereo


TOC of the extracted CD

Track | Start | Length | Start sector | End sector
––––––––––––––––––––––––––––-
1 | 0:00.00 | 3:22.19 | 0 | 15168
2 | 3:22.19 | 2:41.14 | 15169 | 27257
3 | 6:03.33 | 5:08.27 | 27258 | 50384
4 | 11:11.60 | 8:35.54 | 50385 | 89063
5 | 19:47.39 | 3:35.53 | 89064 | 105241
6 | 23:23.17 | 3:42.39 | 105242 | 121930
7 | 27:05.56 | 5:02.11 | 121931 | 144591
8 | 32:07.67 | 4:14.52 | 144592 | 163693
9 | 36:22.44 | 3:26.15 | 163694 | 179158
10 | 39:48.59 | 4:16.34 | 179159 | 198392
11 | 44:05.18 | 5:05.70 | 198393 | 221337


Range status and errors

Selected range

Filename C:\Users\Meijin\Desktop\David Bowie\2016 Who Can I Be Now 1974-1976 (12CD Box Set Parlophone Records)\1974 David Live (2005 Mix) 2CD\CD1\David Bowie - David Live (2005 Mix) CD1.wav

Peak level 94.9 %
Extraction speed 7.0 X
Range quality 99.9 %
Test CRC 224C4FC9
Copy CRC 224C4FC9
Copy OK

No errors occurred


AccurateRip summary

Track 1 accurately ripped (confidence 3) [58BF4FEA] (AR v2)
Track 2 accurately ripped (confidence 3) [7CECD05E] (AR v2)
Track 3 accurately ripped (confidence 3) [B674622F] (AR v2)
Track 4 accurately ripped (confidence 3) [B9FF1C7F] (AR v2)
Track 5 accurately ripped (confidence 3) [3D1C15B8] (AR v2)
Track 6 accurately ripped (confidence 3) [A3E0CB4E] (AR v2)
Track 7 accurately ripped (confidence 3) [55FAFBD2] (AR v2)
Track 8 accurately ripped (confidence 3) [4CC5AC31] (AR v2)
Track 9 accurately ripped (confidence 3) [65AF65D8] (AR v2)
Track 10 accurately ripped (confidence 3) [2DE00FBF] (AR v2)
Track 11 accurately ripped (confidence 3) [D38BD1E7] (AR v2)

All tracks accurately ripped

End of status report

–– CUETools DB Plugin V2.1.6

[CTDB TOCID: zg2kmb2wIvZ1yEij17b3mYeGXag-] found
Submit result: zg2kmb2wIvZ1yEij17b3mYeGXag- has been confirmed
Track | CTDB Status
1 | (31/31) Accurately ripped
2 | (31/31) Accurately ripped
3 | (31/31) Accurately ripped
4 | (31/31) Accurately ripped
5 | (31/31) Accurately ripped
6 | (31/31) Accurately ripped
7 | (31/31) Accurately ripped
8 | (31/31) Accurately ripped
9 | (31/31) Accurately ripped
10 | (31/31) Accurately ripped
11 | (31/31) Accurately ripped


==== Log checksum C339FC8C02206A7E9E08957EA99997A1632CBBEC97FD3F79CFDA543E9C8270F2 ====

foobar2000 1.1.7 / Dynamic Range Meter 1.1.1
log date: 2016-10-07 21:19:10

––––––––––––––––––––––––––––––––––––––––
Analyzed: David Bowie / David Live (2005 Mix) CD1
––––––––––––––––––––––––––––––––––––––––

DR Peak RMS Duration Track
––––––––––––––––––––––––––––––––––––––––
DR12 -0.78 dB -15.58 dB 3:22 01-1984
DR13 -0.45 dB -15.11 dB 2:41 02-Rebel Rebel
DR12 -2.50 dB -17.96 dB 5:08 03-Moonage Daydream
DR13 -2.62 dB -17.89 dB 8:36 04-Sweet Thing/Candidate / Sweet Thing (Reprise)
DR12 -3.12 dB -18.28 dB 3:36 05-Changes
DR11 -3.03 dB -15.76 dB 3:43 06-Suffragette City
DR11 -2.27 dB -16.60 dB 5:02 07-Aladdin Sane
DR12 -2.46 dB -16.75 dB 4:15 08-All The Young Dudes
DR12 -2.55 dB -17.20 dB 3:26 09-Cracked Actor
DR12 -0.89 dB -15.24 dB 4:16 10-Rock And Roll With Me
DR12 -1.05 dB -14.19 dB 5:06 11-Watch That Man
––––––––––––––––––––––––––––––––––––––––

Number of tracks: 11
Official DR value: DR12

Samplerate: 44100 Hz
Channels: 2
Bits per sample: 16
Bitrate: 1411 kbps
Codec: PCM
================================================================================

Exact Audio Copy V1.1 from 23. June 2015

EAC extraction logfile from 7. October 2016, 20:45

David Bowie / David Live (2005 Mix) CD2

Used drive : PLEXTOR BD-R PX-B950SA Adapter: 1 ID: 1

Read mode : Secure
Utilize accurate stream : Yes
Defeat audio cache : Yes
Make use of C2 pointers : No

Read offset correction : 6
Overread into Lead-In and Lead-Out : No
Fill up missing offset samples with silence : Yes
Delete leading and trailing silent blocks : No
Null samples used in CRC calculations : Yes
Used interface : Native Win32 interface for Win NT & 2000

Used output format : Internal WAV Routines
Sample format : 44.100 Hz; 16 Bit; Stereo


TOC of the extracted CD

Track | Start | Length | Start sector | End sector
––––––––––––––––––––––––––––-
1 | 0:00.00 | 3:24.69 | 0 | 15368
2 | 3:24.69 | 3:48.00 | 15369 | 32468
3 | 7:12.69 | 6:26.36 | 32469 | 61454
4 | 13:39.30 | 6:26.55 | 61455 | 90459
5 | 20:06.10 | 5:39.43 | 90460 | 115927
6 | 25:45.53 | 4:14.02 | 115928 | 134979
7 | 29:59.55 | 5:23.21 | 134980 | 159225
8 | 35:23.01 | 8:10.59 | 159226 | 196034
9 | 43:33.60 | 5:19.21 | 196035 | 219980
10 | 48:53.06 | 4:46.51 | 219981 | 241481


Range status and errors

Selected range

Filename C:\Users\Meijin\Desktop\David Bowie\2016 Who Can I Be Now 1974-1976 (12CD Box Set Parlophone Records)\1974 David Live (2005 Mix) 2CD\CD2\David Bowie - David Live (2005 Mix) CD2.wav

Peak level 100.0 %
Extraction speed 7.1 X
Range quality 99.9 %
Test CRC E4D59C9A
Copy CRC E4D59C9A
Copy OK

No errors occurred


AccurateRip summary

Track 1 accurately ripped (confidence 3) [B80AA452] (AR v2)
Track 2 accurately ripped (confidence 3) [3254AAE8] (AR v2)
Track 3 accurately ripped (confidence 3) [78D78B53] (AR v2)
Track 4 accurately ripped (confidence 3) [E6CE3BA4] (AR v2)
Track 5 accurately ripped (confidence 3) [17296022] (AR v2)
Track 6 accurately ripped (confidence 3) [35C57325] (AR v2)
Track 7 accurately ripped (confidence 3) [94946E76] (AR v2)
Track 8 accurately ripped (confidence 3) [673707FC] (AR v2)
Track 9 accurately ripped (confidence 3) [27443EF1] (AR v2)
Track 10 accurately ripped (confidence 3) [13AAF057] (AR v2)

All tracks accurately ripped

End of status report

–– CUETools DB Plugin V2.1.6

[CTDB TOCID: A5CVLOf4a4kqAGs9i1QGyIw7ptE-] found
Submit result: A5CVLOf4a4kqAGs9i1QGyIw7ptE- has been confirmed
Track | CTDB Status
1 | (31/31) Accurately ripped
2 | (31/31) Accurately ripped
3 | (31/31) Accurately ripped
4 | (31/31) Accurately ripped
5 | (31/31) Accurately ripped
6 | (31/31) Accurately ripped
7 | (31/31) Accurately ripped
8 | (31/31) Accurately ripped
9 | (31/31) Accurately ripped
10 | (30/31) Accurately ripped


==== Log checksum 3732368D850B334ABD824E413C3DF3C9341D37CEDB28B58D0FAA5225EB43E0B6 ====

foobar2000 1.1.7 / Dynamic Range Meter 1.1.1
log date: 2016-10-07 20:52:35

––––––––––––––––––––––––––––––––––––––––
Analyzed: David Bowie / David Live (2005 Mix) CD2
––––––––––––––––––––––––––––––––––––––––

DR Peak RMS Duration Track
––––––––––––––––––––––––––––––––––––––––
DR12 -2.61 dB -16.82 dB 3:25 01-Knock On Wood
DR14 0.00 dB -15.86 dB 3:48 02-Here Today, Gone Tomorrow
DR13 -1.99 dB -17.70 dB 6:26 03-Space Oddity
DR13 -1.75 dB -16.45 dB 6:27 04-Diamond Dogs
DR12 -2.09 dB -15.72 dB 5:40 05-Panic In Detroit
DR13 -1.77 dB -18.74 dB 4:14 06-Big Brother
DR12 -2.31 dB -17.58 dB 5:23 07-Time
DR13 -1.93 dB -17.20 dB 8:11 08-The Width Of A Circle
DR12 -1.78 dB -16.52 dB 5:19 09-The Jean Genie
DR12 -1.94 dB -16.72 dB 4:47 10-Rock 'N' Roll Suicide
––––––––––––––––––––––––––––––––––––––––

Number of tracks: 10
Official DR value: DR12

Samplerate: 44100 Hz
Channels: 2
Bits per sample: 16
Bitrate: 1411 kbps
Codec: PCM
================================================================================




David Bowie - Who Can I Be Now? (1974-1976) [12CDs Box-Set] (2016)

Disc 6: 1974 - The Gouster
Pop/Rock, Glam, Soul | EAC Rip | FLAC, Img+CUE+LOG+Full Scans-600dpi (PNG) | 40:08 Min. | 326,84 Mb
Label: Parlophone Records Ltd. (EU) | Released: 2016-09-23


Tracklist:

01. John, I'm Only Dancing (Again) 07:01
02. Somebody Up There Likes Me (Alternative Early Mix) 06:32
03. It's Gonna Be Me (Without Strings) 06:30
04. Who Can I Be Now? 04:42
05. Can You Hear Me (Alternative Early Version) 05:24
06. Young Americans 05:17
07. Right (Alternative Early Version) 04:40

Exact Audio Copy V1.1 from 23. June 2015

EAC extraction logfile from 7. October 2016, 20:18

David Bowie / The Gouster

Used drive : PLEXTOR BD-R PX-B950SA Adapter: 1 ID: 1

Read mode : Secure
Utilize accurate stream : Yes
Defeat audio cache : Yes
Make use of C2 pointers : No

Read offset correction : 6
Overread into Lead-In and Lead-Out : No
Fill up missing offset samples with silence : Yes
Delete leading and trailing silent blocks : No
Null samples used in CRC calculations : Yes
Used interface : Native Win32 interface for Win NT & 2000

Used output format : Internal WAV Routines
Sample format : 44.100 Hz; 16 Bit; Stereo


TOC of the extracted CD

Track | Start | Length | Start sector | End sector
––––––––––––––––––––––––––––-
1 | 0:00.00 | 7:01.42 | 0 | 31616
2 | 7:01.42 | 6:32.55 | 31617 | 61071
3 | 13:34.22 | 6:30.18 | 61072 | 90339
4 | 20:04.40 | 4:42.09 | 90340 | 111498
5 | 24:46.49 | 5:24.35 | 111499 | 135833
6 | 30:11.09 | 5:17.07 | 135834 | 159615
7 | 35:28.16 | 4:40.14 | 159616 | 180629


Range status and errors

Selected range

Filename C:\Users\Meijin\Desktop\David Bowie\2016 Who Can I Be Now 1974-1976 (12CD Box Set Parlophone Records)\1974 The Gouster\David Bowie - The Gouster.wav

Peak level 88.1 %
Extraction speed 6.7 X
Range quality 100.0 %
Test CRC FDBAFA10
Copy CRC FDBAFA10
Copy OK

No errors occurred


AccurateRip summary

Track 1 accurately ripped (confidence 3) [D6B94436] (AR v2)
Track 2 accurately ripped (confidence 3) [AFD50D7C] (AR v2)
Track 3 accurately ripped (confidence 3) [F7CCA90C] (AR v2)
Track 4 accurately ripped (confidence 3) [01E5A558] (AR v2)
Track 5 accurately ripped (confidence 3) [F3CD90C8] (AR v2)
Track 6 accurately ripped (confidence 3) [B10F5953] (AR v2)
Track 7 accurately ripped (confidence 3) [CF210443] (AR v2)

All tracks accurately ripped

End of status report

–– CUETools DB Plugin V2.1.6

[CTDB TOCID: K2j3YKh8UBZqHLAaZ6iQ5NmWGcQ-] found
Submit result: K2j3YKh8UBZqHLAaZ6iQ5NmWGcQ- has been confirmed
Track | CTDB Status
1 | (37/37) Accurately ripped
2 | (36/37) Accurately ripped
3 | (37/37) Accurately ripped
4 | (37/37) Accurately ripped
5 | (37/37) Accurately ripped
6 | (37/37) Accurately ripped
7 | (37/37) Accurately ripped


==== Log checksum 1080739F0D70051FA59719104672BA33862BF99A543048B55A15D0D4D1D39601 ====

foobar2000 1.1.7 / Dynamic Range Meter 1.1.1
log date: 2016-10-07 20:24:27

––––––––––––––––––––––––––––––––––––––––
Analyzed: David Bowie / The Gouster
––––––––––––––––––––––––––––––––––––––––

DR Peak RMS Duration Track
––––––––––––––––––––––––––––––––––––––––
DR11 -1.10 dB -14.01 dB 7:02 01-John, I'm Only Dancing (Again)
DR10 -1.11 dB -12.78 dB 6:33 02-Somebody Up There Likes Me (Alternative Early Mix)
DR13 -1.12 dB -16.67 dB 6:30 03-It's Gonna Be Me
DR10 -1.10 dB -13.18 dB 4:42 04-Who Can I Be Now?
DR11 -1.12 dB -14.12 dB 5:24 05-Can You Hear Me (Alternative Early Version)
DR11 -1.09 dB -14.20 dB 5:17 06-Young Americans
DR11 -1.10 dB -13.64 dB 4:40 07-Right (Alternative Early Version)
––––––––––––––––––––––––––––––––––––––––

Number of tracks: 7
Official DR value: DR11

Samplerate: 44100 Hz
Channels: 2
Bits per sample: 16
Bitrate: 1411 kbps
Codec: PCM
================================================================================




David Bowie - Who Can I Be Now? (1974-1976) [12CDs Box-Set] (2016)

Disc 7: 1975 - Young Americans
Pop/Rock, Glam, Soul | EAC Rip | FLAC, Img+CUE+LOG+Full Scans-600dpi (PNG) | 40:52 Min. | 346,69 Mb
Label: Parlophone Records Ltd. (EU) | Released: 2016-09-23


Tracklist:

01. Young Americans 05:13
02. Win 04:47
03. Fascination 05:48
04. Right 04:22
05. Somebody Up There Likes Me 06:36
06. Across The Universe 04:33
07. Can You Hear Me 05:08
08. Fame 04:21

Exact Audio Copy V1.1 from 23. June 2015

EAC extraction logfile from 7. October 2016, 19:55

David Bowie / Young Americans

Used drive : PLEXTOR BD-R PX-B950SA Adapter: 1 ID: 1

Read mode : Secure
Utilize accurate stream : Yes
Defeat audio cache : Yes
Make use of C2 pointers : No

Read offset correction : 6
Overread into Lead-In and Lead-Out : No
Fill up missing offset samples with silence : Yes
Delete leading and trailing silent blocks : No
Null samples used in CRC calculations : Yes
Used interface : Native Win32 interface for Win NT & 2000

Used output format : Internal WAV Routines
Sample format : 44.100 Hz; 16 Bit; Stereo


TOC of the extracted CD

Track | Start | Length | Start sector | End sector
––––––––––––––––––––––––––––-
1 | 0:00.00 | 5:13.53 | 0 | 23527
2 | 5:13.53 | 4:47.43 | 23528 | 45095
3 | 10:01.21 | 5:48.26 | 45096 | 71221
4 | 15:49.47 | 4:22.67 | 71222 | 90938
5 | 20:12.39 | 6:36.34 | 90939 | 120672
6 | 26:48.73 | 4:33.52 | 120673 | 141199
7 | 31:22.50 | 5:08.55 | 141200 | 164354
8 | 36:31.30 | 4:21.28 | 164355 | 183957


Range status and errors

Selected range

Filename C:\Users\Meijin\Desktop\David Bowie\2016 Who Can I Be Now 1974-1976 (12CD Box Set Parlophone Records)\1975 Young Americans\David Bowie - Young Americans.wav

Peak level 96.8 %
Extraction speed 6.8 X
Range quality 100.0 %
Test CRC 716E4A17
Copy CRC 716E4A17
Copy OK

No errors occurred


AccurateRip summary

Track 1 accurately ripped (confidence 3) [3FAB111A] (AR v2)
Track 2 accurately ripped (confidence 3) [B253D256] (AR v2)
Track 3 accurately ripped (confidence 3) [3B85EC25] (AR v2)
Track 4 accurately ripped (confidence 3) [EC97EA5D] (AR v2)
Track 5 accurately ripped (confidence 3) [F907BB08] (AR v2)
Track 6 accurately ripped (confidence 3) [ED10993F] (AR v2)
Track 7 accurately ripped (confidence 3) [A6038687] (AR v2)
Track 8 accurately ripped (confidence 3) [0E02AD56] (AR v2)

All tracks accurately ripped

End of status report

–– CUETools DB Plugin V2.1.6

[CTDB TOCID: vG1ZEIQH7q71KiJLcILCXxa7pI4-] found
Submit result: vG1ZEIQH7q71KiJLcILCXxa7pI4- has been confirmed
Track | CTDB Status
1 | (32/32) Accurately ripped
2 | (31/32) Accurately ripped
3 | (32/32) Accurately ripped
4 | (32/32) Accurately ripped
5 | (32/32) Accurately ripped
6 | (32/32) Accurately ripped
7 | (32/32) Accurately ripped
8 | (32/32) Accurately ripped


==== Log checksum 6D65A282C135B465BF81CF6F00D034F1CA792A9F96CF33D3B6028D00C5C5D4B7 ====

foobar2000 1.1.7 / Dynamic Range Meter 1.1.1
log date: 2016-10-07 19:59:56

––––––––––––––––––––––––––––––––––––––––
Analyzed: David Bowie / Young Americans
––––––––––––––––––––––––––––––––––––––––

DR Peak RMS Duration Track
––––––––––––––––––––––––––––––––––––––––
DR10 -0.27 dB -11.91 dB 5:14 01-Young Americans
DR11 -0.31 dB -13.89 dB 4:48 02-Win
DR11 -0.30 dB -12.82 dB 5:48 03-Fascination
DR11 -0.29 dB -13.53 dB 4:23 04-Right
DR9 -0.28 dB -11.33 dB 6:36 05-Somebody Up There Likes Me
DR9 -0.56 dB -11.73 dB 4:34 06-Across The Universe
DR10 -0.29 dB -12.72 dB 5:09 07-Can You Hear Me
DR12 -0.28 dB -13.94 dB 4:21 08-Fame
––––––––––––––––––––––––––––––––––––––––

Number of tracks: 8
Official DR value: DR10

Samplerate: 44100 Hz
Channels: 2
Bits per sample: 16
Bitrate: 1411 kbps
Codec: PCM
================================================================================




David Bowie - Who Can I Be Now? (1974-1976) [12CDs Box-Set] (2016)

Disc 8: 1976 - Station To Station
Pop/Rock, Glam, Soul | EAC Rip | FLAC, Img+CUE+LOG+Full Scans-600dpi (PNG) | 38:24 Min. | 296,19 Mb
Label: Parlophone Records Ltd. (EU) | Released: 2016-09-23


Tracklist:

01. Station To Station 10:17
02. Golden Years 04:03
03. Word On A Wing 06:04
04. TVC15 05:35
05. Stay 06:16
06. Wild Is The Wind 06:06

Exact Audio Copy V1.1 from 23. June 2015

EAC extraction logfile from 7. October 2016, 19:28

David Bowie / Station To Station

Used drive : PLEXTOR BD-R PX-B950SA Adapter: 1 ID: 1

Read mode : Secure
Utilize accurate stream : Yes
Defeat audio cache : Yes
Make use of C2 pointers : No

Read offset correction : 6
Overread into Lead-In and Lead-Out : No
Fill up missing offset samples with silence : Yes
Delete leading and trailing silent blocks : No
Null samples used in CRC calculations : Yes
Used interface : Native Win32 interface for Win NT & 2000

Used output format : Internal WAV Routines
Sample format : 44.100 Hz; 16 Bit; Stereo


TOC of the extracted CD

Track | Start | Length | Start sector | End sector
––––––––––––––––––––––––––––-
1 | 0:00.00 | 10:17.54 | 0 | 46328
2 | 10:17.54 | 4:03.21 | 46329 | 64574
3 | 14:21.00 | 6:04.71 | 64575 | 91945
4 | 20:25.71 | 5:35.26 | 91946 | 117096
5 | 26:01.22 | 6:16.68 | 117097 | 145364
6 | 32:18.15 | 6:06.27 | 145365 | 172841


Range status and errors

Selected range

Filename C:\Users\Meijin\Desktop\David Bowie\2016 Who Can I Be Now 1974-1976 (12CD Box Set Parlophone Records)\1976 Station To Station\David Bowie - Station To Station.wav

Peak level 85.6 %
Extraction speed 6.6 X
Range quality 100.0 %
Test CRC 4B63BE5D
Copy CRC 4B63BE5D
Copy OK

No errors occurred


AccurateRip summary

Track 1 accurately ripped (confidence 3) [72123A6F] (AR v2)
Track 2 accurately ripped (confidence 3) [8215626A] (AR v2)
Track 3 accurately ripped (confidence 3) [02328F6A] (AR v2)
Track 4 accurately ripped (confidence 3) [BC80A941] (AR v2)
Track 5 accurately ripped (confidence 3) [1E040DB6] (AR v2)
Track 6 accurately ripped (confidence 3) [76D731A5] (AR v2)

All tracks accurately ripped

End of status report

–– CUETools DB Plugin V2.1.6

[CTDB TOCID: 9cPRIoYt.IPFLHwt.ZJwR61m8R0-] found
Submit result: 9cPRIoYt.IPFLHwt.ZJwR61m8R0- has been confirmed
Track | CTDB Status
1 | (30/30) Accurately ripped
2 | (30/30) Accurately ripped
3 | (30/30) Accurately ripped
4 | (30/30) Accurately ripped
5 | (30/30) Accurately ripped
6 | (30/30) Accurately ripped


==== Log checksum 5AC3FF9764F5A015EBCDE6FB6F97B70866153DD9FCF09AA5CB8A0089D2081BCA ====

foobar2000 1.1.7 / Dynamic Range Meter 1.1.1
log date: 2016-10-07 19:34:43

––––––––––––––––––––––––––––––––––––––––
Analyzed: David Bowie / Station To Station
––––––––––––––––––––––––––––––––––––––––

DR Peak RMS Duration Track
––––––––––––––––––––––––––––––––––––––––
DR11 -1.35 dB -15.42 dB 10:18 01-Station To Station
DR11 -1.39 dB -13.88 dB 4:03 02-Golden Years
DR11 -1.37 dB -14.23 dB 6:05 03-Word On A Wing
DR10 -1.39 dB -14.43 dB 5:35 04-TVC15
DR10 -1.37 dB -13.44 dB 6:17 05-Stay
DR11 -1.40 dB -15.07 dB 6:06 06-Wild Is The Wind
––––––––––––––––––––––––––––––––––––––––

Number of tracks: 6
Official DR value: DR11

Samplerate: 44100 Hz
Channels: 2
Bits per sample: 16
Bitrate: 1411 kbps
Codec: PCM
================================================================================




David Bowie - Who Can I Be Now? (1974-1976) [12CDs Box-Set] (2016)

Disc 9: 1976 - Station To Station (Harry Maslin 2010 Mix)
Pop/Rock, Glam, Soul | EAC Rip | FLAC, Img+CUE+LOG+Full Scans-600dpi (PNG) | 38:13 Min. | 326,39 Mb
Label: Parlophone Records Ltd. (EU) | Released: 2016-09-23


Tracklist:

01. Station To Station 10:18
02. Golden Years 04:03
03. Word On A Wing 05:55
04. TVC15 05:33
05. Stay 06:15
06. Wild Is The Wind 06:07

Exact Audio Copy V1.1 from 23. June 2015

EAC extraction logfile from 7. October 2016, 16:38

David Bowie / Station To Station (Harry Maslin 2010 Mix)

Used drive : PLEXTOR BD-R PX-B950SA Adapter: 1 ID: 1

Read mode : Secure
Utilize accurate stream : Yes
Defeat audio cache : Yes
Make use of C2 pointers : No

Read offset correction : 6
Overread into Lead-In and Lead-Out : No
Fill up missing offset samples with silence : Yes
Delete leading and trailing silent blocks : No
Null samples used in CRC calculations : Yes
Used interface : Native Win32 interface for Win NT & 2000

Used output format : Internal WAV Routines
Sample format : 44.100 Hz; 16 Bit; Stereo


TOC of the extracted CD

Track | Start | Length | Start sector | End sector
––––––––––––––––––––––––––––-
1 | 0:00.00 | 10:18.39 | 0 | 46388
2 | 10:18.39 | 4:03.35 | 46389 | 64648
3 | 14:21.74 | 5:55.51 | 64649 | 91324
4 | 20:17.50 | 5:33.01 | 91325 | 116300
5 | 25:50.51 | 6:15.31 | 116301 | 144456
6 | 32:06.07 | 6:07.20 | 144457 | 172001


Range status and errors

Selected range

Filename C:\Users\Meijin\Desktop\David Bowie\2016 Who Can I Be Now 1974-1976 (12CD Box Set Parlophone Records)\1976 Station To Station (Harry Maslin 2010 Mix)\David Bowie - Station To Station (Harry Maslin 2010 Mix).wav

Peak level 84.1 %
Extraction speed 6.6 X
Range quality 100.0 %
Test CRC 658D4DFD
Copy CRC 658D4DFD
Copy OK

No errors occurred


AccurateRip summary

Track 1 accurately ripped (confidence 3) [74142138] (AR v2)
Track 2 accurately ripped (confidence 3) [7B0E34DC] (AR v2)
Track 3 accurately ripped (confidence 3) [71DF22B5] (AR v2)
Track 4 accurately ripped (confidence 3) [AD0C18A8] (AR v2)
Track 5 accurately ripped (confidence 3) [26E9B571] (AR v2)
Track 6 accurately ripped (confidence 3) [47FAD5E6] (AR v2)

All tracks accurately ripped

End of status report

–– CUETools DB Plugin V2.1.6

[CTDB TOCID: JVU7vl6O8Xao0pR7kJbUgoJ0iHQ-] found
Submit result: JVU7vl6O8Xao0pR7kJbUgoJ0iHQ- has been confirmed
Track | CTDB Status
1 | (31/32) Accurately ripped
2 | (32/32) Accurately ripped
3 | (32/32) Accurately ripped
4 | (32/32) Accurately ripped
5 | (32/32) Accurately ripped
6 | (32/32) Accurately ripped


==== Log checksum F8AE93EEEB488B8E59824215D88D062EF2B5350C07F44B8A0390334584ECA865 ====

foobar2000 1.1.7 / Dynamic Range Meter 1.1.1
log date: 2016-10-07 16:42:55

––––––––––––––––––––––––––––––––––––––––
Analyzed: David Bowie / Station To Station (Harry Maslin 2010 Mix)
––––––––––––––––––––––––––––––––––––––––

DR Peak RMS Duration Track
––––––––––––––––––––––––––––––––––––––––
DR8 -1.88 dB -12.87 dB 10:19 01-Station To Station
DR9 -1.50 dB -12.40 dB 4:03 02-Golden Years
DR7 -2.04 dB -11.51 dB 5:56 03-Word On A Wing
DR7 -2.51 dB -11.17 dB 5:33 04-TVC15
DR8 -2.54 dB -11.81 dB 6:15 05-Stay
DR7 -2.74 dB -12.15 dB 6:07 06-Wild Is The Wind
––––––––––––––––––––––––––––––––––––––––

Number of tracks: 6
Official DR value: DR8

Samplerate: 44100 Hz
Channels: 2
Bits per sample: 16
Bitrate: 1411 kbps
Codec: PCM
================================================================================




David Bowie - Who Can I Be Now? (1974-1976) [12CDs Box-Set] (2016)

Discs 10 & 11: 1983 - Live Nassau Coliseum ’76 (2CD)
Pop/Rock, Glam, Soul | EAC Rip | FLAC, Img+CUE+LOG+Full Scans-600dpi (PNG) | 01:23:01 h. | 731,17 Mb
Label: Parlophone Records Ltd. (EU) | Released: 2016-09-23


Tracklist:

CD1 (00:42:23)

01. Station To Station 11:52
02. Suffragette City 03:30
03. Fame 03:58
04. Word On A Wing 06:04
05. Stay 07:24
06. Waiting For The Man 06:19
07. Queen Bitch 03:11

CD2 (00:40:38)

01. Life On Mars? 02:13
02. Five Years 05:04
03. Panic In Detroit 06:02
04. Changes 04:10
05. TVC15 04:57
06. Diamond Dogs 06:38
07. Rebel Rebel 04:06
08. The Jean Genie 07:25

Exact Audio Copy V1.1 from 23. June 2015

EAC extraction logfile from 6. October 2016, 20:40

David Bowie / Live Nassau Coliseum '76 CD1

Used drive : PLEXTOR BD-R PX-B950SA Adapter: 1 ID: 1

Read mode : Secure
Utilize accurate stream : Yes
Defeat audio cache : Yes
Make use of C2 pointers : No

Read offset correction : 6
Overread into Lead-In and Lead-Out : No
Fill up missing offset samples with silence : Yes
Delete leading and trailing silent blocks : No
Null samples used in CRC calculations : Yes
Used interface : Native Win32 interface for Win NT & 2000

Used output format : Internal WAV Routines
Sample format : 44.100 Hz; 16 Bit; Stereo


TOC of the extracted CD

Track | Start | Length | Start sector | End sector
––––––––––––––––––––––––––––-
1 | 0:00.00 | 11:52.59 | 0 | 53458
2 | 11:52.59 | 3:30.56 | 53459 | 69264
3 | 15:23.40 | 3:58.64 | 69265 | 87178
4 | 19:22.29 | 6:04.68 | 87179 | 114546
5 | 25:27.22 | 7:24.71 | 114547 | 147917
6 | 32:52.18 | 6:19.58 | 147918 | 176400
7 | 39:12.01 | 3:11.30 | 176401 | 190755


Range status and errors

Selected range

Filename C:\Users\Meijin\Desktop\David Bowie\2016 Who Can I Be Now 1974-1976 (12CD Box Set Parlophone Records)\1983 Live Nassau Coliseum '76 2CD\CD1\David Bowie - Live Nassau Coliseum '76 CD1.wav

Peak level 99.6 %
Extraction speed 7.0 X
Range quality 100.0 %
Test CRC 468B6661
Copy CRC 468B6661
Copy OK

No errors occurred


AccurateRip summary

Track 1 accurately ripped (confidence 14) [BA643203] (AR v2)
Track 2 accurately ripped (confidence 14) [74813CAA] (AR v2)
Track 3 accurately ripped (confidence 14) [1F8C48A9] (AR v2)
Track 4 accurately ripped (confidence 14) [A53B3907] (AR v2)
Track 5 accurately ripped (confidence 14) [62904F27] (AR v2)
Track 6 accurately ripped (confidence 14) [A984E849] (AR v2)
Track 7 accurately ripped (confidence 14) [E3A73C99] (AR v2)

All tracks accurately ripped

End of status report

–– CUETools DB Plugin V2.1.6

[CTDB TOCID: u3llupjbgKTJq5oIMhvLFfWnpJM-] found
Submit result: u3llupjbgKTJq5oIMhvLFfWnpJM- has been confirmed
Track | CTDB Status
1 | (147/150) Accurately ripped
2 | (148/150) Accurately ripped
3 | (148/150) Accurately ripped
4 | (148/150) Accurately ripped
5 | (148/150) Accurately ripped
6 | (148/150) Accurately ripped
7 | (148/150) Accurately ripped


==== Log checksum A4AFFCFB22EA01D9175F44DC54ADCA62A38B668F1B15AAB99C9404725F9EF211 ====

foobar2000 1.1.7 / Dynamic Range Meter 1.1.1
log date: 2016-10-06 20:44:47

––––––––––––––––––––––––––––––––––––––––
Analyzed: David Bowie / Live Nassau Coliseum '76 CD1
––––––––––––––––––––––––––––––––––––––––

DR Peak RMS Duration Track
––––––––––––––––––––––––––––––––––––––––
DR6 -0.10 dB -8.04 dB 11:53 01-Station To Station
DR5 -0.10 dB -6.54 dB 3:31 02-Suffragette City
DR7 -0.03 dB -8.45 dB 3:59 03-Fame
DR7 -0.10 dB -8.55 dB 6:05 04-Word On A Wing
DR6 -0.10 dB -6.91 dB 7:25 05-Stay
DR6 -0.10 dB -7.26 dB 6:20 06-Waiting For The Man
DR6 -0.10 dB -7.47 dB 3:11 07-Queen Bitch
––––––––––––––––––––––––––––––––––––––––

Number of tracks: 7
Official DR value: DR6

Samplerate: 44100 Hz
Channels: 2
Bits per sample: 16
Bitrate: 1411 kbps
Codec: PCM
================================================================================

Exact Audio Copy V1.1 from 23. June 2015

EAC extraction logfile from 6. October 2016, 20:02

David Bowie / Live Nassau Coliseum '76 CD2

Used drive : PLEXTOR BD-R PX-B950SA Adapter: 1 ID: 1

Read mode : Secure
Utilize accurate stream : Yes
Defeat audio cache : Yes
Make use of C2 pointers : No

Read offset correction : 6
Overread into Lead-In and Lead-Out : No
Fill up missing offset samples with silence : Yes
Delete leading and trailing silent blocks : No
Null samples used in CRC calculations : Yes
Used interface : Native Win32 interface for Win NT & 2000

Used output format : Internal WAV Routines
Sample format : 44.100 Hz; 16 Bit; Stereo


TOC of the extracted CD

Track | Start | Length | Start sector | End sector
––––––––––––––––––––––––––––-
1 | 0:00.00 | 2:13.01 | 0 | 9975
2 | 2:13.01 | 5:04.21 | 9976 | 32796
3 | 7:17.22 | 6:02.30 | 32797 | 59976
4 | 13:19.52 | 4:10.71 | 59977 | 78797
5 | 17:30.48 | 4:57.55 | 78798 | 101127
6 | 22:28.28 | 6:38.36 | 101128 | 131013
7 | 29:06.64 | 4:06.26 | 131014 | 149489
8 | 33:13.15 | 7:25.53 | 149490 | 182917


Range status and errors

Selected range

Filename C:\Users\Meijin\Desktop\David Bowie\2016 Who Can I Be Now 1974-1976 (12CD Box Set Parlophone Records)\1983 Live Nassau Coliseum ’76 2CD\CD2\David Bowie - Live Nassau Coliseum '76 CD2.wav

Peak level 98.8 %
Extraction speed 6.7 X
Range quality 100.0 %
Test CRC 7F1E3AD1
Copy CRC 7F1E3AD1
Copy OK

No errors occurred


AccurateRip summary

Track 1 cannot be verified as accurate (confidence 120) [4BCE286A], AccurateRip returned [4DA0FBBA] (AR v2)
Track 2 cannot be verified as accurate (confidence 111) [2348B3A5], AccurateRip returned [588A8BC1] (AR v2)
Track 3 cannot be verified as accurate (confidence 117) [6A5BBF1B], AccurateRip returned [FB5CCD5C] (AR v2)
Track 4 cannot be verified as accurate (confidence 120) [84A5391A], AccurateRip returned [FCE60810] (AR v2)
Track 5 cannot be verified as accurate (confidence 112) [CAB6FE42], AccurateRip returned [43BD48FC] (AR v2)
Track 6 cannot be verified as accurate (confidence 110) [0ACC3742], AccurateRip returned [79779F6B] (AR v2)
Track 7 cannot be verified as accurate (confidence 112) [E149F675], AccurateRip returned [054C17AF] (AR v2)
Track 8 cannot be verified as accurate (confidence 111) [2185FE12], AccurateRip returned [524B4F6E] (AR v2)

No tracks could be verified as accurate
You may have a different pressing from the one(s) in the database

End of status report

–– CUETools DB Plugin V2.1.6

[CTDB TOCID: hBovCXDJ3crWQY2Q0FUnbuOeUSg-] found
Submit result: hBovCXDJ3crWQY2Q0FUnbuOeUSg- has been confirmed
Track | CTDB Status
1 | (144/147) Accurately ripped
2 | (142/147) Accurately ripped
3 | (145/147) Accurately ripped
4 | (145/147) Accurately ripped
5 | (142/147) Accurately ripped
6 | (142/147) Accurately ripped
7 | (142/147) Accurately ripped
8 | (142/147) Accurately ripped


==== Log checksum 516E69E7A748C0C8071A9BF35544FCE2775F8A1C1350CD6743B2CB42B40F4A39 ====

foobar2000 1.1.7 / Dynamic Range Meter 1.1.1
log date: 2016-10-06 20:18:23

––––––––––––––––––––––––––––––––––––––––
Analyzed: David Bowie / Live Nassau Coliseum '76 CD2
––––––––––––––––––––––––––––––––––––––––

DR Peak RMS Duration Track
––––––––––––––––––––––––––––––––––––––––
DR8 -0.10 dB -11.12 dB 2:13 01-Life On Mars?
DR7 -0.10 dB -9.08 dB 5:04 02-Five Years
DR9 -0.10 dB -10.65 dB 6:02 03-Panic In Detroit
DR7 -0.10 dB -10.52 dB 4:11 04-Changes
DR7 -0.10 dB -8.71 dB 4:58 05-TVC15
DR6 -0.10 dB -7.88 dB 6:38 06-Diamond Dogs
DR6 -0.10 dB -6.60 dB 4:06 07-Rebel Rebel
DR6 -0.10 dB -7.81 dB 7:26 08-The Jean Genie
––––––––––––––––––––––––––––––––––––––––

Number of tracks: 8
Official DR value: DR7

Samplerate: 44100 Hz
Channels: 2
Bits per sample: 16
Bitrate: 1411 kbps
Codec: PCM
================================================================================




David Bowie - Who Can I Be Now? (1974-1976) [12CDs Box-Set] (2016)

Disc 12: 2016 - Re:Call 2
Pop/Rock, Glam, Soul | EAC Rip | FLAC, Img+CUE+LOG+Full Scans-600dpi (PNG) | 47:26 Min. | 350,50 Mb
Label: Parlophone Records Ltd. (EU) | Released: 2016-09-23


Tracklist:

01. Rebel Rebel (Original Single Mix) 04:23
02. Diamond Dogs (Australian Single Edit) 03:00
03. Rebel Rebel (US Single Version) 03:00
04. Rock 'N' Roll With Me (Live / Promotional Single Edit) 03:29
05. Panic In Detroit (Live) 05:49
06. Young Americans (Original Single Edit) 03:17
07. Fame (Single Edit) 03:34
08. Golden Years (Single Edit) 03:29
09. Station To Station (Single Edit) 03:41
10. TVC15 (Single Edit) 03:36
11. Stay (Single Edit) 03:22
12. Word On A Wing (Single Edit) 03:14
13. John, I'm Only Dancing (Again) (1975) (Single Version) 03:26

Exact Audio Copy V1.1 from 23. June 2015

EAC extraction logfile from 6. October 2016, 19:22

David Bowie / Re:Call 2

Used drive : PLEXTOR BD-R PX-B950SA Adapter: 1 ID: 1

Read mode : Secure
Utilize accurate stream : Yes
Defeat audio cache : Yes
Make use of C2 pointers : No

Read offset correction : 6
Overread into Lead-In and Lead-Out : No
Fill up missing offset samples with silence : Yes
Delete leading and trailing silent blocks : No
Null samples used in CRC calculations : Yes
Used interface : Native Win32 interface for Win NT & 2000

Used output format : Internal WAV Routines
Sample format : 44.100 Hz; 16 Bit; Stereo


TOC of the extracted CD

Track | Start | Length | Start sector | End sector
––––––––––––––––––––––––––––-
1 | 0:00.00 | 4:23.32 | 0 | 19756
2 | 4:23.32 | 3:00.65 | 19757 | 33321
3 | 7:24.22 | 3:00.56 | 33322 | 46877
4 | 10:25.03 | 3:29.69 | 46878 | 62621
5 | 13:54.72 | 5:49.01 | 62622 | 88797
6 | 19:43.73 | 3:17.21 | 88798 | 103593
7 | 23:01.19 | 3:34.35 | 103594 | 119678
8 | 26:35.54 | 3:29.05 | 119679 | 135358
9 | 30:04.59 | 3:41.24 | 135359 | 151957
10 | 33:46.08 | 3:36.15 | 151958 | 168172
11 | 37:22.23 | 3:22.45 | 168173 | 183367
12 | 40:44.68 | 3:14.23 | 183368 | 197940
13 | 43:59.16 | 3:26.55 | 197941 | 213445


Range status and errors

Selected range

Filename C:\Users\Meijin\Desktop\David Bowie\2016 Who Can I Be Now 1974-1976 (12CD Box Set Parlophone Records)\2016 Re-Call 2\David Bowie - Re-Call 2.wav

Peak level 80.0 %
Extraction speed 7.0 X
Range quality 100.0 %
Test CRC 4C905417
Copy CRC 4C905417
Copy OK

No errors occurred


AccurateRip summary

Track 1 not present in database
Track 2 not present in database
Track 3 not present in database
Track 4 not present in database
Track 5 not present in database
Track 6 not present in database
Track 7 not present in database
Track 8 not present in database
Track 9 not present in database
Track 10 not present in database
Track 11 not present in database
Track 12 not present in database
Track 13 not present in database

None of the tracks are present in the AccurateRip database

End of status report

–– CUETools DB Plugin V2.1.6

[CTDB TOCID: CeLO0440CC9sqq0Y1hSCK7fEpdI-] found
Submit result: CeLO0440CC9sqq0Y1hSCK7fEpdI- has been confirmed
Track | CTDB Status
1 | (33/33) Accurately ripped
2 | (33/33) Accurately ripped
3 | (33/33) Accurately ripped
4 | (33/33) Accurately ripped
5 | (33/33) Accurately ripped
6 | (33/33) Accurately ripped
7 | (33/33) Accurately ripped
8 | (33/33) Accurately ripped
9 | (33/33) Accurately ripped
10 | (33/33) Accurately ripped
11 | (33/33) Accurately ripped
12 | (33/33) Accurately ripped
13 | (32/33) Accurately ripped


==== Log checksum 87F1157844051B5F3FF11E85588087C229EBE5BDEC13B251F3BD4604C1606C7E ====

foobar2000 1.1.7 / Dynamic Range Meter 1.1.1
log date: 2016-10-06 19:40:59

––––––––––––––––––––––––––––––––––––––––
Analyzed: David Bowie / Re:Call 2
––––––––––––––––––––––––––––––––––––––––

DR Peak RMS Duration Track
––––––––––––––––––––––––––––––––––––––––
DR13 -3.53 dB -18.31 dB 4:23 01-Rebel Rebel (Original Single Mix)
DR13 -2.07 dB -17.68 dB 3:01 02-Diamond Dogs (Australian Single Edit)
DR12 -4.13 dB -17.78 dB 3:01 03-Rebel Rebel (U.S. Single Version)
DR12 -3.35 dB -18.52 dB 3:30 04-Rock 'N' Roll With Me (Live / Promotional Single Edit)
DR13 -2.54 dB -17.16 dB 5:49 05-Panic In Detroit (Live)
DR13 -2.40 dB -18.23 dB 3:17 06-Young Americans (Original Single Edit)
DR12 -4.06 dB -18.57 dB 3:34 07-Fame (Original Single Edit)
DR15 -1.98 dB -18.90 dB 3:29 08-Golden Years (Single Version)
DR12 -3.60 dB -16.79 dB 3:41 09-Station To Station (Original Single Version)
DR13 -2.23 dB -18.77 dB 3:36 10-TVC 15 (Original Single Version)
DR12 -2.69 dB -17.07 dB 3:23 11-Stay (Original Single Version)
DR12 -3.80 dB -18.71 dB 3:14 12-Word On A Wing (Original Single Version)
DR13 -1.94 dB -17.87 dB 3:27 13-John, I'm Only Dancing (Again) (1975) (Single Version)
––––––––––––––––––––––––––––––––––––––––

Number of tracks: 13
Official DR value: DR13

Samplerate: 44100 Hz
Channels: 2
Bits per sample: 16
Bitrate: 1411 kbps
Codec: PCM
================================================================================

All thanks to - allekkss48


See also:
David Bowie - Let's Dance (1983) [1985, Club Edition]