Subcategories

David Buchbinder & Odessa/Havana - Walk To The Sea (2013)

Posted By: gribovar
David Buchbinder & Odessa/Havana - Walk To The Sea (2013)

David Buchbinder - Walk To The Sea (2013)
EAC Rip | WavPack (image+.cue+log) - 310 MB | MP3 CBR 320 kbps (LAME 3.93) - 124 MB | Covers - 51 MB
Genre: Latin Jazz, Afro-Cuban Jazz | RAR 3% Rec. | Label: Tzadik (TZ 8177)

Walk To The Sea is award-winning trumpeter David Buchbinder's sophomore album with the Odessa/Havana band, featuring Grammy-nominated pianist and musical director Hilario Duran. It's a spot-on world music venture that stylizes indigenous concepts and applications from Spain, amid Jewish folk, Arabic and Afro-Cuban structural components, woven into a majestic concoction of radiant jazz-centric fare. With triumphant and impacting horns, frothy percussion vamps, alternating pulses, and probing ballads, Buchbinder persuasively excites and entertains.
The trumpeter links a festive outline into the mix, primarily designed with memorably melodic choruses and intricately arranged works, featuring densely populated layers to parallel the frontline soloing and sinuous passages. On "Landarico," vocalist Maryem Hassan Tollar kindles imagery of an ancient love song, colored by the leader's drifting notes that provide a significant amount of depth and a multidimensional aura. But they shift gears into a brisk Latin-jazz groove topped off with a bold and brassy movement leading to closeout. Elsewhere, the band executes breezy Afro-Cuban patterns, topped off by John Johnston's whispery flute lines, and an aggregation of compositions that integrate balladry with assertive breakouts.
It's a buoyant program where the strings section seamlessly aligns with Buchbinder and Johnston's sax parts. Moreover, Jamey Haddad and others employ the Middle Eastern oud on various tracks to instill numerous contrasts, forming a holistic world-beat vibe and signaling a union of disparate musical cultures into a cohesive and largely, fluid whole. Harmonically attractive, dense, layered and brimming with unanticipated surprises and minor shifts in strategy, Buchbinder and his cohorts operate in 10th gear. They spark innovation and execute a throng of contrasting tonalities, spanning an extensive body of musical formations and polychromatic mosaics.
Tracklist:
01. Coffee Works
02. Landarico
03. Aventura Judia
04. La Roza Una
05. Walk to the Sea
06. La Roza Dos
07. Valentin
08. Calliope
09. Conja

Total time: 52:48

Exact Audio Copy V1.1 from 23. June 2015

EAC extraction logfile from 22. March 2016, 16:15

David Buchbinder / Walk to the Sea

Used drive : HL-DT-STDVD-ROM DH16NS10 Adapter: 1 ID: 0

Read mode : Secure
Utilize accurate stream : Yes
Defeat audio cache : Yes
Make use of C2 pointers : No

Read offset correction : 102
Overread into Lead-In and Lead-Out : No
Fill up missing offset samples with silence : Yes
Delete leading and trailing silent blocks : No
Null samples used in CRC calculations : Yes
Used interface : Native Win32 interface for Win NT & 2000

Used output format : User Defined Encoder
Selected bitrate : 896 kBit/s
Quality : High
Add ID3 tag : No
Command line compressor : C:\Program Files (x86)\WavPack\wavpack.exe
Additional command line options : -hlmx4 %source% %dest%


TOC of the extracted CD

Track | Start | Length | Start sector | End sector
––––––––––––––––––––––––––––-
1 | 0:00.00 | 6:29.08 | 0 | 29182
2 | 6:29.08 | 6:29.69 | 29183 | 58426
3 | 12:59.02 | 7:46.18 | 58427 | 93394
4 | 20:45.20 | 3:44.09 | 93395 | 110203
5 | 24:29.29 | 5:55.04 | 110204 | 136832
6 | 30:24.33 | 3:41.17 | 136833 | 153424
7 | 34:05.50 | 7:36.63 | 153425 | 187687
8 | 41:42.38 | 4:15.54 | 187688 | 206866
9 | 45:58.17 | 6:49.56 | 206867 | 237597


Range status and errors

Selected range

Filename K:\Releases_RAW\David Buchbinder - Walk to the Sea\David Buchbinder - Walk to the Sea.wav

Peak level 98.9 %
Extraction speed 2.2 X
Range quality 100.0 %
Test CRC 5A3D4FEA
Copy CRC 5A3D4FEA
Copy OK

No errors occurred


AccurateRip summary

Track 1 not present in database
Track 2 not present in database
Track 3 not present in database
Track 4 not present in database
Track 5 not present in database
Track 6 not present in database
Track 7 not present in database
Track 8 not present in database
Track 9 not present in database

None of the tracks are present in the AccurateRip database

End of status report

–– CUETools DB Plugin V2.1.6

[CTDB TOCID: tb5liLZUHPf_8j_ETr2Cenat7h0-] found
Submit result: tb5liLZUHPf_8j_ETr2Cenat7h0- has been confirmed
Track | CTDB Status
1 | (3/4) Accurately ripped
2 | (3/4) Accurately ripped
3 | (4/4) Accurately ripped
4 | (4/4) Accurately ripped
5 | (4/4) Accurately ripped
6 | (4/4) Accurately ripped
7 | (4/4) Accurately ripped
8 | (4/4) Accurately ripped
9 | (4/4) Accurately ripped


==== Log checksum FB9E08943B10D3A2C8B7A36524C8E53C99039B7F92265EBA3B7342AA65CA97B5 ====

[CUETools log; Date: 09.06.2020 13:39:58; Version: 2.1.4]
[CTDB TOCID: tb5liLZUHPf_8j_ETr2Cenat7h0-] found.
Track | CTDB Status
1 | (6/7) Accurately ripped
2 | (6/7) Accurately ripped
3 | (7/7) Accurately ripped
4 | (7/7) Accurately ripped
5 | (7/7) Accurately ripped
6 | (7/7) Accurately ripped
7 | (7/7) Accurately ripped
8 | (7/7) Accurately ripped
9 | (7/7) Accurately ripped
[AccurateRip ID: 001284b4-008629bc-720c5f09] found.
Track [ CRC | V2 ] Status
01 [759b0f3d|94bf3d0f] (0+2/2) Accurately ripped
02 [28d7812f|0bbbb8c0] (0+2/2) Accurately ripped
03 [5959c023|b080ed85] (0+2/2) Accurately ripped
04 [7f366e6d|485c3268] (0+2/2) Accurately ripped
05 [54a95ff0|aee7b233] (0+2/2) Accurately ripped
06 [535be1da|5725d80b] (0+2/2) Accurately ripped
07 [c2a4c364|b5542be2] (0+2/2) Accurately ripped
08 [0bab621c|556053dd] (0+2/2) Accurately ripped
09 [55b068f6|ea06a196] (0+2/2) Accurately ripped

Track Peak [ CRC32 ] [W/O NULL] [ LOG ]
– 98,9 [5A3D4FEA] [3F3DE6C1] CRC32
01 96,4 [0892D6D3] [D95441F6]
02 94,9 [8EA8D237] [F2AF7E23]
03 96,6 [159D5E4C] [B5FCE9EB]
04 73,6 [61957566] [B30756F0]
05 95,5 [79A18BF5] [36863A1C]
06 98,9 [3E8C7DC2] [FEC0C1A2]
07 95,1 [B25D8112] [AE00D596]
08 95,7 [B6534682] [A63698BD]
09 97,5 [8AA6ECF3] [004CF1FE]

Thanks to Гордый